  0
SECTION
  2
HEADER
  9
$ACADVER
  1
AC1009
  9
$DWGCODEPAGE
  3
ansi_1252
  9
$INSBASE
 10
0.0
 20
0.0
 30
0.0
  9
$EXTMIN
 10
0.0
 20
0.0
 30
0.0
  9
$EXTMAX
 10
420.0
 20
297.0
 30
0.0
  9
$LIMMIN
 10
0.0
 20
0.0
  9
$LIMMAX
 10
420.0
 20
297.0
  9
$ORTHOMODE
 70
     0
  9
$REGENMODE
 70
     1
  9
$FILLMODE
 70
     1
  9
$QTEXTMODE
 70
     0
  9
$MIRRTEXT
 70
     1
  9
$DRAGMODE
 70
     2
  9
$LTSCALE
 40
1.0
  9
$OSMODE
 70
    37
  9
$ATTMODE
 70
     1
  9
$TEXTSIZE
 40
3.5
  9
$TRACEWID
 40
1.0
  9
$TEXTSTYLE
  7
STANDARD
  9
$CLAYER
  8
0
  9
$CELTYPE
  6
BYLAYER
  9
$CECOLOR
 62
   256
  9
$DIMSCALE
 40
1.0
  9
$DIMASZ
 40
3.81
  9
$DIMEXO
 40
0.0
  9
$DIMDLI
 40
3.75
  9
$DIMRND
 40
0.0
  9
$DIMDLE
 40
0.0
  9
$DIMEXE
 40
1.0
  9
$DIMTP
 40
0.0
  9
$DIMTM
 40
0.0
  9
$DIMTXT
 40
3.2
  9
$DIMCEN
 40
2.5
  9
$DIMTSZ
 40
0.0
  9
$DIMTOL
 70
     0
  9
$DIMLIM
 70
     0
  9
$DIMTIH
 70
     1
  9
$DIMTOH
 70
     1
  9
$DIMSE1
 70
     0
  9
$DIMSE2
 70
     0
  9
$DIMTAD
 70
     1
  9
$DIMZIN
 70
     0
  9
$DIMBLK
  1

  9
$DIMASO
 70
     1
  9
$DIMSHO
 70
     1
  9
$DIMPOST
  1

  9
$DIMAPOST
  1

  9
$DIMALT
 70
     0
  9
$DIMALTD
 70
     3
  9
$DIMALTF
 40
0.0393700787
  9
$DIMLFAC
 40
1.0
  9
$DIMTOFL
 70
     1
  9
$DIMTVP
 40
0.0
  9
$DIMTIX
 70
     0
  9
$DIMSOXD
 70
     0
  9
$DIMSAH
 70
     0
  9
$DIMBLK1
  1

  9
$DIMBLK2
  1

  9
$DIMSTYLE
  2
ISO-25
  9
$DIMCLRD
 70
     0
  9
$DIMCLRE
 70
     0
  9
$DIMCLRT
 70
     0
  9
$DIMTFAC
 40
1.0
  9
$DIMGAP
 40
1.524
  9
$LUNITS
 70
     2
  9
$LUPREC
 70
     5
  9
$SKETCHINC
 40
1.0
  9
$FILLETRAD
 40
10.0
  9
$AUNITS
 70
     0
  9
$AUPREC
 70
     0
  9
$MENU
  1
.
  9
$ELEVATION
 40
0.0
  9
$PELEVATION
 40
0.0
  9
$THICKNESS
 40
0.0
  9
$LIMCHECK
 70
     0
  9
$CHAMFERA
 40
10.0
  9
$CHAMFERB
 40
10.0
  9
$SKPOLY
 70
     0
  9
$TDCREATE
 40
2456423.405084456
  9
$TDUPDATE
 40
2456423.405088692
  9
$TDINDWG
 40
0.0000000116
  9
$TDUSRTIMER
 40
0.0000000116
  9
$USRTIMER
 70
     1
  9
$ANGBASE
 50
0.0
  9
$ANGDIR
 70
     0
  9
$PDMODE
 70
     0
  9
$PDSIZE
 40
-1.0
  9
$PLINEWID
 40
0.0
  9
$COORDS
 70
     1
  9
$SPLFRAME
 70
     0
  9
$SPLINETYPE
 70
     6
  9
$SPLINESEGS
 70
     8
  9
$ATTDIA
 70
     0
  9
$ATTREQ
 70
     1
  9
$HANDLING
 70
     1
  9
$HANDSEED
  5
B9D
  9
$SURFTAB1
 70
     6
  9
$SURFTAB2
 70
     6
  9
$SURFTYPE
 70
     6
  9
$SURFU
 70
     6
  9
$SURFV
 70
     6
  9
$UCSNAME
  2

  9
$UCSORG
 10
0.0
 20
0.0
 30
0.0
  9
$UCSXDIR
 10
1.0
 20
0.0
 30
0.0
  9
$UCSYDIR
 10
0.0
 20
1.0
 30
0.0
  9
$PUCSNAME
  2

  9
$PUCSORG
 10
0.0
 20
0.0
 30
0.0
  9
$PUCSXDIR
 10
1.0
 20
0.0
 30
0.0
  9
$PUCSYDIR
 10
0.0
 20
1.0
 30
0.0
  9
$USERI1
 70
     0
  9
$USERI2
 70
     0
  9
$USERI3
 70
     0
  9
$USERI4
 70
     0
  9
$USERI5
 70
     0
  9
$USERR1
 40
0.0
  9
$USERR2
 40
0.0
  9
$USERR3
 40
0.0
  9
$USERR4
 40
0.0
  9
$USERR5
 40
0.0
  9
$WORLDVIEW
 70
     1
  9
$SHADEDGE
 70
     3
  9
$SHADEDIF
 70
    70
  9
$TILEMODE
 70
     1
  9
$MAXACTVP
 70
    64
  9
$PLIMCHECK
 70
     0
  9
$PEXTMIN
 10
1.0000000000E+20
 20
1.0000000000E+20
 30
1.0000000000E+20
  9
$PEXTMAX
 10
-1.0000000000E+20
 20
-1.0000000000E+20
 30
-1.0000000000E+20
  9
$PLIMMIN
 10
0.0
 20
0.0
  9
$PLIMMAX
 10
420.0
 20
297.0
  9
$UNITMODE
 70
     0
  9
$VISRETAIN
 70
     1
  9
$PLINEGEN
 70
     0
  9
$PSLTSCALE
 70
     1
  0
ENDSEC
  0
SECTION
  2
TABLES
  0
TABLE
  2
VPORT
 70
     1
  0
VPORT
  2
*ACTIVE
 70
     0
 10
0.0
 20
0.0
 11
1.0
 21
1.0
 12
210.0
 22
148.5
 13
0.0
 23
0.0
 14
10.0
 24
10.0
 15
10.0
 25
10.0
 16
0.0
 26
0.0
 36
1.0
 17
0.0
 27
0.0
 37
0.0
 40
297.0
 41
1.4141414141
 42
50.0
 43
0.0
 44
0.0
 50
0.0
 51
0.0
 71
     0
 72
  2000
 73
     1
 74
     3
 75
     0
 76
     0
 77
     0
 78
     0
  0
ENDTAB
  0
TABLE
  2
LTYPE
 70
     6
  0
LTYPE
  2
CONTINUOUS
 70
     0
  3
Solid line
 72
    65
 73
     0
 40
0.0
  0
LTYPE
  2
HIDDEN
 70
     0
  3
Hidden __ __ __ __ __ __ __ __ __ __ __ __ __ __
 72
    65
 73
     2
 40
1.905
 49
1.27
 49
-0.635
  0
LTYPE
  2
PHANTOM
 70
     0
  3
Phantom ______  __  __  ______  __  __  ______
 72
    65
 73
     6
 40
12.7
 49
6.35
 49
-1.27
 49
1.27
 49
-1.27
 49
1.27
 49
-1.27
  0
LTYPE
  2
CENTER
 70
     0
  3
Center ____ _ ____ _ ____ _ ____ _ ____ _ ____
 72
    65
 73
     4
 40
10.16
 49
6.35
 49
-1.27
 49
1.27
 49
-1.27
  0
LTYPE
  2
CENTERX2
 70
     0
  3
Center (2x) ________  __  ________  __  _____
 72
    65
 73
     4
 40
20.32
 49
12.7
 49
-2.54
 49
2.54
 49
-2.54
  0
LTYPE
  2
DOT2
 70
     0
  3
Dot (.5x) ........................................
 72
    65
 73
     2
 40
0.635
 49
0.0
 49
-0.635
  0
ENDTAB
  0
TABLE
  2
LAYER
 70
    10
  0
LAYER
  2
0
 70
     0
 62
     7
  6
CONTINUOUS
  0
LAYER
  2
SLD-0
 70
     0
 62
     7
  6
CONTINUOUS
  0
LAYER
  2
PV
 70
     0
 62
     7
  6
CONTINUOUS
  0
LAYER
  2
COTATION
 70
     0
 62
     1
  6
CONTINUOUS
  0
LAYER
  2
NOTES
 70
     0
 62
     5
  6
CONTINUOUS
  0
LAYER
  2
COTATION2
 70
     0
 62
    96
  6
CONTINUOUS
  0
LAYER
  2
COTATION3
 70
     0
 62
    30
  6
CONTINUOUS
  0
LAYER
  2
LOGO1
 70
     0
 62
   156
  6
CONTINUOUS
  0
LAYER
  2
LOGO2
 70
     0
 62
   161
  6
CONTINUOUS
  0
LAYER
  2
NOTE
 70
     0
 62
     5
  6
CONTINUOUS
  0
ENDTAB
  0
TABLE
  2
STYLE
 70
     1
  0
STYLE
  2
STANDARD
 70
     0
 40
0.0
 41
1.0
 50
0.0
 71
     0
 42
3.5
  3
txt
  4

  0
ENDTAB
  0
TABLE
  2
VIEW
 70
     0
  0
ENDTAB
  0
TABLE
  2
UCS
 70
     0
  0
ENDTAB
  0
TABLE
  2
APPID
 70
     1
  0
APPID
  2
ACAD
 70
     0
  0
ENDTAB
  0
TABLE
  2
DIMSTYLE
 70
     3
  0
DIMSTYLE
  2
ISO-25
 70
     0
  3

  4

  5

  6

  7

 40
1.0
 41
2.5
 42
0.625
 43
3.75
 44
1.25
 45
0.0
 46
0.0
 47
0.0
 48
0.0
140
2.5
141
2.5
142
0.0
143
0.0393700787
144
1.0
145
0.0
146
1.0
147
0.625
 71
     0
 72
     0
 73
     0
 74
     0
 75
     0
 76
     0
 77
     1
 78
     8
170
     0
171
     3
172
     1
173
     0
174
     0
175
     0
176
     0
177
     0
178
     0
  0
DIMSTYLE
  2
SLDDIMSTYLE0
 70
     0
  3

  4

  5

  6

  7

 40
1.0
 41
3.81
 42
0.0625
 43
0.38
 44
0.0
 45
0.000000001
 46
0.0
 47
3.5
 48
3.5
140
3.2
141
0.09
142
0.0
143
25.4
144
1.0
145
0.0
146
1.0
147
0.8
 71
     1
 72
     0
 73
     0
 74
     0
 75
     0
 76
     0
 77
     1
 78
    12
170
     0
171
     2
172
     0
173
     1
174
     0
175
     0
176
     0
177
     0
178
     0
  0
DIMSTYLE
  2
SLDDIMSTYLE1
 70
     0
  3

  4

  5

  6

  7

 40
1.0
 41
3.81
 42
0.0625
 43
0.38
 44
0.0
 45
0.000000001
 46
0.0
 47
0.0
 48
0.0
140
3.2
141
0.09
142
0.0
143
25.4
144
1.0
145
0.0
146
1.0
147
0.8
 71
     0
 72
     0
 73
     0
 74
     0
 75
     0
 76
     0
 77
     1
 78
    12
170
     0
171
     2
172
     0
173
     1
174
     0
175
     0
176
     0
177
     0
178
     0
  0
ENDTAB
  0
ENDSEC
  0
SECTION
  2
BLOCKS
  0
BLOCK
  8
0
  2
$MODEL_SPACE
 70
     0
 10
0.0
 20
0.0
 30
0.0
  3
$MODEL_SPACE
  1

  0
ENDBLK
  5
21
  8
0
  0
BLOCK
 67
     1
  8
0
  2
$PAPER_SPACE
 70
     0
 10
0.0
 20
0.0
 30
0.0
  3
$PAPER_SPACE
  1

  0
ENDBLK
  5
1D
 67
     1
  8
0
  0
BLOCK
  8
0
  2
BLOC2
 70
     0
 10
0.0
 20
0.0
 30
0.0
  3
BLOC2
  1

  0
CIRCLE
  5
50
  8
PV
  6
CONTINUOUS
 10
8.0102707617
 20
1.7
 30
0.0
 40
0.6400000000000101
  0
CIRCLE
  5
51
  8
PV
  6
CONTINUOUS
 10
8.0102707617
 20
1.7
 30
0.0
 40
1.199999999999928
  0
LINE
  5
52
  8
PV
  6
CENTER
 10
8.0102707617
 20
0.0
 30
0.0
 11
8.0102707617
 21
3.4
 31
0.0
  0
LINE
  5
53
  8
PV
  6
CONTINUOUS
 10
4.0102707617
 20
2.9
 30
0.0
 11
4.0102707617
 21
0.5
 31
0.0
  0
LINE
  5
54
  8
PV
  6
CONTINUOUS
 10
0.8102707617
 20
1.06
 30
0.0
 11
4.0102707617
 21
0.5
 31
0.0
  0
LINE
  5
55
  8
PV
  6
CONTINUOUS
 10
0.8102707617
 20
2.339999
 30
0.0
 11
0.8102707617
 21
1.06
 31
0.0
  0
LINE
  5
56
  8
PV
  6
CENTER
 10
9.7436336225
 20
1.7471354655
 30
0.0
 11
0.0
 21
1.7000647717
 31
0.0
  0
LINE
  5
57
  8
PV
  6
CONTINUOUS
 10
0.8102707617
 20
2.339999
 30
0.0
 11
4.0102707617
 21
2.9
 31
0.0
  0
ENDBLK
  5
4F
  8
0
  0
BLOCK
  8
0
  2
SW_NOTE_0
 70
     0
 10
0.0
 20
0.0
 30
0.0
  3
SW_NOTE_0
  1

  0
TEXT
  5
143
  8
PV
 62
     0
 10
-0.7065201238
 20
0.0
 30
0.0
 40
2.0
  1
PDM Project :
 50
90.0
 41
0.6461538462
 11
0.0
 21
0.0
 31
0.0
 73
     1
  0
TEXT
  5
144
  8
PV
 62
     0
 10
-0.7065201238
 20
16.8881937861
 30
0.0
 40
2.0
  1
 E261 EAGLE SLIM E206 -
 50
90.0
 41
0.6239130435
 11
0.0
 21
16.8881937861
 31
0.0
 73
     1
  0
TEXT
  5
145
  8
PV
 62
     0
 10
-0.7065201238
 20
46.5072914958
 30
0.0
 40
2.0
  1
  File Name :
 50
90.0
 41
0.5923076923
 11
0.0
 21
46.5072914958
 31
0.0
 73
     1
  0
TEXT
  5
146
  8
PV
 62
     0
 10
-0.7065201238
 20
61.9381926954
 30
0.0
 40
2.0
  1
 41.8500 E261.ASSY.IXIO - M EXT DIM.V1 
 50
90.0
 41
0.6371794872
 11
0.0
 21
61.9381926954
 31
0.0
 73
     1
  0
ENDBLK
  5
142
  8
0
  0
BLOCK
  8
0
  2
SW_NOTE_1
 70
     0
 10
0.0
 20
0.0
 30
0.0
  3
SW_NOTE_1
  1

  0
TEXT
  5
14F
  8
SLD-0
 62
     0
 10
0.0
 20
0.9346672472
 30
0.0
 40
2.6458333333
  1
A
 41
0.7
 11
0.0
 21
0.0
 31
0.0
 73
     1
  0
TEXT
  5
150
  8
SLD-0
 62
     0
 10
2.9447143897
 20
0.9346672472
 30
0.0
 40
2.6458333333
  1
HALMA
 41
0.7
 11
2.9447143897
 21
0.0
 31
0.0
 73
     1
  0
TEXT
  5
151
  8
SLD-0
 62
     0
 10
15.2233410627
 20
0.9346672472
 30
0.0
 40
2.6458333333
  1
COMPANY
 41
0.7
 11
15.2233410627
 21
0.0
 31
0.0
 73
     1
  0
ENDBLK
  5
14E
  8
0
  0
BLOCK
  8
0
  2
_D
 70
     0
 10
0.0
 20
0.0
 30
0.0
  3
_D
  1

  0
SOLID
  5
252
  8
COTATION
 10
222.3117195307
 20
201.7765313876
 30
0.0
 11
226.1217195307
 21
201.2050313876
 31
0.0
 12
226.1217195307
 22
202.3480313876
 32
0.0
 13
226.1217195307
 23
202.3480313876
 33
0.0
  0
SOLID
  5
253
  8
COTATION
 10
378.9117195307
 20
201.7765313876
 30
0.0
 11
375.1017195307
 21
202.3480313876
 31
0.0
 12
375.1017195307
 22
201.2050313876
 32
0.0
 13
375.1017195307
 23
201.2050313876
 33
0.0
  0
LINE
  5
254
  8
COTATION
 10
222.3117195307
 20
207.0284929996
 30
0.0
 11
222.3117195307
 21
200.7765313876
 31
0.0
  0
LINE
  5
255
  8
COTATION
 10
378.9117195307
 20
207.0284929996
 30
0.0
 11
378.9117195307
 21
200.7765313876
 31
0.0
  0
LINE
  5
256
  8
COTATION
 10
222.3117195307
 20
201.7765313876
 30
0.0
 11
378.9117195307
 21
201.7765313876
 31
0.0
  0
TEXT
  5
257
  8
COTATION
 10
290.3056079937
 20
202.9069634111
 30
-22.9394180744
 40
3.2
  1
156,6
 41
0.7
 11
290.3056079937
 21
201.7765312129
 31
-22.9394180744
 73
     1
  0
TEXT
  5
258
  8
COTATION
 10
303.5456082268
 20
202.9069634111
 30
-22.9394180744
 40
3.2
  1
 
 41
0.7
 11
303.5456082268
 21
201.7765312129
 31
-22.9394180744
 73
     1
  0
TEXT
  5
259
  8
COTATION
 10
304.7278309657
 20
202.8465776008
 30
-22.9394180744
 40
2.4
  1
±3,5
 41
0.7
 11
304.7278309657
 21
201.9987534522
 31
-22.9394180744
 73
     1
  0
ENDBLK
  5
251
  8
0
  0
BLOCK
  8
0
  2
_D_1
 70
     0
 10
0.0
 20
0.0
 30
0.0
  3
_D_1
  1

  0
SOLID
  5
25F
  8
COTATION
 10
401.358843266
 20
259.0605438072
 30
0.0
 11
400.787343266
 21
255.2505438072
 31
0.0
 12
401.930343266
 22
255.2505438072
 32
0.0
 13
401.930343266
 23
255.2505438072
 33
0.0
  0
SOLID
  5
260
  8
COTATION
 10
401.358843266
 20
215.6284929996
 30
0.0
 11
401.930343266
 21
219.4384929996
 31
0.0
 12
400.787343266
 22
219.4384929996
 32
0.0
 13
400.787343266
 23
219.4384929996
 33
0.0
  0
LINE
  5
261
  8
COTATION
 10
387.593159901
 20
259.0605438072
 30
0.0
 11
402.358843266
 21
259.0605438072
 31
0.0
  0
LINE
  5
262
  8
COTATION
 10
383.4640847254
 20
215.6284929996
 30
0.0
 11
402.358843266
 21
215.6284929996
 31
0.0
  0
LINE
  5
263
  8
COTATION
 10
401.358843266
 20
259.0605438072
 30
0.0
 11
401.358843266
 21
215.6284929996
 31
0.0
  0
TEXT
  5
264
  8
COTATION
 10
400.2284112425
 20
231.9067405601
 30
-22.9394180744
 40
3.2
  1
43,4
 50
90.0
 41
0.7
 11
401.3588434406
 21
231.9067405601
 31
-22.9394180744
 73
     1
  0
ENDBLK
  5
25E
  8
0
  0
BLOCK
  8
0
  2
_D_2
 70
     0
 10
0.0
 20
0.0
 30
0.0
  3
_D_2
  1

  0
SOLID
  5
2CF
  8
COTATION
 10
200.248491716
 20
178.7286266641
 30
0.0
 11
199.676991716
 21
174.9186266641
 31
0.0
 12
200.819991716
 22
174.9186266641
 32
0.0
 13
200.819991716
 23
174.9186266641
 33
0.0
  0
SOLID
  5
2D0
  8
COTATION
 10
200.248491716
 20
120.9015476921
 30
0.0
 11
200.819991716
 21
124.7115476921
 31
0.0
 12
199.676991716
 22
124.7115476921
 32
0.0
 13
199.676991716
 23
124.7115476921
 33
0.0
  0
LINE
  5
2D1
  8
COTATION
 10
214.4878280841
 20
178.7286266641
 30
0.0
 11
199.248491716
 21
178.7286266641
 31
0.0
  0
LINE
  5
2D2
  8
COTATION
 10
213.8964057958
 20
120.9015476921
 30
0.0
 11
199.248491716
 21
120.9015476921
 31
0.0
  0
LINE
  5
2D3
  8
COTATION
 10
200.248491716
 20
178.7286266641
 30
0.0
 11
200.248491716
 21
120.9015476921
 31
0.0
  0
TEXT
  5
2D4
  8
COTATION
 10
199.1180596925
 20
144.3773093342
 30
-21.8173434264
 40
3.2
  1
57,8
 50
90.0
 41
0.7
 11
200.2484918906
 21
144.3773093342
 31
-21.8173434264
 73
     1
  0
ENDBLK
  5
2CE
  8
0
  0
BLOCK
  8
0
  2
_D_3
 70
     0
 10
0.0
 20
0.0
 30
0.0
  3
_D_3
  1

  0
SOLID
  5
2D9
  8
COTATION
 10
210.7722477918
 20
189.2730378009
 30
0.0
 11
214.5822477918
 21
188.7015378009
 31
0.0
 12
214.5822477918
 22
189.8445378009
 32
0.0
 13
214.5822477918
 23
189.8445378009
 33
0.0
  0
SOLID
  5
2DA
  8
COTATION
 10
391.2412683781
 20
189.2730378009
 30
0.0
 11
387.4312683781
 21
189.8445378009
 31
0.0
 12
387.4312683781
 22
188.7015378009
 32
0.0
 13
387.4312683781
 23
188.7015378009
 33
0.0
  0
LINE
  5
2DB
  8
COTATION
 10
210.7722477918
 20
137.641882176
 30
0.0
 11
210.7722477918
 21
190.2730378009
 31
0.0
  0
LINE
  5
2DC
  8
COTATION
 10
391.2412683781
 20
130.9015476921
 30
0.0
 11
391.2412683781
 21
190.2730378009
 31
0.0
  0
LINE
  5
2DD
  8
COTATION
 10
210.7722477918
 20
189.2730378009
 30
0.0
 11
391.2412683781
 21
189.2730378009
 31
0.0
  0
TEXT
  5
2DE
  8
COTATION
 10
294.3867579684
 20
190.4034698244
 30
-21.8173434264
 40
3.2
  1
180,5
 41
0.7
 11
294.3867579684
 21
189.2730376263
 31
-21.8173434264
 73
     1
  0
ENDBLK
  5
2D8
  8
0
  0
BLOCK
  8
0
  2
_D_4
 70
     0
 10
0.0
 20
0.0
 30
0.0
  3
_D_4
  1

  0
ARC
  5
325
  8
COTATION
 10
169.606587745
 20
163.226661201
 30
0.0
 40
5.679612698335263
 50
243.4349488229
 51
296.5650511771
  0
ARC
  5
326
  8
COTATION
 10
169.606587745
 20
161.3422165843
 30
0.0
 40
5.679612698335289
 50
63.4349488229
 51
116.5650511771
  0
SOLID
  5
327
  8
COTATION
 10
172.1465877608
 20
145.8402507721
 30
0.0
 11
172.7180877608
 21
149.6502507721
 31
0.0
 12
171.5750877608
 22
149.6502507721
 32
0.0
 13
171.5750877608
 23
149.6502507721
 33
0.0
  0
SOLID
  5
328
  8
COTATION
 10
172.1465877608
 20
178.728626664
 30
0.0
 11
171.5750877608
 21
174.918626664
 31
0.0
 12
172.7180877608
 22
174.918626664
 32
0.0
 13
172.7180877608
 23
174.918626664
 33
0.0
  0
LINE
  5
329
  8
COTATION
 10
161.1465877608
 20
145.8402507721
 30
0.0
 11
173.1465877608
 21
145.8402507721
 31
0.0
  0
LINE
  5
32A
  8
COTATION
 10
151.5465877608
 20
178.728626664
 30
0.0
 11
173.1465877608
 21
178.728626664
 31
0.0
  0
LINE
  5
32B
  8
COTATION
 10
172.1465877608
 20
145.8402507721
 30
0.0
 11
172.1465877608
 21
178.728626664
 31
0.0
  0
TEXT
  5
32C
  8
COTATION
 10
171.0161557373
 20
158.1466611693
 30
-48.4453435046
 40
3.2
  1
32,9
 50
90.0
 41
0.7
 11
172.1465879355
 21
158.1466611693
 31
-48.4453435046
 73
     1
  0
ENDBLK
  5
324
  8
0
  0
BLOCK
  8
0
  2
_D_5
 70
     0
 10
0.0
 20
0.0
 30
0.0
  3
_D_5
  1

  0
SOLID
  5
331
  8
COTATION
 10
172.1465877608
 20
120.9015476921
 30
0.0
 11
172.7180877608
 21
124.7115476921
 31
0.0
 12
171.5750877608
 22
124.7115476921
 32
0.0
 13
171.5750877608
 23
124.7115476921
 33
0.0
  0
SOLID
  5
332
  8
COTATION
 10
172.1465877608
 20
145.8402507721
 30
0.0
 11
171.5750877608
 21
142.0302507721
 31
0.0
 12
172.7180877608
 22
142.0302507721
 32
0.0
 13
172.7180877608
 23
142.0302507721
 33
0.0
  0
LINE
  5
333
  8
COTATION
 10
151.5465877608
 20
120.9015476921
 30
0.0
 11
173.1465877608
 21
120.9015476921
 31
0.0
  0
LINE
  5
334
  8
COTATION
 10
161.1465877608
 20
145.8402507721
 30
0.0
 11
173.1465877608
 21
145.8402507721
 31
0.0
  0
LINE
  5
335
  8
COTATION
 10
172.1465877608
 20
120.9015476921
 30
0.0
 11
172.1465877608
 21
145.8402507721
 31
0.0
  0
TEXT
  5
336
  8
COTATION
 10
171.0161557373
 20
127.9331213887
 30
-48.4453435046
 40
3.2
  1
24,9
 50
90.0
 41
0.7
 11
172.1465879355
 21
127.9331213887
 31
-48.4453435046
 73
     1
  0
ENDBLK
  5
330
  8
0
  0
BLOCK
  8
0
  2
_D_6
 70
     0
 10
0.0
 20
0.0
 30
0.0
  3
_D_6
  1

  0
SOLID
  5
33B
  8
COTATION
 10
152.5465877608
 20
186.2359541247
 30
0.0
 11
148.7365877608
 21
186.8074541247
 31
0.0
 12
148.7365877608
 22
185.6644541247
 32
0.0
 13
148.7365877608
 23
185.6644541247
 33
0.0
  0
SOLID
  5
33C
  8
COTATION
 10
102.4691444818
 20
186.2359541247
 30
0.0
 11
106.2791444818
 21
185.6644541247
 31
0.0
 12
106.2791444818
 22
186.8074541247
 32
0.0
 13
106.2791444818
 23
186.8074541247
 33
0.0
  0
LINE
  5
33D
  8
COTATION
 10
152.5465877608
 20
173.8902507721
 30
0.0
 11
152.5465877608
 21
187.2359541247
 31
0.0
  0
LINE
  5
33E
  8
COTATION
 10
102.4691444818
 20
149.4779230969
 30
0.0
 11
102.4691444818
 21
187.2359541247
 31
0.0
  0
LINE
  5
33F
  8
COTATION
 10
152.5465877608
 20
186.2359541247
 30
0.0
 11
102.4691444818
 21
186.2359541247
 31
0.0
  0
TEXT
  5
340
  8
COTATION
 10
122.070088278
 20
187.3663861482
 30
-48.4453435046
 40
3.2
  1
50,1
 50
0.0
 41
0.7
 11
122.070088278
 21
186.23595395
 31
-48.4453435046
 73
     1
  0
ENDBLK
  5
33A
  8
0
  0
ENDSEC
  0
SECTION
  2
ENTITIES
  0
LINE
  5
58
  8
SLD-0
 62
     9
 10
324.5519474197
 20
22.2906533893
 30
0.0
 11
324.5519474197
 21
12.25
 31
0.0
  0
LINE
  5
59
  8
LOGO1
 10
227.9432156742
 20
36.6056531446
 30
0.0
 11
232.2771942098
 21
36.6081954064
 31
0.0
  0
LINE
  5
5A
  8
LOGO1
 10
248.6677644983
 20
35.2450158952
 30
0.0
 11
245.0481050939
 21
26.8141129285
 31
0.0
  0
LINE
  5
5B
  8
LOGO1
 10
226.795374552
 20
35.4569069565
 30
0.0
 11
226.7963665401
 21
30.5362048159
 31
0.0
  0
LINE
  5
5C
  8
LOGO1
 10
229.2962243278
 20
34.7472567933
 30
0.0
 11
229.2962243278
 21
30.5364567951
 31
0.0
  0
LINE
  5
5D
  8
LOGO1
 10
231.3009565864
 20
34.7472567933
 30
0.0
 11
229.2962243278
 21
34.7472567933
 31
0.0
  0
LINE
  5
5E
  8
LOGO1
 10
231.9545763881
 20
26.8419142224
 30
0.0
 11
226.7826991626
 21
26.8419142224
 31
0.0
  0
LINE
  5
5F
  8
LOGO1
 10
226.7826991626
 20
26.1108845197
 30
0.0
 11
226.7826991626
 21
26.8419142224
 31
0.0
  0
LINE
  5
60
  8
LOGO1
 62
   228
 10
232.7968971799
 20
31.8971023391
 30
0.0
 11
232.7968971799
 21
31.8911300618
 31
0.0
  0
LINE
  5
61
  8
LOGO1
 62
   228
 10
227.9319185269
 20
24.9623698848
 30
0.0
 11
232.0507070812
 21
24.9648964014
 31
0.0
  0
LINE
  5
62
  8
LOGO1
 10
236.9916179702
 20
28.5507894692
 30
0.0
 11
237.0031031187
 21
28.267106301
 31
0.0
  0
LINE
  5
63
  8
LOGO1
 62
   228
 10
240.1785169787
 20
31.9557914479
 30
0.0
 11
240.1712813352
 21
34.7213003577
 31
0.0
  0
LINE
  5
64
  8
LOGO1
 62
   228
 10
240.1712813352
 20
34.7213003577
 30
0.0
 11
244.7285882609
 21
34.7213003577
 31
0.0
  0
LINE
  5
65
  8
LOGO1
 10
251.1083585583
 20
29.4353756074
 30
0.0
 11
251.6361011323
 21
29.4353756074
 31
0.0
  0
LINE
  5
66
  8
LOGO1
 62
   228
 10
244.7287909547
 20
36.6081961771
 30
0.0
 11
238.8291439285
 21
36.6094636794
 31
0.0
  0
LINE
  5
67
  8
LOGO1
 10
237.6803823263
 20
26.1084726385
 30
0.0
 11
237.6803823263
 21
35.4609488549
 31
0.0
  0
LINE
  5
68
  8
LOGO1
 62
   228
 10
256.1593939542
 20
26.5703771694
 30
0.0
 11
252.2806476651
 21
35.3767505486
 31
0.0
  0
LINE
  5
69
  8
LOGO1
 62
   228
 10
251.9806555876
 20
29.0908211521
 30
0.0
 11
251.9806555876
 21
27.9447181823
 31
0.0
  0
LINE
  5
6A
  8
LOGO1
 62
   228
 10
251.9806555876
 20
27.9447181823
 30
0.0
 11
252.6766555873
 21
27.9447181823
 31
0.0
  0
LINE
  5
6B
  8
LOGO1
 62
   228
 10
253.0212100426
 20
27.600163727
 30
0.0
 11
253.0212100426
 21
26.4529122423
 31
0.0
  0
LINE
  5
6C
  8
LOGO1
 62
   228
 10
253.0212100426
 20
26.4529122423
 30
0.0
 11
253.5698555869
 21
26.4529122423
 31
0.0
  0
LINE
  5
6D
  8
LOGO1
 62
   228
 10
253.9144100422
 20
26.108357787
 30
0.0
 11
253.9144100422
 21
24.9589168896
 31
0.0
  0
LINE
  5
6E
  8
LOGO1
 62
   228
 10
253.9144100422
 20
24.9589168896
 30
0.0
 11
255.10831456
 21
24.9589168896
 31
0.0
  0
LINE
  5
6F
  8
LOGO1
 10
240.1785169787
 20
31.9557914479
 30
0.0
 11
241.8801731907
 21
31.9548739276
 31
0.0
  0
LINE
  5
70
  8
PV
  6
CONTINUOUS
 10
409.0
 20
12.25
 30
0.0
 11
409.0
 21
284.75
 31
0.0
  0
LINE
  5
71
  8
PV
  6
CONTINUOUS
 10
11.0
 20
12.25
 30
0.0
 11
409.0
 21
12.25
 31
0.0
  0
LINE
  5
72
  8
LOGO1
 10
240.1785169772
 20
26.8141129285
 30
0.0
 11
245.0481050939
 21
26.8141129285
 31
0.0
  0
LINE
  5
73
  8
PV
  6
CONTINUOUS
 10
5.0
 20
6.25
 30
0.0
 11
11.0
 21
6.25
 31
0.0
  0
LINE
  5
74
  8
PV
  6
CONTINUOUS
 10
5.0
 20
290.75
 30
0.0
 11
11.0
 21
290.75
 31
0.0
  0
LINE
  5
75
  8
PV
  6
CONTINUOUS
 10
5.0
 20
290.75
 30
0.0
 11
5.0
 21
284.75
 31
0.0
  0
LINE
  5
76
  8
PV
  6
CONTINUOUS
 10
415.0
 20
290.75
 30
0.0
 11
415.0
 21
284.75
 31
0.0
  0
LINE
  5
77
  8
PV
  6
CONTINUOUS
 10
209.0
 20
14.45
 30
0.0
 11
209.0
 21
6.25
 31
0.0
  0
LINE
  5
78
  8
PV
  6
CONTINUOUS
 10
207.124356
 20
13.25
 30
0.0
 11
210.875644
 21
13.25
 31
0.0
  0
LINE
  5
79
  8
PV
  6
CONTINUOUS
 10
209.0
 20
6.25
 30
0.0
 11
210.875644
 21
13.25
 31
0.0
  0
LINE
  5
7A
  8
PV
  6
CONTINUOUS
 10
209.0
 20
6.25
 30
0.0
 11
207.124356
 21
13.25
 31
0.0
  0
LINE
  5
7B
  8
PV
  6
CONTINUOUS
 10
309.5
 20
12.25
 30
0.0
 11
309.5
 21
6.25
 31
0.0
  0
LINE
  5
7C
  8
PV
  6
CONTINUOUS
 10
209.0
 20
12.25
 30
0.0
 11
209.0
 21
6.25
 31
0.0
  0
LINE
  5
7D
  8
PV
  6
CONTINUOUS
 10
259.75
 20
12.25
 30
0.0
 11
259.75
 21
6.25
 31
0.0
  0
LINE
  5
7E
  8
PV
  6
CONTINUOUS
 10
160.25
 20
12.25
 30
0.0
 11
160.25
 21
6.25
 31
0.0
  0
LINE
  5
7F
  8
PV
  6
CONTINUOUS
 10
110.5
 20
12.25
 30
0.0
 11
110.5
 21
6.25
 31
0.0
  0
LINE
  5
80
  8
PV
  6
CONTINUOUS
 10
5.0
 20
12.25
 30
0.0
 11
5.0
 21
6.25
 31
0.0
  0
LINE
  5
81
  8
PV
  6
CONTINUOUS
 10
5.0
 20
80.375
 30
0.0
 11
11.0
 21
80.375
 31
0.0
  0
LINE
  5
82
  8
PV
  6
CONTINUOUS
 10
5.0
 20
148.5
 30
0.0
 11
11.0
 21
148.5
 31
0.0
  0
LINE
  5
83
  8
PV
  6
CONTINUOUS
 10
5.0
 20
216.625
 30
0.0
 11
11.0
 21
216.625
 31
0.0
  0
LINE
  5
84
  8
PV
  6
CONTINUOUS
 10
11.0
 20
284.75
 30
0.0
 11
409.0
 21
284.75
 31
0.0
  0
LINE
  5
85
  8
PV
  6
CONTINUOUS
 10
11.0
 20
284.75
 30
0.0
 11
11.0
 21
12.25
 31
0.0
  0
LINE
  5
86
  8
PV
  6
CONTINUOUS
 10
12.0
 20
153.625644
 30
0.0
 11
12.0
 21
149.874356
 31
0.0
  0
LINE
  5
87
  8
PV
  6
CONTINUOUS
 10
5.0
 20
151.75
 30
0.0
 11
12.0
 21
149.874356
 31
0.0
  0
LINE
  5
88
  8
PV
  6
CONTINUOUS
 10
13.2
 20
151.75
 30
0.0
 11
5.0
 21
151.75
 31
0.0
  0
LINE
  5
89
  8
PV
  6
CONTINUOUS
 10
5.0
 20
151.75
 30
0.0
 11
12.0
 21
153.625644
 31
0.0
  0
LINE
  5
8A
  8
PV
  6
CONTINUOUS
 10
60.75
 20
290.75
 30
0.0
 11
60.75
 21
284.75
 31
0.0
  0
LINE
  5
8B
  8
PV
  6
CONTINUOUS
 10
5.0
 20
151.75
 30
0.0
 11
11.0
 21
151.75
 31
0.0
  0
LINE
  5
8C
  8
PV
  6
CONTINUOUS
 10
110.5
 20
290.75
 30
0.0
 11
110.5
 21
284.75
 31
0.0
  0
LINE
  5
8D
  8
PV
  6
CONTINUOUS
 10
60.75
 20
12.25
 30
0.0
 11
60.75
 21
6.25
 31
0.0
  0
LINE
  5
8E
  8
PV
  6
CONTINUOUS
 10
359.25
 20
12.25
 30
0.0
 11
359.25
 21
6.25
 31
0.0
  0
LINE
  5
8F
  8
PV
  6
CONTINUOUS
 10
409.0
 20
290.75
 30
0.0
 11
415.0
 21
290.75
 31
0.0
  0
LINE
  5
90
  8
PV
  6
CONTINUOUS
 10
409.0
 20
6.25
 30
0.0
 11
415.0
 21
6.25
 31
0.0
  0
LINE
  5
91
  8
PV
  6
CONTINUOUS
 10
5.0
 20
12.25
 30
0.0
 11
5.0
 21
6.25
 31
0.0
  0
LINE
  5
92
  8
PV
  6
CONTINUOUS
 10
415.0
 20
12.25
 30
0.0
 11
415.0
 21
6.25
 31
0.0
  0
LINE
  5
93
  8
LOGO1
 10
240.1785169772
 20
29.9762040162
 30
0.0
 11
241.8796397487
 21
29.9762040162
 31
0.0
  0
LINE
  5
94
  8
LOGO1
 10
240.1785169772
 20
26.8141129285
 30
0.0
 11
240.1785169772
 21
29.9762040162
 31
0.0
  0
LINE
  5
95
  8
SLD-0
 10
373.7475582566
 20
18.2906533893
 30
0.0
 11
409.0
 21
18.2906533893
 31
0.0
  0
LINE
  5
96
  8
LOGO1
 10
251.1083585583
 20
29.4353756074
 30
0.0
 11
251.1083585583
 21
34.059640952
 31
0.0
  0
LINE
  5
97
  8
LOGO1
 10
249.973051628
 20
29.4353756074
 30
0.0
 11
249.973051628
 21
34.059640952
 31
0.0
  0
LINE
  5
98
  8
LOGO1
 10
249.1007545987
 20
27.9447181823
 30
0.0
 11
249.1007545987
 21
29.0908211521
 31
0.0
  0
LINE
  5
99
  8
LOGO1
 10
248.0603149952
 20
26.4529122423
 30
0.0
 11
248.0603149952
 21
27.600163727
 31
0.0
  0
LINE
  5
9A
  8
SLD-0
 62
     9
 10
353.7475582566
 20
12.25
 30
0.0
 11
353.7475582566
 21
22.2906533893
 31
0.0
  0
LINE
  5
9B
  8
SLD-0
 62
     9
 10
339.1519474197
 20
22.2906533893
 30
0.0
 11
339.1519474197
 21
12.25
 31
0.0
  0
LINE
  5
9C
  8
0
  6
CONTINUOUS
 62
     9
 10
221.0
 20
76.2906533893
 30
0.0
 11
409.0
 21
76.2906533893
 31
0.0
  0
LINE
  5
9D
  8
SLD-0
 10
373.7475582566
 20
30.2906533893
 30
0.0
 11
409.0
 21
30.2906533893
 31
0.0
  0
LINE
  5
9E
  8
PV
  6
CONTINUOUS
 10
409.0
 20
216.625
 30
0.0
 11
415.0
 21
216.625
 31
0.0
  0
LINE
  5
9F
  8
PV
  6
CONTINUOUS
 10
409.0
 20
148.5
 30
0.0
 11
415.0
 21
148.5
 31
0.0
  0
LINE
  5
A0
  8
PV
 62
     9
 10
221.0
 20
71.2906533893
 30
0.0
 11
221.0
 21
76.2906533893
 31
0.0
  0
LINE
  5
A1
  8
PV
  6
CONTINUOUS
 10
160.25
 20
290.75
 30
0.0
 11
160.25
 21
284.75
 31
0.0
  0
LINE
  5
A2
  8
PV
  6
CONTINUOUS
 10
210.0
 20
284.75
 30
0.0
 11
210.0
 21
290.75
 31
0.0
  0
LINE
  5
A3
  8
PV
  6
CONTINUOUS
 10
259.75
 20
290.75
 30
0.0
 11
259.75
 21
284.75
 31
0.0
  0
LINE
  5
A4
  8
PV
  6
CONTINUOUS
 10
309.5
 20
290.75
 30
0.0
 11
309.5
 21
284.75
 31
0.0
  0
LINE
  5
A5
  8
PV
  6
CONTINUOUS
 10
359.25
 20
290.75
 30
0.0
 11
359.25
 21
284.75
 31
0.0
  0
LINE
  5
A6
  8
LOGO1
 10
247.1667704411
 20
24.9599577875
 30
0.0
 11
247.1667704411
 21
26.108357787
 31
0.0
  0
LINE
  5
A7
  8
SLD-0
 62
     9
 10
373.7475582566
 20
26.2906533893
 30
0.0
 11
409.0
 21
26.2906533893
 31
0.0
  0
LINE
  5
A8
  8
SLD-0
 62
     9
 10
353.7475582566
 20
18.8952249746
 30
0.0
 11
261.7475582566
 21
18.8952249746
 31
0.0
  0
LINE
  5
A9
  8
PV
 10
261.7475582566
 20
22.2906533893
 30
0.0
 11
373.7475582566
 21
22.2906533893
 31
0.0
  0
LINE
  5
AA
  8
COTATION3
 10
387.001503807
 20
-3.7078428037
 30
0.0
 11
387.5011356673
 21
-3.7078428037
 31
0.0
  0
LINE
  5
AB
  8
PV
 10
373.7475582566
 20
12.25
 30
0.0
 11
373.7475582566
 21
38.2906533893
 31
0.0
  0
LINE
  5
AC
  8
PV
 10
261.7475582566
 20
12.25
 30
0.0
 11
261.7475582566
 21
38.2906533893
 31
0.0
  0
LINE
  5
AD
  8
PV
 62
     9
 10
261.7475582566
 20
26.2906533893
 30
0.0
 11
373.7475582566
 21
26.2906533893
 31
0.0
  0
LINE
  5
AE
  8
PV
 62
     9
 10
261.7475582566
 20
30.2906533893
 30
0.0
 11
373.7475582566
 21
30.2906533893
 31
0.0
  0
LINE
  5
AF
  8
PV
 62
     9
 10
388.7056031756
 20
18.2906533893
 30
0.0
 11
388.7056031756
 21
30.2906533893
 31
0.0
  0
LINE
  5
B0
  8
PV
 62
     9
 10
261.7475582566
 20
34.2906533893
 30
0.0
 11
409.0
 21
34.2906533893
 31
0.0
  0
LINE
  5
B1
  8
PV
 62
     9
 10
315.9891629148
 20
26.2906533893
 30
0.0
 11
315.9891629148
 21
22.2906533893
 31
0.0
  0
LINE
  5
B2
  8
PV
 10
221.0
 20
38.2906533893
 30
0.0
 11
409.0
 21
38.2906533893
 31
0.0
  0
LINE
  5
B3
  8
PV
 62
     9
 10
221.0
 20
42.2906533893
 30
0.0
 11
409.0
 21
42.2906533893
 31
0.0
  0
LINE
  5
B4
  8
PV
 62
     9
 10
221.0
 20
46.2906533893
 30
0.0
 11
409.0
 21
46.2906533893
 31
0.0
  0
LINE
  5
B5
  8
PV
 62
     9
 10
221.0
 20
50.2906533893
 30
0.0
 11
409.0
 21
50.2906533893
 31
0.0
  0
LINE
  5
B6
  8
PV
 62
     9
 10
221.0
 20
54.2906533893
 30
0.0
 11
409.0
 21
54.2906533893
 31
0.0
  0
LINE
  5
B7
  8
PV
 62
     9
 10
221.0
 20
58.2906533893
 30
0.0
 11
409.0
 21
58.2906533893
 31
0.0
  0
LINE
  5
B8
  8
PV
 62
     9
 10
221.0
 20
62.2906533893
 30
0.0
 11
409.0
 21
62.2906533893
 31
0.0
  0
LINE
  5
B9
  8
PV
 10
221.0
 20
71.2906533893
 30
0.0
 11
221.0
 21
12.2704007736
 31
0.0
  0
LINE
  5
BA
  8
PV
 10
221.0
 20
66.7906533893
 30
0.0
 11
409.0
 21
66.7906533893
 31
0.0
  0
LINE
  5
BB
  8
PV
 10
221.0
 20
71.2906533893
 30
0.0
 11
409.0
 21
71.2906533893
 31
0.0
  0
LINE
  5
BC
  8
PV
 62
     9
 10
237.6477507152
 20
62.2906533893
 30
0.0
 11
237.6477507152
 21
38.2906533893
 31
0.0
  0
LINE
  5
BD
  8
PV
 62
     9
 10
247.6106668885
 20
62.2906533893
 30
0.0
 11
247.6106668885
 21
38.2906533893
 31
0.0
  0
LINE
  5
BE
  8
PV
 62
     9
 10
397.6555514975
 20
62.2906533893
 30
0.0
 11
397.6555514975
 21
38.2906533893
 31
0.0
  0
LINE
  5
BF
  8
PV
 62
     9
 10
386.6555514975
 20
62.2906533893
 30
0.0
 11
386.6555514975
 21
38.2906533893
 31
0.0
  0
LINE
  5
C0
  8
LOGO1
 10
238.8288971773
 20
24.9599577875
 30
0.0
 11
247.1667704411
 21
24.9599577875
 31
0.0
  0
LINE
  5
C1
  8
LOGO1
 10
249.445309054
 20
29.4353756074
 30
0.0
 11
249.973051628
 21
29.4353756074
 31
0.0
  0
LINE
  5
C2
  8
LOGO1
 10
248.4048694505
 20
27.9447181823
 30
0.0
 11
249.1007545987
 21
27.9447181823
 31
0.0
  0
LINE
  5
C3
  8
LOGO1
 10
247.5113248964
 20
26.4529122423
 30
0.0
 11
248.0603149952
 21
26.4529122423
 31
0.0
  0
LINE
  5
C4
  8
LOGO1
 62
   151
 10
251.2549090532
 20
29.3393597659
 30
0.0
 11
251.3103823205
 21
29.4353756074
 31
0.0
  0
LINE
  5
C5
  8
COTATION3
 10
387.5011356673
 20
-3.7078428037
 30
0.0
 11
387.001503807
 21
-3.7078428037
 31
0.0
  0
ARC
  5
C6
  8
LOGO1
 10
228.0462954213
 20
30.5364567951
 30
0.0
 40
1.249928906540212
 50
180.0115505333
 51
0.0
  0
ARC
  5
C7
  8
LOGO1
 10
253.5698555869
 20
26.108357787
 30
0.0
 40
0.3445544553000275
 50
0.0
 51
90.0
  0
ARC
  5
C8
  8
LOGO1
 10
252.6766555873
 20
27.600163727
 30
0.0
 40
0.3445544553000275
 50
0.0
 51
90.0
  0
ARC
  5
C9
  8
LOGO1
 10
251.6361011323
 20
29.0908211521
 30
0.0
 40
0.3445544553000275
 50
0.0
 51
90.0
  0
ARC
  5
CA
  8
LOGO1
 10
249.445309054
 20
29.0908211521
 30
0.0
 40
0.3445544552999991
 50
90.0
 51
180.0
  0
ARC
  5
CB
  8
LOGO1
 10
248.4048694505
 20
27.600163727
 30
0.0
 40
0.3445544552999991
 50
90.0
 51
180.0
  0
ARC
  5
CC
  8
LOGO1
 10
247.5113248964
 20
26.108357787
 30
0.0
 40
0.3445544552999991
 50
90.0
 51
180.0
  0
ARC
  5
CD
  8
LOGO1
 10
250.5407050931
 20
34.059640952
 30
0.0
 40
0.5676534651067868
 50
0.0
 51
180.0
  0
ARC
  5
CE
  8
LOGO1
 10
244.7285882609
 20
35.6647482783
 30
0.0
 40
0.9434479206069639
 50
270.0
 51
89.9876903601
  0
ARC
  5
CF
  8
LOGO1
 10
241.8796397487
 20
30.9655390438
 30
0.0
 40
0.9893350275721563
 50
270.0
 51
89.969106545
  0
ARC
  5
D0
  8
LOGO1
 10
227.9438893796
 20
35.4571384912
 30
0.0
 40
1.148514851000051
 50
90.0336090389
 51
180.0115505333
  0
ARC
  5
D1
  8
LOGO1
 10
227.9312140136
 20
26.1108845197
 30
0.0
 40
1.148514851000007
 50
180.0
 51
270.0351459459
  0
ARC
  5
D2
  8
LOGO1
 10
238.8288971773
 20
35.4609488549
 30
0.0
 40
1.148514851000004
 50
89.9876903601
 51
180.0
  0
ARC
  5
D3
  8
LOGO1
 10
238.8288971773
 20
26.1084726385
 30
0.0
 40
1.148514850999987
 50
180.0
 51
270.0
  0
ARC
  5
D4
  8
LOGO1
 10
255.10831456
 20
26.1074317406
 30
0.0
 40
1.148514850999991
 50
270.0
 51
23.7709783333
  0
POLYLINE
  5
D5
  8
LOGO1
 62
   228
 66
     1
 10
0.0
 20
0.0
 30
0.0
  0
VERTEX
  5
3DE
  8
LOGO1
 62
   228
 10
236.4245961882
 20
29.9890746171
 30
0.0
  0
VERTEX
  5
3DF
  8
LOGO1
 62
   228
 10
236.3729325025
 20
30.0495826814
 30
0.0
  0
VERTEX
  5
3E0
  8
LOGO1
 62
   228
 10
236.3190671477
 20
30.1088469699
 30
0.0
  0
VERTEX
  5
3E1
  8
LOGO1
 62
   228
 10
236.2629985784
 20
30.1668667349
 30
0.0
  0
VERTEX
  5
3E2
  8
LOGO1
 62
   228
 10
236.2047252496
 20
30.2236412286
 30
0.0
  0
VERTEX
  5
3E3
  8
LOGO1
 62
   228
 10
236.1442456157
 20
30.2791697034
 30
0.0
  0
VERTEX
  5
3E4
  8
LOGO1
 62
   228
 10
236.0815581314
 20
30.3334514115
 30
0.0
  0
VERTEX
  5
3E5
  8
LOGO1
 62
   228
 10
236.0166612516
 20
30.3864856051
 30
0.0
  0
VERTEX
  5
3E6
  8
LOGO1
 62
   228
 10
235.9495534308
 20
30.4382715366
 30
0.0
  0
VERTEX
  5
3E7
  8
LOGO1
 62
   228
 10
235.8802331238
 20
30.4888084581
 30
0.0
  0
VERTEX
  5
3E8
  8
LOGO1
 62
   228
 10
235.8086987852
 20
30.5380956221
 30
0.0
  0
VERTEX
  5
3E9
  8
LOGO1
 62
   228
 10
235.7349488697
 20
30.5861322806
 30
0.0
  0
VERTEX
  5
3EA
  8
LOGO1
 62
   228
 10
235.6589818321
 20
30.6329176861
 30
0.0
  0
VERTEX
  5
3EB
  8
LOGO1
 62
   228
 10
235.580796127
 20
30.6784510908
 30
0.0
  0
VERTEX
  5
3EC
  8
LOGO1
 62
   228
 10
235.5003902091
 20
30.7227317469
 30
0.0
  0
VERTEX
  5
3ED
  8
LOGO1
 62
   228
 10
235.417762533
 20
30.7657589067
 30
0.0
  0
VERTEX
  5
3EE
  8
LOGO1
 62
   228
 10
235.3329115536
 20
30.8075318225
 30
0.0
  0
VERTEX
  5
3EF
  8
LOGO1
 62
   228
 10
235.2458357254
 20
30.8480497465
 30
0.0
  0
VERTEX
  5
3F0
  8
LOGO1
 62
   228
 10
235.1565335031
 20
30.8873119311
 30
0.0
  0
VERTEX
  5
3F1
  8
LOGO1
 62
   228
 10
235.0650033415
 20
30.9253176284
 30
0.0
  0
VERTEX
  5
3F2
  8
LOGO1
 62
   228
 10
234.9712436953
 20
30.9620660908
 30
0.0
  0
VERTEX
  5
3F3
  8
LOGO1
 62
   228
 10
234.875253019
 20
30.9975565706
 30
0.0
  0
VERTEX
  5
3F4
  8
LOGO1
 62
   228
 10
234.7770297675
 20
31.0317883199
 30
0.0
  0
VERTEX
  5
3F5
  8
LOGO1
 62
   228
 10
234.6765723954
 20
31.0647605911
 30
0.0
  0
VERTEX
  5
3F6
  8
LOGO1
 62
   228
 10
234.5738793573
 20
31.0964726364
 30
0.0
  0
SEQEND
  5
B9C
  8
LOGO1
 62
   228
  0
POLYLINE
  5
D6
  8
LOGO1
 62
   228
 66
     1
 10
0.0
 20
0.0
 30
0.0
  0
VERTEX
  5
3F7
  8
LOGO1
 62
   228
 10
234.5738793573
 20
31.0964726364
 30
0.0
  0
VERTEX
  5
3F8
  8
LOGO1
 62
   228
 10
234.7247978311
 20
31.1655641378
 30
0.0
  0
VERTEX
  5
3F9
  8
LOGO1
 62
   228
 10
234.8692919993
 20
31.2379166935
 30
0.0
  0
VERTEX
  5
3FA
  8
LOGO1
 62
   228
 10
235.0073620613
 20
31.3135300543
 30
0.0
  0
VERTEX
  5
3FB
  8
LOGO1
 62
   228
 10
235.1390082166
 20
31.3924039711
 30
0.0
  0
VERTEX
  5
3FC
  8
LOGO1
 62
   228
 10
235.2642306646
 20
31.4745381945
 30
0.0
  0
VERTEX
  5
3FD
  8
LOGO1
 62
   228
 10
235.3830296045
 20
31.5599324753
 30
0.0
  0
VERTEX
  5
3FE
  8
LOGO1
 62
   228
 10
235.4954052359
 20
31.6485865643
 30
0.0
  0
VERTEX
  5
3FF
  8
LOGO1
 62
   228
 10
235.6013577581
 20
31.7405002122
 30
0.0
  0
VERTEX
  5
400
  8
LOGO1
 62
   228
 10
235.7008873705
 20
31.8356731698
 30
0.0
  0
VERTEX
  5
401
  8
LOGO1
 62
   228
 10
235.7939942725
 20
31.9341051879
 30
0.0
  0
VERTEX
  5
402
  8
LOGO1
 62
   228
 10
235.8806786635
 20
32.0357960171
 30
0.0
  0
VERTEX
  5
403
  8
LOGO1
 62
   228
 10
235.9609407429
 20
32.1407454083
 30
0.0
  0
VERTEX
  5
404
  8
LOGO1
 62
   228
 10
236.0347807101
 20
32.2489531121
 30
0.0
  0
VERTEX
  5
405
  8
LOGO1
 62
   228
 10
236.1021987644
 20
32.3604188795
 30
0.0
  0
VERTEX
  5
406
  8
LOGO1
 62
   228
 10
236.1631951054
 20
32.475142461
 30
0.0
  0
VERTEX
  5
407
  8
LOGO1
 62
   228
 10
236.2177699323
 20
32.5931236076
 30
0.0
  0
VERTEX
  5
408
  8
LOGO1
 62
   228
 10
236.2659234447
 20
32.7143620698
 30
0.0
  0
VERTEX
  5
409
  8
LOGO1
 62
   228
 10
236.3076558417
 20
32.8388575986
 30
0.0
  0
VERTEX
  5
40A
  8
LOGO1
 62
   228
 10
236.342967323
 20
32.9666099445
 30
0.0
  0
VERTEX
  5
40B
  8
LOGO1
 62
   228
 10
236.3718580878
 20
33.0976188585
 30
0.0
  0
VERTEX
  5
40C
  8
LOGO1
 62
   228
 10
236.3943283355
 20
33.2318840913
 30
0.0
  0
VERTEX
  5
40D
  8
LOGO1
 62
   228
 10
236.4103782656
 20
33.3694053935
 30
0.0
  0
VERTEX
  5
40E
  8
LOGO1
 62
   228
 10
236.4200080774
 20
33.510182516
 30
0.0
  0
VERTEX
  5
40F
  8
LOGO1
 62
   228
 10
236.4232179704
 20
33.6542152096
 30
0.0
  0
SEQEND
  5
B9B
  8
LOGO1
 62
   228
  0
POLYLINE
  5
D7
  8
LOGO1
 62
   228
 66
     1
 10
0.0
 20
0.0
 30
0.0
  0
VERTEX
  5
410
  8
LOGO1
 62
   228
 10
236.4232179704
 20
33.6542152096
 30
0.0
  0
VERTEX
  5
411
  8
LOGO1
 62
   228
 10
236.4229139762
 20
33.6964523583
 30
0.0
  0
VERTEX
  5
412
  8
LOGO1
 62
   228
 10
236.4220015283
 20
33.7385179277
 30
0.0
  0
VERTEX
  5
413
  8
LOGO1
 62
   228
 10
236.4204799289
 20
33.7804114193
 30
0.0
  0
VERTEX
  5
414
  8
LOGO1
 62
   228
 10
236.4183484801
 20
33.8221323346
 30
0.0
  0
VERTEX
  5
415
  8
LOGO1
 62
   228
 10
236.415606484
 20
33.863680175
 30
0.0
  0
VERTEX
  5
416
  8
LOGO1
 62
   228
 10
236.4122532427
 20
33.9050544422
 30
0.0
  0
VERTEX
  5
417
  8
LOGO1
 62
   228
 10
236.4082880583
 20
33.9462546375
 30
0.0
  0
VERTEX
  5
418
  8
LOGO1
 62
   228
 10
236.403710233
 20
33.9872802626
 30
0.0
  0
VERTEX
  5
419
  8
LOGO1
 62
   228
 10
236.3985190688
 20
34.028130819
 30
0.0
  0
VERTEX
  5
41A
  8
LOGO1
 62
   228
 10
236.3927138679
 20
34.0688058081
 30
0.0
  0
VERTEX
  5
41B
  8
LOGO1
 62
   228
 10
236.3862939324
 20
34.1093047314
 30
0.0
  0
VERTEX
  5
41C
  8
LOGO1
 62
   228
 10
236.3792585645
 20
34.1496270906
 30
0.0
  0
VERTEX
  5
41D
  8
LOGO1
 62
   228
 10
236.3716070662
 20
34.189772387
 30
0.0
  0
VERTEX
  5
41E
  8
LOGO1
 62
   228
 10
236.3633387396
 20
34.2297401223
 30
0.0
  0
VERTEX
  5
41F
  8
LOGO1
 62
   228
 10
236.3544528869
 20
34.2695297978
 30
0.0
  0
VERTEX
  5
420
  8
LOGO1
 62
   228
 10
236.3449488102
 20
34.3091409152
 30
0.0
  0
VERTEX
  5
421
  8
LOGO1
 62
   228
 10
236.3348258116
 20
34.348572976
 30
0.0
  0
VERTEX
  5
422
  8
LOGO1
 62
   228
 10
236.3240831932
 20
34.3878254816
 30
0.0
  0
VERTEX
  5
423
  8
LOGO1
 62
   228
 10
236.3127202572
 20
34.4268979335
 30
0.0
  0
VERTEX
  5
424
  8
LOGO1
 62
   228
 10
236.3007363056
 20
34.4657898334
 30
0.0
  0
VERTEX
  5
425
  8
LOGO1
 62
   228
 10
236.2881306406
 20
34.5045006826
 30
0.0
  0
VERTEX
  5
426
  8
LOGO1
 62
   228
 10
236.2749025643
 20
34.5430299828
 30
0.0
  0
VERTEX
  5
427
  8
LOGO1
 62
   228
 10
236.2610513789
 20
34.5813772354
 30
0.0
  0
VERTEX
  5
428
  8
LOGO1
 62
   228
 10
236.2465763863
 20
34.6195419419
 30
0.0
  0
SEQEND
  5
B9A
  8
LOGO1
 62
   228
  0
POLYLINE
  5
D8
  8
LOGO1
 62
   228
 66
     1
 10
0.0
 20
0.0
 30
0.0
  0
VERTEX
  5
429
  8
LOGO1
 62
   228
 10
236.2465763863
 20
34.6195419419
 30
0.0
  0
VERTEX
  5
42A
  8
LOGO1
 62
   228
 10
236.2315462118
 20
34.6574334773
 30
0.0
  0
VERTEX
  5
42B
  8
LOGO1
 62
   228
 10
236.2159717888
 20
34.6950481529
 30
0.0
  0
VERTEX
  5
42C
  8
LOGO1
 62
   228
 10
236.1998520206
 20
34.7323866664
 30
0.0
  0
VERTEX
  5
42D
  8
LOGO1
 62
   228
 10
236.1831858106
 20
34.7694497159
 30
0.0
  0
VERTEX
  5
42E
  8
LOGO1
 62
   228
 10
236.1659720621
 20
34.8062379991
 30
0.0
  0
VERTEX
  5
42F
  8
LOGO1
 62
   228
 10
236.1482096784
 20
34.842752214
 30
0.0
  0
VERTEX
  5
430
  8
LOGO1
 62
   228
 10
236.1298975629
 20
34.8789930585
 30
0.0
  0
VERTEX
  5
431
  8
LOGO1
 62
   228
 10
236.1110346189
 20
34.9149612303
 30
0.0
  0
VERTEX
  5
432
  8
LOGO1
 62
   228
 10
236.0916197496
 20
34.9506574275
 30
0.0
  0
VERTEX
  5
433
  8
LOGO1
 62
   228
 10
236.0716518585
 20
34.9860823478
 30
0.0
  0
VERTEX
  5
434
  8
LOGO1
 62
   228
 10
236.0511298489
 20
35.0212366892
 30
0.0
  0
VERTEX
  5
435
  8
LOGO1
 62
   228
 10
236.030052624
 20
35.0561211496
 30
0.0
  0
VERTEX
  5
436
  8
LOGO1
 62
   228
 10
236.0084190873
 20
35.0907364268
 30
0.0
  0
VERTEX
  5
437
  8
LOGO1
 62
   228
 10
235.986228142
 20
35.1250832187
 30
0.0
  0
VERTEX
  5
438
  8
LOGO1
 62
   228
 10
235.9634786915
 20
35.1591622232
 30
0.0
  0
VERTEX
  5
439
  8
LOGO1
 62
   228
 10
235.9401696391
 20
35.1929741382
 30
0.0
  0
VERTEX
  5
43A
  8
LOGO1
 62
   228
 10
235.9162998881
 20
35.2265196615
 30
0.0
  0
VERTEX
  5
43B
  8
LOGO1
 62
   228
 10
235.8918683419
 20
35.2597994911
 30
0.0
  0
VERTEX
  5
43C
  8
LOGO1
 62
   228
 10
235.8668739038
 20
35.2928143248
 30
0.0
  0
VERTEX
  5
43D
  8
LOGO1
 62
   228
 10
235.8413154771
 20
35.3255648605
 30
0.0
  0
VERTEX
  5
43E
  8
LOGO1
 62
   228
 10
235.8151919651
 20
35.3580517961
 30
0.0
  0
VERTEX
  5
43F
  8
LOGO1
 62
   228
 10
235.7885022712
 20
35.3902758295
 30
0.0
  0
VERTEX
  5
440
  8
LOGO1
 62
   228
 10
235.7612452987
 20
35.4222376585
 30
0.0
  0
VERTEX
  5
441
  8
LOGO1
 62
   228
 10
235.7334199509
 20
35.4539379811
 30
0.0
  0
SEQEND
  5
B99
  8
LOGO1
 62
   228
  0
POLYLINE
  5
D9
  8
LOGO1
 62
   228
 66
     1
 10
0.0
 20
0.0
 30
0.0
  0
VERTEX
  5
442
  8
LOGO1
 62
   228
 10
235.7334199509
 20
35.4539379811
 30
0.0
  0
VERTEX
  5
443
  8
LOGO1
 62
   228
 10
235.7051951901
 20
35.4850835787
 30
0.0
  0
VERTEX
  5
444
  8
LOGO1
 62
   228
 10
235.676625825
 20
35.515782382
 30
0.0
  0
VERTEX
  5
445
  8
LOGO1
 62
   228
 10
235.6477118058
 20
35.5460338428
 30
0.0
  0
VERTEX
  5
446
  8
LOGO1
 62
   228
 10
235.6184530826
 20
35.5758374127
 30
0.0
  0
VERTEX
  5
447
  8
LOGO1
 62
   228
 10
235.5888496055
 20
35.6051925434
 30
0.0
  0
VERTEX
  5
448
  8
LOGO1
 62
   228
 10
235.5589013247
 20
35.6340986865
 30
0.0
  0
VERTEX
  5
449
  8
LOGO1
 62
   228
 10
235.5286081904
 20
35.6625552937
 30
0.0
  0
VERTEX
  5
44A
  8
LOGO1
 62
   228
 10
235.4979701527
 20
35.6905618167
 30
0.0
  0
VERTEX
  5
44B
  8
LOGO1
 62
   228
 10
235.4669871617
 20
35.7181177072
 30
0.0
  0
VERTEX
  5
44C
  8
LOGO1
 62
   228
 10
235.4356591676
 20
35.7452224167
 30
0.0
  0
VERTEX
  5
44D
  8
LOGO1
 62
   228
 10
235.4039861206
 20
35.771875397
 30
0.0
  0
VERTEX
  5
44E
  8
LOGO1
 62
   228
 10
235.3719679708
 20
35.7980760998
 30
0.0
  0
VERTEX
  5
44F
  8
LOGO1
 62
   228
 10
235.3396046684
 20
35.8238239766
 30
0.0
  0
VERTEX
  5
450
  8
LOGO1
 62
   228
 10
235.3068961635
 20
35.8491184792
 30
0.0
  0
VERTEX
  5
451
  8
LOGO1
 62
   228
 10
235.2738424062
 20
35.8739590592
 30
0.0
  0
VERTEX
  5
452
  8
LOGO1
 62
   228
 10
235.2404433468
 20
35.8983451683
 30
0.0
  0
VERTEX
  5
453
  8
LOGO1
 62
   228
 10
235.2066989353
 20
35.9222762582
 30
0.0
  0
VERTEX
  5
454
  8
LOGO1
 62
   228
 10
235.1726091219
 20
35.9457517804
 30
0.0
  0
VERTEX
  5
455
  8
LOGO1
 62
   228
 10
235.1381738568
 20
35.9687711867
 30
0.0
  0
VERTEX
  5
456
  8
LOGO1
 62
   228
 10
235.1033930901
 20
35.9913339288
 30
0.0
  0
VERTEX
  5
457
  8
LOGO1
 62
   228
 10
235.068266772
 20
36.0134394583
 30
0.0
  0
VERTEX
  5
458
  8
LOGO1
 62
   228
 10
235.0327948526
 20
36.0350872268
 30
0.0
  0
VERTEX
  5
459
  8
LOGO1
 62
   228
 10
234.9969772821
 20
36.0562766861
 30
0.0
  0
VERTEX
  5
45A
  8
LOGO1
 62
   228
 10
234.9608140106
 20
36.0770072878
 30
0.0
  0
SEQEND
  5
B98
  8
LOGO1
 62
   228
  0
POLYLINE
  5
DA
  8
LOGO1
 62
   228
 66
     1
 10
0.0
 20
0.0
 30
0.0
  0
VERTEX
  5
45B
  8
LOGO1
 62
   228
 10
234.9608140106
 20
36.0770072878
 30
0.0
  0
VERTEX
  5
45C
  8
LOGO1
 62
   228
 10
234.9178509231
 20
36.1009453481
 30
0.0
  0
VERTEX
  5
45D
  8
LOGO1
 62
   228
 10
234.8744388479
 20
36.124234378
 30
0.0
  0
VERTEX
  5
45E
  8
LOGO1
 62
   228
 10
234.8305762399
 20
36.1468737791
 30
0.0
  0
VERTEX
  5
45F
  8
LOGO1
 62
   228
 10
234.7862615538
 20
36.1688629533
 30
0.0
  0
VERTEX
  5
460
  8
LOGO1
 62
   228
 10
234.7414932441
 20
36.1902013024
 30
0.0
  0
VERTEX
  5
461
  8
LOGO1
 62
   228
 10
234.6962697657
 20
36.2108882283
 30
0.0
  0
VERTEX
  5
462
  8
LOGO1
 62
   228
 10
234.6505895731
 20
36.2309231327
 30
0.0
  0
VERTEX
  5
463
  8
LOGO1
 62
   228
 10
234.6044511211
 20
36.2503054175
 30
0.0
  0
VERTEX
  5
464
  8
LOGO1
 62
   228
 10
234.5578528644
 20
36.2690344845
 30
0.0
  0
VERTEX
  5
465
  8
LOGO1
 62
   228
 10
234.5107932577
 20
36.2871097354
 30
0.0
  0
VERTEX
  5
466
  8
LOGO1
 62
   228
 10
234.4632707556
 20
36.3045305722
 30
0.0
  0
VERTEX
  5
467
  8
LOGO1
 62
   228
 10
234.4152838128
 20
36.3212963966
 30
0.0
  0
VERTEX
  5
468
  8
LOGO1
 62
   228
 10
234.3668308841
 20
36.3374066104
 30
0.0
  0
VERTEX
  5
469
  8
LOGO1
 62
   228
 10
234.3179104241
 20
36.3528606155
 30
0.0
  0
VERTEX
  5
46A
  8
LOGO1
 62
   228
 10
234.2685208875
 20
36.3676578136
 30
0.0
  0
VERTEX
  5
46B
  8
LOGO1
 62
   228
 10
234.2186607289
 20
36.3817976067
 30
0.0
  0
VERTEX
  5
46C
  8
LOGO1
 62
   228
 10
234.1683284032
 20
36.3952793964
 30
0.0
  0
VERTEX
  5
46D
  8
LOGO1
 62
   228
 10
234.1175223649
 20
36.4081025847
 30
0.0
  0
VERTEX
  5
46E
  8
LOGO1
 62
   228
 10
234.0662410688
 20
36.4202665733
 30
0.0
  0
VERTEX
  5
46F
  8
LOGO1
 62
   228
 10
234.0144829696
 20
36.431770764
 30
0.0
  0
VERTEX
  5
470
  8
LOGO1
 62
   228
 10
233.9622465219
 20
36.4426145587
 30
0.0
  0
VERTEX
  5
471
  8
LOGO1
 62
   228
 10
233.9095301804
 20
36.4527973591
 30
0.0
  0
VERTEX
  5
472
  8
LOGO1
 62
   228
 10
233.8563323998
 20
36.4623185672
 30
0.0
  0
VERTEX
  5
473
  8
LOGO1
 62
   228
 10
233.8026516349
 20
36.4711775846
 30
0.0
  0
SEQEND
  5
B97
  8
LOGO1
 62
   228
  0
POLYLINE
  5
DB
  8
LOGO1
 62
   228
 66
     1
 10
0.0
 20
0.0
 30
0.0
  0
VERTEX
  5
474
  8
LOGO1
 62
   228
 10
233.8026516349
 20
36.4711775846
 30
0.0
  0
VERTEX
  5
475
  8
LOGO1
 62
   228
 10
233.7485430182
 20
36.4796900952
 30
0.0
  0
VERTEX
  5
476
  8
LOGO1
 62
   228
 10
233.6936040712
 20
36.4881807222
 30
0.0
  0
VERTEX
  5
477
  8
LOGO1
 62
   228
 10
233.6378359403
 20
36.4966192075
 30
0.0
  0
VERTEX
  5
478
  8
LOGO1
 62
   228
 10
233.5812397721
 20
36.5049752927
 30
0.0
  0
VERTEX
  5
479
  8
LOGO1
 62
   228
 10
233.5238167131
 20
36.5132187199
 30
0.0
  0
VERTEX
  5
47A
  8
LOGO1
 62
   228
 10
233.4655679098
 20
36.5213192307
 30
0.0
  0
VERTEX
  5
47B
  8
LOGO1
 62
   228
 10
233.4064945087
 20
36.529246567
 30
0.0
  0
VERTEX
  5
47C
  8
LOGO1
 62
   228
 10
233.3465976563
 20
36.5369704706
 30
0.0
  0
VERTEX
  5
47D
  8
LOGO1
 62
   228
 10
233.2858784993
 20
36.5444606833
 30
0.0
  0
VERTEX
  5
47E
  8
LOGO1
 62
   228
 10
233.224338184
 20
36.551686947
 30
0.0
  0
VERTEX
  5
47F
  8
LOGO1
 62
   228
 10
233.161977857
 20
36.5586190035
 30
0.0
  0
VERTEX
  5
480
  8
LOGO1
 62
   228
 10
233.0987986649
 20
36.5652265945
 30
0.0
  0
VERTEX
  5
481
  8
LOGO1
 62
   228
 10
233.0348017541
 20
36.571479462
 30
0.0
  0
VERTEX
  5
482
  8
LOGO1
 62
   228
 10
232.9699882712
 20
36.5773473476
 30
0.0
  0
VERTEX
  5
483
  8
LOGO1
 62
   228
 10
232.9043593627
 20
36.5827999933
 30
0.0
  0
VERTEX
  5
484
  8
LOGO1
 62
   228
 10
232.8379161751
 20
36.5878071409
 30
0.0
  0
VERTEX
  5
485
  8
LOGO1
 62
   228
 10
232.7706598549
 20
36.5923385321
 30
0.0
  0
VERTEX
  5
486
  8
LOGO1
 62
   228
 10
232.7025915487
 20
36.5963639088
 30
0.0
  0
VERTEX
  5
487
  8
LOGO1
 62
   228
 10
232.633712403
 20
36.5998530129
 30
0.0
  0
VERTEX
  5
488
  8
LOGO1
 62
   228
 10
232.5640235643
 20
36.6027755861
 30
0.0
  0
VERTEX
  5
489
  8
LOGO1
 62
   228
 10
232.4935261791
 20
36.6051013702
 30
0.0
  0
VERTEX
  5
48A
  8
LOGO1
 62
   228
 10
232.4222213939
 20
36.606800107
 30
0.0
  0
VERTEX
  5
48B
  8
LOGO1
 62
   228
 10
232.3501103553
 20
36.6078415385
 30
0.0
  0
VERTEX
  5
48C
  8
LOGO1
 62
   228
 10
232.2771942098
 20
36.6081954064
 30
0.0
  0
SEQEND
  5
B96
  8
LOGO1
 62
   228
  0
POLYLINE
  5
DC
  8
LOGO1
 62
   228
 66
     1
 10
0.0
 20
0.0
 30
0.0
  0
VERTEX
  5
48D
  8
LOGO1
 62
   228
 10
231.3009565864
 20
34.7472567933
 30
0.0
  0
VERTEX
  5
48E
  8
LOGO1
 62
   228
 10
231.4127255005
 20
34.7470961474
 30
0.0
  0
VERTEX
  5
48F
  8
LOGO1
 62
   228
 10
231.5220901603
 20
34.7465745967
 30
0.0
  0
VERTEX
  5
490
  8
LOGO1
 62
   228
 10
231.629049818
 20
34.7456327215
 30
0.0
  0
VERTEX
  5
491
  8
LOGO1
 62
   228
 10
231.733603726
 20
34.7442111021
 30
0.0
  0
VERTEX
  5
492
  8
LOGO1
 62
   228
 10
231.8357511364
 20
34.7422503187
 30
0.0
  0
VERTEX
  5
493
  8
LOGO1
 62
   228
 10
231.9354913015
 20
34.7396909517
 30
0.0
  0
VERTEX
  5
494
  8
LOGO1
 62
   228
 10
232.0328234737
 20
34.7364735814
 30
0.0
  0
VERTEX
  5
495
  8
LOGO1
 62
   228
 10
232.1277469051
 20
34.7325387882
 30
0.0
  0
VERTEX
  5
496
  8
LOGO1
 62
   228
 10
232.2202608481
 20
34.7278271522
 30
0.0
  0
VERTEX
  5
497
  8
LOGO1
 62
   228
 10
232.3103645549
 20
34.7222792539
 30
0.0
  0
VERTEX
  5
498
  8
LOGO1
 62
   228
 10
232.3980572778
 20
34.7158356735
 30
0.0
  0
VERTEX
  5
499
  8
LOGO1
 62
   228
 10
232.4833382691
 20
34.7084369913
 30
0.0
  0
VERTEX
  5
49A
  8
LOGO1
 62
   228
 10
232.566206781
 20
34.7000237877
 30
0.0
  0
VERTEX
  5
49B
  8
LOGO1
 62
   228
 10
232.6466620658
 20
34.690536643
 30
0.0
  0
VERTEX
  5
49C
  8
LOGO1
 62
   228
 10
232.7247033757
 20
34.6799161374
 30
0.0
  0
VERTEX
  5
49D
  8
LOGO1
 62
   228
 10
232.8003299631
 20
34.6681028513
 30
0.0
  0
VERTEX
  5
49E
  8
LOGO1
 62
   228
 10
232.8735410802
 20
34.6550373649
 30
0.0
  0
VERTEX
  5
49F
  8
LOGO1
 62
   228
 10
232.9443359793
 20
34.6406602587
 30
0.0
  0
VERTEX
  5
4A0
  8
LOGO1
 62
   228
 10
233.0127139126
 20
34.6249121128
 30
0.0
  0
VERTEX
  5
4A1
  8
LOGO1
 62
   228
 10
233.0786741324
 20
34.6077335077
 30
0.0
  0
VERTEX
  5
4A2
  8
LOGO1
 62
   228
 10
233.142215891
 20
34.5890650236
 30
0.0
  0
VERTEX
  5
4A3
  8
LOGO1
 62
   228
 10
233.2033384407
 20
34.5688472407
 30
0.0
  0
VERTEX
  5
4A4
  8
LOGO1
 62
   228
 10
233.2620410337
 20
34.5470207396
 30
0.0
  0
VERTEX
  5
4A5
  8
LOGO1
 62
   228
 10
233.3183229222
 20
34.5235261003
 30
0.0
  0
SEQEND
  5
B95
  8
LOGO1
 62
   228
  0
POLYLINE
  5
DD
  8
LOGO1
 62
   228
 66
     1
 10
0.0
 20
0.0
 30
0.0
  0
VERTEX
  5
4A6
  8
LOGO1
 62
   228
 10
233.3183229222
 20
34.5235261003
 30
0.0
  0
VERTEX
  5
4A7
  8
LOGO1
 62
   228
 10
233.3722905168
 20
34.49812046
 30
0.0
  0
VERTEX
  5
4A8
  8
LOGO1
 62
   228
 10
233.4239644215
 20
34.4706574626
 30
0.0
  0
VERTEX
  5
4A9
  8
LOGO1
 62
   228
 10
233.4733443872
 20
34.4411363107
 30
0.0
  0
VERTEX
  5
4AA
  8
LOGO1
 62
   228
 10
233.5204301645
 20
34.4095562067
 30
0.0
  0
VERTEX
  5
4AB
  8
LOGO1
 62
   228
 10
233.5652215043
 20
34.3759163529
 30
0.0
  0
VERTEX
  5
4AC
  8
LOGO1
 62
   228
 10
233.6077181572
 20
34.3402159519
 30
0.0
  0
VERTEX
  5
4AD
  8
LOGO1
 62
   228
 10
233.6479198741
 20
34.3024542059
 30
0.0
  0
VERTEX
  5
4AE
  8
LOGO1
 62
   228
 10
233.6858264057
 20
34.2626303175
 30
0.0
  0
VERTEX
  5
4AF
  8
LOGO1
 62
   228
 10
233.7214375028
 20
34.2207434891
 30
0.0
  0
VERTEX
  5
4B0
  8
LOGO1
 62
   228
 10
233.7547529161
 20
34.176792923
 30
0.0
  0
VERTEX
  5
4B1
  8
LOGO1
 62
   228
 10
233.7857723963
 20
34.1307778217
 30
0.0
  0
VERTEX
  5
4B2
  8
LOGO1
 62
   228
 10
233.8144956943
 20
34.0826973876
 30
0.0
  0
VERTEX
  5
4B3
  8
LOGO1
 62
   228
 10
233.8409225607
 20
34.0325508232
 30
0.0
  0
VERTEX
  5
4B4
  8
LOGO1
 62
   228
 10
233.8650527464
 20
33.9803373308
 30
0.0
  0
VERTEX
  5
4B5
  8
LOGO1
 62
   228
 10
233.8868860021
 20
33.9260561129
 30
0.0
  0
VERTEX
  5
4B6
  8
LOGO1
 62
   228
 10
233.9064220785
 20
33.869706372
 30
0.0
  0
VERTEX
  5
4B7
  8
LOGO1
 62
   228
 10
233.9236607265
 20
33.8112873103
 30
0.0
  0
VERTEX
  5
4B8
  8
LOGO1
 62
   228
 10
233.9386016967
 20
33.7507981303
 30
0.0
  0
VERTEX
  5
4B9
  8
LOGO1
 62
   228
 10
233.9512447399
 20
33.6882380346
 30
0.0
  0
VERTEX
  5
4BA
  8
LOGO1
 62
   228
 10
233.9615896069
 20
33.6236062254
 30
0.0
  0
VERTEX
  5
4BB
  8
LOGO1
 62
   228
 10
233.9696360485
 20
33.5569019052
 30
0.0
  0
VERTEX
  5
4BC
  8
LOGO1
 62
   228
 10
233.9753838153
 20
33.4881242764
 30
0.0
  0
VERTEX
  5
4BD
  8
LOGO1
 62
   228
 10
233.9788326582
 20
33.4172725415
 30
0.0
  0
VERTEX
  5
4BE
  8
LOGO1
 62
   228
 10
233.9799823279
 20
33.3443459028
 30
0.0
  0
SEQEND
  5
B94
  8
LOGO1
 62
   228
  0
POLYLINE
  5
DE
  8
LOGO1
 62
   228
 66
     1
 10
0.0
 20
0.0
 30
0.0
  0
VERTEX
  5
4BF
  8
LOGO1
 62
   228
 10
233.9799823279
 20
33.3443459028
 30
0.0
  0
VERTEX
  5
4C0
  8
LOGO1
 62
   228
 10
233.9796122758
 20
33.309841996
 30
0.0
  0
VERTEX
  5
4C1
  8
LOGO1
 62
   228
 10
233.9785030168
 20
33.2756144007
 30
0.0
  0
VERTEX
  5
4C2
  8
LOGO1
 62
   228
 10
233.9766558969
 20
33.2416630671
 30
0.0
  0
VERTEX
  5
4C3
  8
LOGO1
 62
   228
 10
233.9740722619
 20
33.2079879454
 30
0.0
  0
VERTEX
  5
4C4
  8
LOGO1
 62
   228
 10
233.9707534577
 20
33.1745889856
 30
0.0
  0
VERTEX
  5
4C5
  8
LOGO1
 62
   228
 10
233.9667008303
 20
33.141466138
 30
0.0
  0
VERTEX
  5
4C6
  8
LOGO1
 62
   228
 10
233.9619157257
 20
33.1086193527
 30
0.0
  0
VERTEX
  5
4C7
  8
LOGO1
 62
   228
 10
233.9563994896
 20
33.0760485798
 30
0.0
  0
VERTEX
  5
4C8
  8
LOGO1
 62
   228
 10
233.950153468
 20
33.0437537696
 30
0.0
  0
VERTEX
  5
4C9
  8
LOGO1
 62
   228
 10
233.9431790069
 20
33.011734872
 30
0.0
  0
VERTEX
  5
4CA
  8
LOGO1
 62
   228
 10
233.9354774522
 20
32.9799918374
 30
0.0
  0
VERTEX
  5
4CB
  8
LOGO1
 62
   228
 10
233.9270501497
 20
32.9485246158
 30
0.0
  0
VERTEX
  5
4CC
  8
LOGO1
 62
   228
 10
233.9178984454
 20
32.9173331575
 30
0.0
  0
VERTEX
  5
4CD
  8
LOGO1
 62
   228
 10
233.9080236852
 20
32.8864174124
 30
0.0
  0
VERTEX
  5
4CE
  8
LOGO1
 62
   228
 10
233.897427215
 20
32.8557773309
 30
0.0
  0
VERTEX
  5
4CF
  8
LOGO1
 62
   228
 10
233.8861103807
 20
32.825412863
 30
0.0
  0
VERTEX
  5
4D0
  8
LOGO1
 62
   228
 10
233.8740745283
 20
32.795323959
 30
0.0
  0
VERTEX
  5
4D1
  8
LOGO1
 62
   228
 10
233.8613210037
 20
32.7655105689
 30
0.0
  0
VERTEX
  5
4D2
  8
LOGO1
 62
   228
 10
233.8478511527
 20
32.7359726429
 30
0.0
  0
VERTEX
  5
4D3
  8
LOGO1
 62
   228
 10
233.8336663213
 20
32.7067101312
 30
0.0
  0
VERTEX
  5
4D4
  8
LOGO1
 62
   228
 10
233.8187678555
 20
32.6777229838
 30
0.0
  0
VERTEX
  5
4D5
  8
LOGO1
 62
   228
 10
233.803157101
 20
32.6490111511
 30
0.0
  0
VERTEX
  5
4D6
  8
LOGO1
 62
   228
 10
233.786835404
 20
32.620574583
 30
0.0
  0
VERTEX
  5
4D7
  8
LOGO1
 62
   228
 10
233.7698041101
 20
32.5924132298
 30
0.0
  0
SEQEND
  5
B93
  8
LOGO1
 62
   228
  0
POLYLINE
  5
DF
  8
LOGO1
 62
   228
 66
     1
 10
0.0
 20
0.0
 30
0.0
  0
VERTEX
  5
4D8
  8
LOGO1
 62
   228
 10
233.7698041101
 20
32.5924132298
 30
0.0
  0
VERTEX
  5
4D9
  8
LOGO1
 62
   228
 10
233.7470470411
 20
32.5535658615
 30
0.0
  0
VERTEX
  5
4DA
  8
LOGO1
 62
   228
 10
233.7234541583
 20
32.5157829631
 30
0.0
  0
VERTEX
  5
4DB
  8
LOGO1
 62
   228
 10
233.6990271068
 20
32.4790642355
 30
0.0
  0
VERTEX
  5
4DC
  8
LOGO1
 62
   228
 10
233.6737675315
 20
32.4434093795
 30
0.0
  0
VERTEX
  5
4DD
  8
LOGO1
 62
   228
 10
233.6476770776
 20
32.4088180962
 30
0.0
  0
VERTEX
  5
4DE
  8
LOGO1
 62
   228
 10
233.6207573899
 20
32.3752900864
 30
0.0
  0
VERTEX
  5
4DF
  8
LOGO1
 62
   228
 10
233.5930101135
 20
32.342825051
 30
0.0
  0
VERTEX
  5
4E0
  8
LOGO1
 62
   228
 10
233.5644368935
 20
32.3114226909
 30
0.0
  0
VERTEX
  5
4E1
  8
LOGO1
 62
   228
 10
233.5350393748
 20
32.2810827071
 30
0.0
  0
VERTEX
  5
4E2
  8
LOGO1
 62
   228
 10
233.5048192024
 20
32.2518048004
 30
0.0
  0
VERTEX
  5
4E3
  8
LOGO1
 62
   228
 10
233.4737780213
 20
32.2235886718
 30
0.0
  0
VERTEX
  5
4E4
  8
LOGO1
 62
   228
 10
233.4419174766
 20
32.1964340221
 30
0.0
  0
VERTEX
  5
4E5
  8
LOGO1
 62
   228
 10
233.4092392132
 20
32.1703405523
 30
0.0
  0
VERTEX
  5
4E6
  8
LOGO1
 62
   228
 10
233.3757448763
 20
32.1453079633
 30
0.0
  0
VERTEX
  5
4E7
  8
LOGO1
 62
   228
 10
233.3414361106
 20
32.1213359559
 30
0.0
  0
VERTEX
  5
4E8
  8
LOGO1
 62
   228
 10
233.3063145614
 20
32.0984242312
 30
0.0
  0
VERTEX
  5
4E9
  8
LOGO1
 62
   228
 10
233.2703818735
 20
32.0765724899
 30
0.0
  0
VERTEX
  5
4EA
  8
LOGO1
 62
   228
 10
233.233639692
 20
32.055780433
 30
0.0
  0
VERTEX
  5
4EB
  8
LOGO1
 62
   228
 10
233.196089662
 20
32.0360477615
 30
0.0
  0
VERTEX
  5
4EC
  8
LOGO1
 62
   228
 10
233.1577334283
 20
32.0173741762
 30
0.0
  0
VERTEX
  5
4ED
  8
LOGO1
 62
   228
 10
233.1185726361
 20
31.999759378
 30
0.0
  0
VERTEX
  5
4EE
  8
LOGO1
 62
   228
 10
233.0786089303
 20
31.9832030678
 30
0.0
  0
VERTEX
  5
4EF
  8
LOGO1
 62
   228
 10
233.0378439559
 20
31.9677049466
 30
0.0
  0
VERTEX
  5
4F0
  8
LOGO1
 62
   228
 10
232.996279358
 20
31.9532647153
 30
0.0
  0
SEQEND
  5
B92
  8
LOGO1
 62
   228
  0
POLYLINE
  5
E0
  8
LOGO1
 62
   228
 66
     1
 10
0.0
 20
0.0
 30
0.0
  0
VERTEX
  5
4F1
  8
LOGO1
 62
   228
 10
232.996279358
 20
31.9532647153
 30
0.0
  0
VERTEX
  5
4F2
  8
LOGO1
 62
   228
 10
232.9885316516
 20
31.9507056308
 30
0.0
  0
VERTEX
  5
4F3
  8
LOGO1
 62
   228
 10
232.9807359907
 20
31.9481677818
 30
0.0
  0
VERTEX
  5
4F4
  8
LOGO1
 62
   228
 10
232.9728922757
 20
31.9456508694
 30
0.0
  0
VERTEX
  5
4F5
  8
LOGO1
 62
   228
 10
232.9650004068
 20
31.9431545943
 30
0.0
  0
VERTEX
  5
4F6
  8
LOGO1
 62
   228
 10
232.9570602843
 20
31.9406786574
 30
0.0
  0
VERTEX
  5
4F7
  8
LOGO1
 62
   228
 10
232.9490718085
 20
31.9382227598
 30
0.0
  0
VERTEX
  5
4F8
  8
LOGO1
 62
   228
 10
232.9410348798
 20
31.9357866023
 30
0.0
  0
VERTEX
  5
4F9
  8
LOGO1
 62
   228
 10
232.9329493983
 20
31.9333698858
 30
0.0
  0
VERTEX
  5
4FA
  8
LOGO1
 62
   228
 10
232.9248152646
 20
31.9309723112
 30
0.0
  0
VERTEX
  5
4FB
  8
LOGO1
 62
   228
 10
232.9166323787
 20
31.9285935794
 30
0.0
  0
VERTEX
  5
4FC
  8
LOGO1
 62
   228
 10
232.9084006411
 20
31.9262333914
 30
0.0
  0
VERTEX
  5
4FD
  8
LOGO1
 62
   228
 10
232.9001199521
 20
31.923891448
 30
0.0
  0
VERTEX
  5
4FE
  8
LOGO1
 62
   228
 10
232.8917902119
 20
31.9215674501
 30
0.0
  0
VERTEX
  5
4FF
  8
LOGO1
 62
   228
 10
232.8834113208
 20
31.9192610987
 30
0.0
  0
VERTEX
  5
500
  8
LOGO1
 62
   228
 10
232.8749831792
 20
31.9169720946
 30
0.0
  0
VERTEX
  5
501
  8
LOGO1
 62
   228
 10
232.8665056873
 20
31.9147001388
 30
0.0
  0
VERTEX
  5
502
  8
LOGO1
 62
   228
 10
232.8579787455
 20
31.9124449322
 30
0.0
  0
VERTEX
  5
503
  8
LOGO1
 62
   228
 10
232.8494022541
 20
31.9102061757
 30
0.0
  0
VERTEX
  5
504
  8
LOGO1
 62
   228
 10
232.8407761133
 20
31.9079835701
 30
0.0
  0
VERTEX
  5
505
  8
LOGO1
 62
   228
 10
232.8321002235
 20
31.9057768165
 30
0.0
  0
VERTEX
  5
506
  8
LOGO1
 62
   228
 10
232.8233744849
 20
31.9035856157
 30
0.0
  0
VERTEX
  5
507
  8
LOGO1
 62
   228
 10
232.8145987979
 20
31.9014096685
 30
0.0
  0
VERTEX
  5
508
  8
LOGO1
 62
   228
 10
232.8057730628
 20
31.899248676
 30
0.0
  0
VERTEX
  5
509
  8
LOGO1
 62
   228
 10
232.7968971799
 20
31.8971023391
 30
0.0
  0
SEQEND
  5
B91
  8
LOGO1
 62
   228
  0
POLYLINE
  5
E1
  8
LOGO1
 62
   228
 66
     1
 10
0.0
 20
0.0
 30
0.0
  0
VERTEX
  5
50A
  8
LOGO1
 62
   228
 10
232.7968971799
 20
31.8911300618
 30
0.0
  0
VERTEX
  5
50B
  8
LOGO1
 62
   228
 10
232.7498937776
 20
31.8746860443
 30
0.0
  0
VERTEX
  5
50C
  8
LOGO1
 62
   228
 10
232.7040315125
 20
31.8558378222
 30
0.0
  0
VERTEX
  5
50D
  8
LOGO1
 62
   228
 10
232.6593867529
 20
31.8346576763
 30
0.0
  0
VERTEX
  5
50E
  8
LOGO1
 62
   228
 10
232.6160358671
 20
31.8112178873
 30
0.0
  0
VERTEX
  5
50F
  8
LOGO1
 62
   228
 10
232.5740552234
 20
31.7855907358
 30
0.0
  0
VERTEX
  5
510
  8
LOGO1
 62
   228
 10
232.5335211899
 20
31.7578485025
 30
0.0
  0
VERTEX
  5
511
  8
LOGO1
 62
   228
 10
232.4945101349
 20
31.728063468
 30
0.0
  0
VERTEX
  5
512
  8
LOGO1
 62
   228
 10
232.4570984268
 20
31.696307913
 30
0.0
  0
VERTEX
  5
513
  8
LOGO1
 62
   228
 10
232.4213624337
 20
31.6626541182
 30
0.0
  0
VERTEX
  5
514
  8
LOGO1
 62
   228
 10
232.387378524
 20
31.6271743643
 30
0.0
  0
VERTEX
  5
515
  8
LOGO1
 62
   228
 10
232.3552230659
 20
31.5899409318
 30
0.0
  0
VERTEX
  5
516
  8
LOGO1
 62
   228
 10
232.3249724276
 20
31.5510261016
 30
0.0
  0
VERTEX
  5
517
  8
LOGO1
 62
   228
 10
232.2967029774
 20
31.5105021541
 30
0.0
  0
VERTEX
  5
518
  8
LOGO1
 62
   228
 10
232.2704910836
 20
31.4684413702
 30
0.0
  0
VERTEX
  5
519
  8
LOGO1
 62
   228
 10
232.2464131145
 20
31.4249160305
 30
0.0
  0
VERTEX
  5
51A
  8
LOGO1
 62
   228
 10
232.2245454383
 20
31.3799984155
 30
0.0
  0
VERTEX
  5
51B
  8
LOGO1
 62
   228
 10
232.2049644232
 20
31.3337608061
 30
0.0
  0
VERTEX
  5
51C
  8
LOGO1
 62
   228
 10
232.1877464375
 20
31.2862754829
 30
0.0
  0
VERTEX
  5
51D
  8
LOGO1
 62
   228
 10
232.1729678496
 20
31.2376147265
 30
0.0
  0
VERTEX
  5
51E
  8
LOGO1
 62
   228
 10
232.1607050276
 20
31.1878508175
 30
0.0
  0
VERTEX
  5
51F
  8
LOGO1
 62
   228
 10
232.1510343398
 20
31.1370560368
 30
0.0
  0
VERTEX
  5
520
  8
LOGO1
 62
   228
 10
232.1440321545
 20
31.0853026648
 30
0.0
  0
VERTEX
  5
521
  8
LOGO1
 62
   228
 10
232.1397748399
 20
31.0326629824
 30
0.0
  0
VERTEX
  5
522
  8
LOGO1
 62
   228
 10
232.1383387643
 20
30.9792092701
 30
0.0
  0
SEQEND
  5
B90
  8
LOGO1
 62
   228
  0
POLYLINE
  5
E2
  8
LOGO1
 62
   228
 66
     1
 10
0.0
 20
0.0
 30
0.0
  0
VERTEX
  5
523
  8
LOGO1
 62
   228
 10
232.1383387643
 20
30.9792092701
 30
0.0
  0
VERTEX
  5
524
  8
LOGO1
 62
   228
 10
232.1397748399
 20
30.925766375
 30
0.0
  0
VERTEX
  5
525
  8
LOGO1
 62
   228
 10
232.1440321545
 20
30.8731306306
 30
0.0
  0
VERTEX
  5
526
  8
LOGO1
 62
   228
 10
232.1510343398
 20
30.8213746167
 30
0.0
  0
VERTEX
  5
527
  8
LOGO1
 62
   228
 10
232.1607050276
 20
30.7705709131
 30
0.0
  0
VERTEX
  5
528
  8
LOGO1
 62
   228
 10
232.1729678496
 20
30.7207920994
 30
0.0
  0
VERTEX
  5
529
  8
LOGO1
 62
   228
 10
232.1877464375
 20
30.6721107554
 30
0.0
  0
VERTEX
  5
52A
  8
LOGO1
 62
   228
 10
232.2049644232
 20
30.624599461
 30
0.0
  0
VERTEX
  5
52B
  8
LOGO1
 62
   228
 10
232.2245454383
 20
30.5783307958
 30
0.0
  0
VERTEX
  5
52C
  8
LOGO1
 62
   228
 10
232.2464131145
 20
30.5333773396
 30
0.0
  0
VERTEX
  5
52D
  8
LOGO1
 62
   228
 10
232.2704910836
 20
30.4898116722
 30
0.0
  0
VERTEX
  5
52E
  8
LOGO1
 62
   228
 10
232.2967029774
 20
30.4477063734
 30
0.0
  0
VERTEX
  5
52F
  8
LOGO1
 62
   228
 10
232.3249724276
 20
30.4071340228
 30
0.0
  0
VERTEX
  5
530
  8
LOGO1
 62
   228
 10
232.3552230659
 20
30.3681672004
 30
0.0
  0
VERTEX
  5
531
  8
LOGO1
 62
   228
 10
232.387378524
 20
30.3308784857
 30
0.0
  0
VERTEX
  5
532
  8
LOGO1
 62
   228
 10
232.4213624337
 20
30.2953404585
 30
0.0
  0
VERTEX
  5
533
  8
LOGO1
 62
   228
 10
232.4570984268
 20
30.2616256987
 30
0.0
  0
VERTEX
  5
534
  8
LOGO1
 62
   228
 10
232.4945101349
 20
30.229806786
 30
0.0
  0
VERTEX
  5
535
  8
LOGO1
 62
   228
 10
232.5335211899
 20
30.1999563002
 30
0.0
  0
VERTEX
  5
536
  8
LOGO1
 62
   228
 10
232.5740552234
 20
30.1721468209
 30
0.0
  0
VERTEX
  5
537
  8
LOGO1
 62
   228
 10
232.6160358671
 20
30.146450928
 30
0.0
  0
VERTEX
  5
538
  8
LOGO1
 62
   228
 10
232.6593867529
 20
30.1229412012
 30
0.0
  0
VERTEX
  5
539
  8
LOGO1
 62
   228
 10
232.7040315125
 20
30.1016902203
 30
0.0
  0
VERTEX
  5
53A
  8
LOGO1
 62
   228
 10
232.7498937776
 20
30.082770565
 30
0.0
  0
VERTEX
  5
53B
  8
LOGO1
 62
   228
 10
232.7968971799
 20
30.0662548151
 30
0.0
  0
SEQEND
  5
B8F
  8
LOGO1
 62
   228
  0
POLYLINE
  5
E3
  8
LOGO1
 62
   228
 66
     1
 10
0.0
 20
0.0
 30
0.0
  0
VERTEX
  5
53C
  8
LOGO1
 62
   228
 10
232.7968971799
 20
30.0662548151
 30
0.0
  0
VERTEX
  5
53D
  8
LOGO1
 62
   228
 10
232.8016316631
 20
30.0646886177
 30
0.0
  0
VERTEX
  5
53E
  8
LOGO1
 62
   228
 10
232.8065034298
 20
30.0630910156
 30
0.0
  0
VERTEX
  5
53F
  8
LOGO1
 62
   228
 10
232.81151248
 20
30.0614620088
 30
0.0
  0
VERTEX
  5
540
  8
LOGO1
 62
   228
 10
232.8166588135
 20
30.0598015973
 30
0.0
  0
VERTEX
  5
541
  8
LOGO1
 62
   228
 10
232.8219424305
 20
30.058109781
 30
0.0
  0
VERTEX
  5
542
  8
LOGO1
 62
   228
 10
232.8273633308
 20
30.0563865601
 30
0.0
  0
VERTEX
  5
543
  8
LOGO1
 62
   228
 10
232.8329215146
 20
30.0546319345
 30
0.0
  0
VERTEX
  5
544
  8
LOGO1
 62
   228
 10
232.8386169818
 20
30.0528459042
 30
0.0
  0
VERTEX
  5
545
  8
LOGO1
 62
   228
 10
232.8444497324
 20
30.0510284692
 30
0.0
  0
VERTEX
  5
546
  8
LOGO1
 62
   228
 10
232.8504197665
 20
30.0491796294
 30
0.0
  0
VERTEX
  5
547
  8
LOGO1
 62
   228
 10
232.8565270839
 20
30.047299385
 30
0.0
  0
VERTEX
  5
548
  8
LOGO1
 62
   228
 10
232.8627716848
 20
30.0453877359
 30
0.0
  0
VERTEX
  5
549
  8
LOGO1
 62
   228
 10
232.8691535691
 20
30.043444682
 30
0.0
  0
VERTEX
  5
54A
  8
LOGO1
 62
   228
 10
232.8756727367
 20
30.0414702235
 30
0.0
  0
VERTEX
  5
54B
  8
LOGO1
 62
   228
 10
232.8823291879
 20
30.0394643603
 30
0.0
  0
VERTEX
  5
54C
  8
LOGO1
 62
   228
 10
232.8891229224
 20
30.0374270923
 30
0.0
  0
SEQEND
  5
B8E
  8
LOGO1
 62
   228
  0
POLYLINE
  5
E4
  8
LOGO1
 62
   228
 66
     1
 10
0.0
 20
0.0
 30
0.0
  0
VERTEX
  5
54D
  8
LOGO1
 62
   228
 10
232.8891229224
 20
30.0374270923
 30
0.0
  0
VERTEX
  5
54E
  8
LOGO1
 62
   228
 10
232.9357659349
 20
30.0290970613
 30
0.0
  0
VERTEX
  5
54F
  8
LOGO1
 62
   228
 10
232.9817446633
 20
30.0203572239
 30
0.0
  0
VERTEX
  5
550
  8
LOGO1
 62
   228
 10
233.0270564155
 20
30.0112057356
 30
0.0
  0
VERTEX
  5
551
  8
LOGO1
 62
   228
 10
233.0716984999
 20
30.001640752
 30
0.0
  0
VERTEX
  5
552
  8
LOGO1
 62
   228
 10
233.1156682245
 20
29.9916604288
 30
0.0
  0
VERTEX
  5
553
  8
LOGO1
 62
   228
 10
233.1589628975
 20
29.9812629215
 30
0.0
  0
VERTEX
  5
554
  8
LOGO1
 62
   228
 10
233.2015798272
 20
29.9704463858
 30
0.0
  0
VERTEX
  5
555
  8
LOGO1
 62
   228
 10
233.2435163216
 20
29.9592089772
 30
0.0
  0
VERTEX
  5
556
  8
LOGO1
 62
   228
 10
233.2847696889
 20
29.9475488513
 30
0.0
  0
VERTEX
  5
557
  8
LOGO1
 62
   228
 10
233.3253372374
 20
29.9354641638
 30
0.0
  0
VERTEX
  5
558
  8
LOGO1
 62
   228
 10
233.3652162751
 20
29.9229530701
 30
0.0
  0
VERTEX
  5
559
  8
LOGO1
 62
   228
 10
233.4044041103
 20
29.910013726
 30
0.0
  0
VERTEX
  5
55A
  8
LOGO1
 62
   228
 10
233.4428980511
 20
29.896644287
 30
0.0
  0
VERTEX
  5
55B
  8
LOGO1
 62
   228
 10
233.4806954056
 20
29.8828429088
 30
0.0
  0
VERTEX
  5
55C
  8
LOGO1
 62
   228
 10
233.5177934821
 20
29.8686077468
 30
0.0
  0
VERTEX
  5
55D
  8
LOGO1
 62
   228
 10
233.5541895888
 20
29.8539369567
 30
0.0
  0
VERTEX
  5
55E
  8
LOGO1
 62
   228
 10
233.5898810337
 20
29.8388286941
 30
0.0
  0
VERTEX
  5
55F
  8
LOGO1
 62
   228
 10
233.624865125
 20
29.8232811147
 30
0.0
  0
VERTEX
  5
560
  8
LOGO1
 62
   228
 10
233.659139171
 20
29.8072923739
 30
0.0
  0
VERTEX
  5
561
  8
LOGO1
 62
   228
 10
233.6927004798
 20
29.7908606274
 30
0.0
  0
VERTEX
  5
562
  8
LOGO1
 62
   228
 10
233.7255463595
 20
29.7739840309
 30
0.0
  0
VERTEX
  5
563
  8
LOGO1
 62
   228
 10
233.7576741184
 20
29.7566607398
 30
0.0
  0
VERTEX
  5
564
  8
LOGO1
 62
   228
 10
233.7890810645
 20
29.7388889097
 30
0.0
  0
VERTEX
  5
565
  8
LOGO1
 62
   228
 10
233.8197645062
 20
29.7206666964
 30
0.0
  0
SEQEND
  5
B8D
  8
LOGO1
 62
   228
  0
POLYLINE
  5
E5
  8
LOGO1
 62
   228
 66
     1
 10
0.0
 20
0.0
 30
0.0
  0
VERTEX
  5
566
  8
LOGO1
 62
   228
 10
233.8197645062
 20
29.7206666964
 30
0.0
  0
VERTEX
  5
567
  8
LOGO1
 62
   228
 10
233.8730544404
 20
29.6873688299
 30
0.0
  0
VERTEX
  5
568
  8
LOGO1
 62
   228
 10
233.9240739143
 20
29.653531949
 30
0.0
  0
VERTEX
  5
569
  8
LOGO1
 62
   228
 10
233.9728231772
 20
29.6190525179
 30
0.0
  0
VERTEX
  5
56A
  8
LOGO1
 62
   228
 10
234.0193024782
 20
29.5838270008
 30
0.0
  0
VERTEX
  5
56B
  8
LOGO1
 62
   228
 10
234.0635120666
 20
29.5477518619
 30
0.0
  0
VERTEX
  5
56C
  8
LOGO1
 62
   228
 10
234.1054521917
 20
29.5107235653
 30
0.0
  0
VERTEX
  5
56D
  8
LOGO1
 62
   228
 10
234.1451231026
 20
29.4726385752
 30
0.0
  0
VERTEX
  5
56E
  8
LOGO1
 62
   228
 10
234.1825250487
 20
29.4333933559
 30
0.0
  0
VERTEX
  5
56F
  8
LOGO1
 62
   228
 10
234.2176582792
 20
29.3928843714
 30
0.0
  0
VERTEX
  5
570
  8
LOGO1
 62
   228
 10
234.2505230433
 20
29.3510080859
 30
0.0
  0
VERTEX
  5
571
  8
LOGO1
 62
   228
 10
234.2811195902
 20
29.3076609637
 30
0.0
  0
VERTEX
  5
572
  8
LOGO1
 62
   228
 10
234.3094481693
 20
29.2627394689
 30
0.0
  0
VERTEX
  5
573
  8
LOGO1
 62
   228
 10
234.3355090297
 20
29.2161400656
 30
0.0
  0
VERTEX
  5
574
  8
LOGO1
 62
   228
 10
234.3593024208
 20
29.1677592182
 30
0.0
  0
VERTEX
  5
575
  8
LOGO1
 62
   228
 10
234.3808285916
 20
29.1174933907
 30
0.0
  0
VERTEX
  5
576
  8
LOGO1
 62
   228
 10
234.4000877916
 20
29.0652390473
 30
0.0
  0
VERTEX
  5
577
  8
LOGO1
 62
   228
 10
234.4170802698
 20
29.0108926521
 30
0.0
  0
VERTEX
  5
578
  8
LOGO1
 62
   228
 10
234.4318062757
 20
28.9543506695
 30
0.0
  0
VERTEX
  5
579
  8
LOGO1
 62
   228
 10
234.4442660584
 20
28.8955095635
 30
0.0
  0
VERTEX
  5
57A
  8
LOGO1
 62
   228
 10
234.4544598671
 20
28.8342657984
 30
0.0
  0
VERTEX
  5
57B
  8
LOGO1
 62
   228
 10
234.4623879511
 20
28.7705158382
 30
0.0
  0
VERTEX
  5
57C
  8
LOGO1
 62
   228
 10
234.4680505597
 20
28.7041561472
 30
0.0
  0
VERTEX
  5
57D
  8
LOGO1
 62
   228
 10
234.4714479421
 20
28.6350831896
 30
0.0
  0
VERTEX
  5
57E
  8
LOGO1
 62
   228
 10
234.4725803475
 20
28.5631934296
 30
0.0
  0
SEQEND
  5
B8C
  8
LOGO1
 62
   228
  0
POLYLINE
  5
E6
  8
LOGO1
 62
   228
 66
     1
 10
0.0
 20
0.0
 30
0.0
  0
VERTEX
  5
57F
  8
LOGO1
 62
   228
 10
234.4725803475
 20
28.5631934296
 30
0.0
  0
VERTEX
  5
580
  8
LOGO1
 62
   228
 10
234.468207093
 20
28.4226934826
 30
0.0
  0
VERTEX
  5
581
  8
LOGO1
 62
   228
 10
234.4550876288
 20
28.2881784246
 30
0.0
  0
VERTEX
  5
582
  8
LOGO1
 62
   228
 10
234.4332224035
 20
28.1596477073
 30
0.0
  0
VERTEX
  5
583
  8
LOGO1
 62
   228
 10
234.4026118656
 20
28.0371007822
 30
0.0
  0
VERTEX
  5
584
  8
LOGO1
 62
   228
 10
234.3632564639
 20
27.9205371011
 30
0.0
  0
VERTEX
  5
585
  8
LOGO1
 62
   228
 10
234.315156647
 20
27.8099561155
 30
0.0
  0
VERTEX
  5
586
  8
LOGO1
 62
   228
 10
234.2583128635
 20
27.7053572773
 30
0.0
  0
VERTEX
  5
587
  8
LOGO1
 62
   228
 10
234.1927255621
 20
27.606740038
 30
0.0
  0
VERTEX
  5
588
  8
LOGO1
 62
   228
 10
234.1183951914
 20
27.5141038493
 30
0.0
  0
VERTEX
  5
589
  8
LOGO1
 62
   228
 10
234.0353222
 20
27.4274481628
 30
0.0
  0
VERTEX
  5
58A
  8
LOGO1
 62
   228
 10
233.9435070365
 20
27.3467724303
 30
0.0
  0
VERTEX
  5
58B
  8
LOGO1
 62
   228
 10
233.8429501497
 20
27.2720761034
 30
0.0
  0
VERTEX
  5
58C
  8
LOGO1
 62
   228
 10
233.7336519881
 20
27.2033586337
 30
0.0
  0
VERTEX
  5
58D
  8
LOGO1
 62
   228
 10
233.6156130005
 20
27.140619473
 30
0.0
  0
VERTEX
  5
58E
  8
LOGO1
 62
   228
 10
233.4888336353
 20
27.0838580728
 30
0.0
  0
VERTEX
  5
58F
  8
LOGO1
 62
   228
 10
233.3533143413
 20
27.0330738849
 30
0.0
  0
VERTEX
  5
590
  8
LOGO1
 62
   228
 10
233.2090555672
 20
26.9882663609
 30
0.0
  0
VERTEX
  5
591
  8
LOGO1
 62
   228
 10
233.0560577614
 20
26.9494349525
 30
0.0
  0
VERTEX
  5
592
  8
LOGO1
 62
   228
 10
232.8943213728
 20
26.9165791114
 30
0.0
  0
VERTEX
  5
593
  8
LOGO1
 62
   228
 10
232.7238468498
 20
26.8896982891
 30
0.0
  0
VERTEX
  5
594
  8
LOGO1
 62
   228
 10
232.5446346413
 20
26.8687919374
 30
0.0
  0
VERTEX
  5
595
  8
LOGO1
 62
   228
 10
232.3566851957
 20
26.8538595079
 30
0.0
  0
VERTEX
  5
596
  8
LOGO1
 62
   228
 10
232.1599989618
 20
26.8449004524
 30
0.0
  0
VERTEX
  5
597
  8
LOGO1
 62
   228
 10
231.9545763881
 20
26.8419142224
 30
0.0
  0
SEQEND
  5
B8B
  8
LOGO1
 62
   228
  0
POLYLINE
  5
E7
  8
LOGO1
 62
   228
 66
     1
 10
0.0
 20
0.0
 30
0.0
  0
VERTEX
  5
598
  8
LOGO1
 62
   228
 10
232.0507070812
 20
24.9648964014
 30
0.0
  0
VERTEX
  5
599
  8
LOGO1
 62
   228
 10
232.0921404523
 20
24.964938806
 30
0.0
  0
VERTEX
  5
59A
  8
LOGO1
 62
   228
 10
232.133345915
 20
24.9650657542
 30
0.0
  0
VERTEX
  5
59B
  8
LOGO1
 62
   228
 10
232.1743240675
 20
24.9652768469
 30
0.0
  0
VERTEX
  5
59C
  8
LOGO1
 62
   228
 10
232.2150755079
 20
24.9655716856
 30
0.0
  0
VERTEX
  5
59D
  8
LOGO1
 62
   228
 10
232.2556008345
 20
24.9659498713
 30
0.0
  0
VERTEX
  5
59E
  8
LOGO1
 62
   228
 10
232.2959006454
 20
24.9664110053
 30
0.0
  0
VERTEX
  5
59F
  8
LOGO1
 62
   228
 10
232.3359755388
 20
24.9669546889
 30
0.0
  0
VERTEX
  5
5A0
  8
LOGO1
 62
   228
 10
232.3758261129
 20
24.9675805231
 30
0.0
  0
VERTEX
  5
5A1
  8
LOGO1
 62
   228
 10
232.4154529659
 20
24.9682881093
 30
0.0
  0
VERTEX
  5
5A2
  8
LOGO1
 62
   228
 10
232.4548566959
 20
24.9690770486
 30
0.0
  0
VERTEX
  5
5A3
  8
LOGO1
 62
   228
 10
232.4940379012
 20
24.9699469423
 30
0.0
  0
VERTEX
  5
5A4
  8
LOGO1
 62
   228
 10
232.53299718
 20
24.9708973915
 30
0.0
  0
VERTEX
  5
5A5
  8
LOGO1
 62
   228
 10
232.5717351303
 20
24.9719279975
 30
0.0
  0
VERTEX
  5
5A6
  8
LOGO1
 62
   228
 10
232.6102523504
 20
24.9730383614
 30
0.0
  0
VERTEX
  5
5A7
  8
LOGO1
 62
   228
 10
232.6485494386
 20
24.9742280846
 30
0.0
  0
VERTEX
  5
5A8
  8
LOGO1
 62
   228
 10
232.6866269929
 20
24.9754967681
 30
0.0
  0
VERTEX
  5
5A9
  8
LOGO1
 62
   228
 10
232.7244856115
 20
24.9768440132
 30
0.0
  0
VERTEX
  5
5AA
  8
LOGO1
 62
   228
 10
232.7621258927
 20
24.9782694212
 30
0.0
  0
VERTEX
  5
5AB
  8
LOGO1
 62
   228
 10
232.7995484347
 20
24.9797725932
 30
0.0
  0
VERTEX
  5
5AC
  8
LOGO1
 62
   228
 10
232.8367538355
 20
24.9813531304
 30
0.0
  0
VERTEX
  5
5AD
  8
LOGO1
 62
   228
 10
232.8737426934
 20
24.9830106341
 30
0.0
  0
VERTEX
  5
5AE
  8
LOGO1
 62
   228
 10
232.9105156066
 20
24.9847447054
 30
0.0
  0
VERTEX
  5
5AF
  8
LOGO1
 62
   228
 10
232.9470731733
 20
24.9865549456
 30
0.0
  0
VERTEX
  5
5B0
  8
LOGO1
 62
   228
 10
232.9834159917
 20
24.9884409558
 30
0.0
  0
SEQEND
  5
B8A
  8
LOGO1
 62
   228
  0
POLYLINE
  5
E8
  8
LOGO1
 62
   228
 66
     1
 10
0.0
 20
0.0
 30
0.0
  0
VERTEX
  5
5B1
  8
LOGO1
 62
   228
 10
252.2806476651
 20
35.3767505486
 30
0.0
  0
VERTEX
  5
5B2
  8
LOGO1
 62
   228
 10
252.268341267
 20
35.4042797368
 30
0.0
  0
VERTEX
  5
5B3
  8
LOGO1
 62
   228
 10
252.255799533
 20
35.4316529482
 30
0.0
  0
VERTEX
  5
5B4
  8
LOGO1
 62
   228
 10
252.2430228121
 20
35.4588709307
 30
0.0
  0
VERTEX
  5
5B5
  8
LOGO1
 62
   228
 10
252.2300114532
 20
35.485934432
 30
0.0
  0
VERTEX
  5
5B6
  8
LOGO1
 62
   228
 10
252.2167658052
 20
35.5128441997
 30
0.0
  0
VERTEX
  5
5B7
  8
LOGO1
 62
   228
 10
252.2032862171
 20
35.5396009817
 30
0.0
  0
VERTEX
  5
5B8
  8
LOGO1
 62
   228
 10
252.1895730379
 20
35.5662055257
 30
0.0
  0
VERTEX
  5
5B9
  8
LOGO1
 62
   228
 10
252.1756266164
 20
35.5926585793
 30
0.0
  0
VERTEX
  5
5BA
  8
LOGO1
 62
   228
 10
252.1614473016
 20
35.6189608904
 30
0.0
  0
VERTEX
  5
5BB
  8
LOGO1
 62
   228
 10
252.1470354425
 20
35.6451132066
 30
0.0
  0
VERTEX
  5
5BC
  8
LOGO1
 62
   228
 10
252.132391388
 20
35.6711162758
 30
0.0
  0
VERTEX
  5
5BD
  8
LOGO1
 62
   228
 10
252.117515487
 20
35.6969708455
 30
0.0
  0
VERTEX
  5
5BE
  8
LOGO1
 62
   228
 10
252.1024080884
 20
35.7226776636
 30
0.0
  0
VERTEX
  5
5BF
  8
LOGO1
 62
   228
 10
252.0870695413
 20
35.7482374778
 30
0.0
  0
VERTEX
  5
5C0
  8
LOGO1
 62
   228
 10
252.0715001946
 20
35.7736510358
 30
0.0
  0
VERTEX
  5
5C1
  8
LOGO1
 62
   228
 10
252.0557003971
 20
35.7989190853
 30
0.0
  0
VERTEX
  5
5C2
  8
LOGO1
 62
   228
 10
252.0396704979
 20
35.8240423741
 30
0.0
  0
VERTEX
  5
5C3
  8
LOGO1
 62
   228
 10
252.0234108459
 20
35.8490216499
 30
0.0
  0
VERTEX
  5
5C4
  8
LOGO1
 62
   228
 10
252.00692179
 20
35.8738576604
 30
0.0
  0
VERTEX
  5
5C5
  8
LOGO1
 62
   228
 10
251.9902036792
 20
35.8985511535
 30
0.0
  0
VERTEX
  5
5C6
  8
LOGO1
 62
   228
 10
251.9732568623
 20
35.9231028767
 30
0.0
  0
VERTEX
  5
5C7
  8
LOGO1
 62
   228
 10
251.9560816884
 20
35.9475135778
 30
0.0
  0
VERTEX
  5
5C8
  8
LOGO1
 62
   228
 10
251.9386785064
 20
35.9717840046
 30
0.0
  0
VERTEX
  5
5C9
  8
LOGO1
 62
   228
 10
251.9210476653
 20
35.9959149048
 30
0.0
  0
SEQEND
  5
B89
  8
LOGO1
 62
   228
  0
POLYLINE
  5
E9
  8
LOGO1
 62
   228
 66
     1
 10
0.0
 20
0.0
 30
0.0
  0
VERTEX
  5
5CA
  8
LOGO1
 62
   228
 10
251.9210476653
 20
35.9959149048
 30
0.0
  0
VERTEX
  5
5CB
  8
LOGO1
 62
   228
 10
251.9028901888
 20
36.0197077475
 30
0.0
  0
VERTEX
  5
5CC
  8
LOGO1
 62
   228
 10
251.8842794378
 20
36.0431359467
 30
0.0
  0
VERTEX
  5
5CD
  8
LOGO1
 62
   228
 10
251.8652143655
 20
36.0661997516
 30
0.0
  0
VERTEX
  5
5CE
  8
LOGO1
 62
   228
 10
251.8456939249
 20
36.0888994115
 30
0.0
  0
VERTEX
  5
5CF
  8
LOGO1
 62
   228
 10
251.8257170693
 20
36.1112351757
 30
0.0
  0
VERTEX
  5
5D0
  8
LOGO1
 62
   228
 10
251.8052827519
 20
36.1332072933
 30
0.0
  0
VERTEX
  5
5D1
  8
LOGO1
 62
   228
 10
251.7843899259
 20
36.1548160137
 30
0.0
  0
VERTEX
  5
5D2
  8
LOGO1
 62
   228
 10
251.7630375443
 20
36.176061586
 30
0.0
  0
VERTEX
  5
5D3
  8
LOGO1
 62
   228
 10
251.7412245604
 20
36.1969442596
 30
0.0
  0
VERTEX
  5
5D4
  8
LOGO1
 62
   228
 10
251.7189499274
 20
36.2174642836
 30
0.0
  0
VERTEX
  5
5D5
  8
LOGO1
 62
   228
 10
251.6962125985
 20
36.2376219073
 30
0.0
  0
VERTEX
  5
5D6
  8
LOGO1
 62
   228
 10
251.6730115268
 20
36.2574173799
 30
0.0
  0
VERTEX
  5
5D7
  8
LOGO1
 62
   228
 10
251.6493456654
 20
36.2768509507
 30
0.0
  0
VERTEX
  5
5D8
  8
LOGO1
 62
   228
 10
251.6252139676
 20
36.295922869
 30
0.0
  0
VERTEX
  5
5D9
  8
LOGO1
 62
   228
 10
251.6006153866
 20
36.3146333839
 30
0.0
  0
VERTEX
  5
5DA
  8
LOGO1
 62
   228
 10
251.5755488755
 20
36.3329827448
 30
0.0
  0
VERTEX
  5
5DB
  8
LOGO1
 62
   228
 10
251.5500133875
 20
36.3509712008
 30
0.0
  0
VERTEX
  5
5DC
  8
LOGO1
 62
   228
 10
251.5240078758
 20
36.3685990012
 30
0.0
  0
VERTEX
  5
5DD
  8
LOGO1
 62
   228
 10
251.4975312936
 20
36.3858663952
 30
0.0
  0
VERTEX
  5
5DE
  8
LOGO1
 62
   228
 10
251.4705825939
 20
36.4027736322
 30
0.0
  0
VERTEX
  5
5DF
  8
LOGO1
 62
   228
 10
251.4431607301
 20
36.4193209612
 30
0.0
  0
VERTEX
  5
5E0
  8
LOGO1
 62
   228
 10
251.4152646553
 20
36.4355086317
 30
0.0
  0
VERTEX
  5
5E1
  8
LOGO1
 62
   228
 10
251.3868933226
 20
36.4513368928
 30
0.0
  0
VERTEX
  5
5E2
  8
LOGO1
 62
   228
 10
251.3580456853
 20
36.4668059937
 30
0.0
  0
SEQEND
  5
B88
  8
LOGO1
 62
   228
  0
POLYLINE
  5
EA
  8
LOGO1
 62
   228
 66
     1
 10
0.0
 20
0.0
 30
0.0
  0
VERTEX
  5
5E3
  8
LOGO1
 62
   228
 10
251.3580456853
 20
36.4668059937
 30
0.0
  0
VERTEX
  5
5E4
  8
LOGO1
 62
   228
 10
251.3287202894
 20
36.4816660594
 30
0.0
  0
VERTEX
  5
5E5
  8
LOGO1
 62
   228
 10
251.2988015938
 20
36.4958965855
 30
0.0
  0
VERTEX
  5
5E6
  8
LOGO1
 62
   228
 10
251.2682896983
 20
36.5094973226
 30
0.0
  0
VERTEX
  5
5E7
  8
LOGO1
 62
   228
 10
251.2371847026
 20
36.5224680215
 30
0.0
  0
VERTEX
  5
5E8
  8
LOGO1
 62
   228
 10
251.2054867063
 20
36.5348084331
 30
0.0
  0
VERTEX
  5
5E9
  8
LOGO1
 62
   228
 10
251.1731958091
 20
36.546518308
 30
0.0
  0
VERTEX
  5
5EA
  8
LOGO1
 62
   228
 10
251.1403121108
 20
36.557597397
 30
0.0
  0
VERTEX
  5
5EB
  8
LOGO1
 62
   228
 10
251.1068357111
 20
36.5680454509
 30
0.0
  0
VERTEX
  5
5EC
  8
LOGO1
 62
   228
 10
251.0727667096
 20
36.5778622204
 30
0.0
  0
VERTEX
  5
5ED
  8
LOGO1
 62
   228
 10
251.038105206
 20
36.5870474563
 30
0.0
  0
VERTEX
  5
5EE
  8
LOGO1
 62
   228
 10
251.0028513
 20
36.5956009094
 30
0.0
  0
VERTEX
  5
5EF
  8
LOGO1
 62
   228
 10
250.9670050914
 20
36.6035223303
 30
0.0
  0
VERTEX
  5
5F0
  8
LOGO1
 62
   228
 10
250.9305666798
 20
36.6108114698
 30
0.0
  0
VERTEX
  5
5F1
  8
LOGO1
 62
   228
 10
250.893536165
 20
36.6174680788
 30
0.0
  0
VERTEX
  5
5F2
  8
LOGO1
 62
   228
 10
250.8559136465
 20
36.6234919079
 30
0.0
  0
VERTEX
  5
5F3
  8
LOGO1
 62
   228
 10
250.8176992242
 20
36.628882708
 30
0.0
  0
VERTEX
  5
5F4
  8
LOGO1
 62
   228
 10
250.7788929977
 20
36.6336402297
 30
0.0
  0
VERTEX
  5
5F5
  8
LOGO1
 62
   228
 10
250.7394950667
 20
36.6377642238
 30
0.0
  0
VERTEX
  5
5F6
  8
LOGO1
 62
   228
 10
250.699505531
 20
36.6412544411
 30
0.0
  0
VERTEX
  5
5F7
  8
LOGO1
 62
   228
 10
250.6589244901
 20
36.6441106324
 30
0.0
  0
VERTEX
  5
5F8
  8
LOGO1
 62
   228
 10
250.6177520439
 20
36.6463325484
 30
0.0
  0
VERTEX
  5
5F9
  8
LOGO1
 62
   228
 10
250.575988292
 20
36.6479199398
 30
0.0
  0
VERTEX
  5
5FA
  8
LOGO1
 62
   228
 10
250.533633334
 20
36.6488725574
 30
0.0
  0
VERTEX
  5
5FB
  8
LOGO1
 62
   228
 10
250.4906872698
 20
36.649190152
 30
0.0
  0
SEQEND
  5
B87
  8
LOGO1
 62
   228
  0
POLYLINE
  5
EB
  8
LOGO1
 62
   228
 66
     1
 10
0.0
 20
0.0
 30
0.0
  0
VERTEX
  5
5FC
  8
LOGO1
 62
   228
 10
250.4906872698
 20
36.649190152
 30
0.0
  0
VERTEX
  5
5FD
  8
LOGO1
 62
   228
 10
250.4483769431
 20
36.6488725574
 30
0.0
  0
VERTEX
  5
5FE
  8
LOGO1
 62
   228
 10
250.4066365869
 20
36.6479199398
 30
0.0
  0
VERTEX
  5
5FF
  8
LOGO1
 62
   228
 10
250.3654655032
 20
36.6463325484
 30
0.0
  0
VERTEX
  5
600
  8
LOGO1
 62
   228
 10
250.3248629941
 20
36.6441106324
 30
0.0
  0
VERTEX
  5
601
  8
LOGO1
 62
   228
 10
250.2848283619
 20
36.6412544411
 30
0.0
  0
VERTEX
  5
602
  8
LOGO1
 62
   228
 10
250.2453609085
 20
36.6377642238
 30
0.0
  0
VERTEX
  5
603
  8
LOGO1
 62
   228
 10
250.2064599362
 20
36.6336402297
 30
0.0
  0
VERTEX
  5
604
  8
LOGO1
 62
   228
 10
250.168124747
 20
36.628882708
 30
0.0
  0
VERTEX
  5
605
  8
LOGO1
 62
   228
 10
250.1303546431
 20
36.6234919079
 30
0.0
  0
VERTEX
  5
606
  8
LOGO1
 62
   228
 10
250.0931489266
 20
36.6174680788
 30
0.0
  0
VERTEX
  5
607
  8
LOGO1
 62
   228
 10
250.0565068995
 20
36.6108114698
 30
0.0
  0
VERTEX
  5
608
  8
LOGO1
 62
   228
 10
250.0204278641
 20
36.6035223303
 30
0.0
  0
VERTEX
  5
609
  8
LOGO1
 62
   228
 10
249.9849111224
 20
36.5956009094
 30
0.0
  0
VERTEX
  5
60A
  8
LOGO1
 62
   228
 10
249.9499559765
 20
36.5870474563
 30
0.0
  0
VERTEX
  5
60B
  8
LOGO1
 62
   228
 10
249.9155617286
 20
36.5778622204
 30
0.0
  0
VERTEX
  5
60C
  8
LOGO1
 62
   228
 10
249.8817276808
 20
36.5680454509
 30
0.0
  0
VERTEX
  5
60D
  8
LOGO1
 62
   228
 10
249.8484531352
 20
36.557597397
 30
0.0
  0
VERTEX
  5
60E
  8
LOGO1
 62
   228
 10
249.8157373939
 20
36.546518308
 30
0.0
  0
VERTEX
  5
60F
  8
LOGO1
 62
   228
 10
249.783579759
 20
36.5348084331
 30
0.0
  0
VERTEX
  5
610
  8
LOGO1
 62
   228
 10
249.7519795327
 20
36.5224680215
 30
0.0
  0
VERTEX
  5
611
  8
LOGO1
 62
   228
 10
249.7209360171
 20
36.5094973226
 30
0.0
  0
VERTEX
  5
612
  8
LOGO1
 62
   228
 10
249.6904485142
 20
36.4958965855
 30
0.0
  0
VERTEX
  5
613
  8
LOGO1
 62
   228
 10
249.6605163263
 20
36.4816660594
 30
0.0
  0
VERTEX
  5
614
  8
LOGO1
 62
   228
 10
249.6311387553
 20
36.4668059937
 30
0.0
  0
SEQEND
  5
B86
  8
LOGO1
 62
   228
  0
POLYLINE
  5
EC
  8
LOGO1
 62
   228
 66
     1
 10
0.0
 20
0.0
 30
0.0
  0
VERTEX
  5
615
  8
LOGO1
 62
   228
 10
249.6311387553
 20
36.4668059937
 30
0.0
  0
VERTEX
  5
616
  8
LOGO1
 62
   228
 10
249.6022923725
 20
36.4513162138
 30
0.0
  0
VERTEX
  5
617
  8
LOGO1
 62
   228
 10
249.5739250361
 20
36.4354269462
 30
0.0
  0
VERTEX
  5
618
  8
LOGO1
 62
   228
 10
249.5460360481
 20
36.4191394869
 30
0.0
  0
VERTEX
  5
619
  8
LOGO1
 62
   228
 10
249.5186247106
 20
36.402455132
 30
0.0
  0
VERTEX
  5
61A
  8
LOGO1
 62
   228
 10
249.4916903259
 20
36.3853751775
 30
0.0
  0
VERTEX
  5
61B
  8
LOGO1
 62
   228
 10
249.465232196
 20
36.3679009195
 30
0.0
  0
VERTEX
  5
61C
  8
LOGO1
 62
   228
 10
249.439249623
 20
36.3500336541
 30
0.0
  0
VERTEX
  5
61D
  8
LOGO1
 62
   228
 10
249.4137419091
 20
36.3317746773
 30
0.0
  0
VERTEX
  5
61E
  8
LOGO1
 62
   228
 10
249.3887083563
 20
36.3131252852
 30
0.0
  0
VERTEX
  5
61F
  8
LOGO1
 62
   228
 10
249.3641482668
 20
36.2940867739
 30
0.0
  0
VERTEX
  5
620
  8
LOGO1
 62
   228
 10
249.3400609427
 20
36.2746604395
 30
0.0
  0
VERTEX
  5
621
  8
LOGO1
 62
   228
 10
249.3164456862
 20
36.2548475779
 30
0.0
  0
VERTEX
  5
622
  8
LOGO1
 62
   228
 10
249.2933017992
 20
36.2346494854
 30
0.0
  0
VERTEX
  5
623
  8
LOGO1
 62
   228
 10
249.2706285841
 20
36.2140674579
 30
0.0
  0
VERTEX
  5
624
  8
LOGO1
 62
   228
 10
249.2484253427
 20
36.1931027915
 30
0.0
  0
VERTEX
  5
625
  8
LOGO1
 62
   228
 10
249.2266913774
 20
36.1717567822
 30
0.0
  0
VERTEX
  5
626
  8
LOGO1
 62
   228
 10
249.2054259902
 20
36.1500307263
 30
0.0
  0
VERTEX
  5
627
  8
LOGO1
 62
   228
 10
249.1846284832
 20
36.1279259196
 30
0.0
  0
VERTEX
  5
628
  8
LOGO1
 62
   228
 10
249.1642981586
 20
36.1054436583
 30
0.0
  0
VERTEX
  5
629
  8
LOGO1
 62
   228
 10
249.1444343184
 20
36.0825852384
 30
0.0
  0
VERTEX
  5
62A
  8
LOGO1
 62
   228
 10
249.1250362648
 20
36.0593519561
 30
0.0
  0
VERTEX
  5
62B
  8
LOGO1
 62
   228
 10
249.1061032999
 20
36.0357451074
 30
0.0
  0
VERTEX
  5
62C
  8
LOGO1
 62
   228
 10
249.0876347258
 20
36.0117659883
 30
0.0
  0
VERTEX
  5
62D
  8
LOGO1
 62
   228
 10
249.0696298447
 20
35.9874158949
 30
0.0
  0
SEQEND
  5
B85
  8
LOGO1
 62
   228
  0
POLYLINE
  5
ED
  8
LOGO1
 62
   228
 66
     1
 10
0.0
 20
0.0
 30
0.0
  0
VERTEX
  5
62E
  8
LOGO1
 62
   228
 10
249.0696298447
 20
35.9874158949
 30
0.0
  0
VERTEX
  5
62F
  8
LOGO1
 62
   228
 10
249.0518142226
 20
35.9625600778
 30
0.0
  0
VERTEX
  5
630
  8
LOGO1
 62
   228
 10
249.0340866333
 20
35.9371776088
 30
0.0
  0
VERTEX
  5
631
  8
LOGO1
 62
   228
 10
249.0164477748
 20
35.9112682387
 30
0.0
  0
VERTEX
  5
632
  8
LOGO1
 62
   228
 10
248.9988983449
 20
35.8848317182
 30
0.0
  0
VERTEX
  5
633
  8
LOGO1
 62
   228
 10
248.9814390415
 20
35.8578677981
 30
0.0
  0
VERTEX
  5
634
  8
LOGO1
 62
   228
 10
248.9640705625
 20
35.8303762291
 30
0.0
  0
VERTEX
  5
635
  8
LOGO1
 62
   228
 10
248.9467936058
 20
35.802356762
 30
0.0
  0
VERTEX
  5
636
  8
LOGO1
 62
   228
 10
248.9296088693
 20
35.7738091476
 30
0.0
  0
VERTEX
  5
637
  8
LOGO1
 62
   228
 10
248.9125170508
 20
35.7447331366
 30
0.0
  0
VERTEX
  5
638
  8
LOGO1
 62
   228
 10
248.8955188482
 20
35.7151284798
 30
0.0
  0
VERTEX
  5
639
  8
LOGO1
 62
   228
 10
248.8786149595
 20
35.6849949279
 30
0.0
  0
VERTEX
  5
63A
  8
LOGO1
 62
   228
 10
248.8618060824
 20
35.6543322317
 30
0.0
  0
VERTEX
  5
63B
  8
LOGO1
 62
   228
 10
248.8450929149
 20
35.6231401419
 30
0.0
  0
VERTEX
  5
63C
  8
LOGO1
 62
   228
 10
248.8284761548
 20
35.5914184093
 30
0.0
  0
VERTEX
  5
63D
  8
LOGO1
 62
   228
 10
248.8119565001
 20
35.5591667846
 30
0.0
  0
VERTEX
  5
63E
  8
LOGO1
 62
   228
 10
248.7955346486
 20
35.5263850187
 30
0.0
  0
VERTEX
  5
63F
  8
LOGO1
 62
   228
 10
248.7792112982
 20
35.4930728622
 30
0.0
  0
VERTEX
  5
640
  8
LOGO1
 62
   228
 10
248.7629871468
 20
35.4592300659
 30
0.0
  0
VERTEX
  5
641
  8
LOGO1
 62
   228
 10
248.7468628922
 20
35.4248563806
 30
0.0
  0
VERTEX
  5
642
  8
LOGO1
 62
   228
 10
248.7308392324
 20
35.389951557
 30
0.0
  0
VERTEX
  5
643
  8
LOGO1
 62
   228
 10
248.7149168653
 20
35.354515346
 30
0.0
  0
VERTEX
  5
644
  8
LOGO1
 62
   228
 10
248.6990964886
 20
35.3185474981
 30
0.0
  0
VERTEX
  5
645
  8
LOGO1
 62
   228
 10
248.6833788003
 20
35.2820477643
 30
0.0
  0
VERTEX
  5
646
  8
LOGO1
 62
   228
 10
248.6677644983
 20
35.2450158952
 30
0.0
  0
SEQEND
  5
B84
  8
LOGO1
 62
   228
  0
POLYLINE
  5
EE
  8
LOGO1
 62
   150
 66
     1
 10
0.0
 20
0.0
 30
0.0
  0
VERTEX
  5
647
  8
LOGO1
 62
   150
 10
236.4245961882
 20
29.9890746171
 30
0.0
  0
VERTEX
  5
648
  8
LOGO1
 62
   150
 10
236.4651392028
 20
29.9387541055
 30
0.0
  0
VERTEX
  5
649
  8
LOGO1
 62
   150
 10
236.5042181102
 20
29.8875984781
 30
0.0
  0
VERTEX
  5
64A
  8
LOGO1
 62
   150
 10
236.5418319632
 20
29.8356076849
 30
0.0
  0
VERTEX
  5
64B
  8
LOGO1
 62
   150
 10
236.5779798149
 20
29.7827816762
 30
0.0
  0
VERTEX
  5
64C
  8
LOGO1
 62
   150
 10
236.6126607179
 20
29.7291204021
 30
0.0
  0
VERTEX
  5
64D
  8
LOGO1
 62
   150
 10
236.6458737253
 20
29.6746238128
 30
0.0
  0
VERTEX
  5
64E
  8
LOGO1
 62
   150
 10
236.6776178898
 20
29.6192918583
 30
0.0
  0
VERTEX
  5
64F
  8
LOGO1
 62
   150
 10
236.7078922644
 20
29.5631244889
 30
0.0
  0
VERTEX
  5
650
  8
LOGO1
 62
   150
 10
236.7366959019
 20
29.5061216547
 30
0.0
  0
VERTEX
  5
651
  8
LOGO1
 62
   150
 10
236.7640278552
 20
29.4482833059
 30
0.0
  0
VERTEX
  5
652
  8
LOGO1
 62
   150
 10
236.7898871772
 20
29.3896093926
 30
0.0
  0
VERTEX
  5
653
  8
LOGO1
 62
   150
 10
236.8142729207
 20
29.3300998649
 30
0.0
  0
VERTEX
  5
654
  8
LOGO1
 62
   150
 10
236.8371841387
 20
29.269754673
 30
0.0
  0
VERTEX
  5
655
  8
LOGO1
 62
   150
 10
236.8586198839
 20
29.2085737671
 30
0.0
  0
VERTEX
  5
656
  8
LOGO1
 62
   150
 10
236.8785792094
 20
29.1465570973
 30
0.0
  0
VERTEX
  5
657
  8
LOGO1
 62
   150
 10
236.8970611679
 20
29.0837046138
 30
0.0
  0
VERTEX
  5
658
  8
LOGO1
 62
   150
 10
236.9140648122
 20
29.0200162667
 30
0.0
  0
VERTEX
  5
659
  8
LOGO1
 62
   150
 10
236.9295891954
 20
28.9554920061
 30
0.0
  0
VERTEX
  5
65A
  8
LOGO1
 62
   150
 10
236.9436333703
 20
28.8901317823
 30
0.0
  0
VERTEX
  5
65B
  8
LOGO1
 62
   150
 10
236.9561963897
 20
28.8239355453
 30
0.0
  0
VERTEX
  5
65C
  8
LOGO1
 62
   150
 10
236.9672773065
 20
28.7569032454
 30
0.0
  0
VERTEX
  5
65D
  8
LOGO1
 62
   150
 10
236.9768751736
 20
28.6890348326
 30
0.0
  0
VERTEX
  5
65E
  8
LOGO1
 62
   150
 10
236.9849890439
 20
28.6203302572
 30
0.0
  0
VERTEX
  5
65F
  8
LOGO1
 62
   150
 10
236.9916179702
 20
28.5507894692
 30
0.0
  0
SEQEND
  5
B83
  8
LOGO1
 62
   150
  0
POLYLINE
  5
EF
  8
LOGO1
 62
   228
 66
     1
 10
0.0
 20
0.0
 30
0.0
  0
VERTEX
  5
660
  8
LOGO1
 62
   228
 10
235.0450001492
 20
25.3667617478
 30
0.0
  0
VERTEX
  5
661
  8
LOGO1
 62
   228
 10
235.1192530135
 20
25.3983908697
 30
0.0
  0
VERTEX
  5
662
  8
LOGO1
 62
   228
 10
235.1922172879
 20
25.4314311097
 30
0.0
  0
VERTEX
  5
663
  8
LOGO1
 62
   228
 10
235.2638940693
 20
25.4658830658
 30
0.0
  0
VERTEX
  5
664
  8
LOGO1
 62
   228
 10
235.3342844542
 20
25.5017473363
 30
0.0
  0
VERTEX
  5
665
  8
LOGO1
 62
   228
 10
235.4033895393
 20
25.5390245193
 30
0.0
  0
VERTEX
  5
666
  8
LOGO1
 62
   228
 10
235.4712104213
 20
25.577715213
 30
0.0
  0
VERTEX
  5
667
  8
LOGO1
 62
   228
 10
235.5377481969
 20
25.6178200157
 30
0.0
  0
VERTEX
  5
668
  8
LOGO1
 62
   228
 10
235.6030039627
 20
25.6593395254
 30
0.0
  0
VERTEX
  5
669
  8
LOGO1
 62
   228
 10
235.6669788154
 20
25.7022743404
 30
0.0
  0
VERTEX
  5
66A
  8
LOGO1
 62
   228
 10
235.7296738517
 20
25.7466250589
 30
0.0
  0
VERTEX
  5
66B
  8
LOGO1
 62
   228
 10
235.7910901683
 20
25.7923922791
 30
0.0
  0
VERTEX
  5
66C
  8
LOGO1
 62
   228
 10
235.8512288617
 20
25.839576599
 30
0.0
  0
VERTEX
  5
66D
  8
LOGO1
 62
   228
 10
235.9100910288
 20
25.888178617
 30
0.0
  0
VERTEX
  5
66E
  8
LOGO1
 62
   228
 10
235.9676777662
 20
25.9381989312
 30
0.0
  0
VERTEX
  5
66F
  8
LOGO1
 62
   228
 10
236.0239901704
 20
25.9896381398
 30
0.0
  0
VERTEX
  5
670
  8
LOGO1
 62
   228
 10
236.0790293383
 20
26.042496841
 30
0.0
  0
VERTEX
  5
671
  8
LOGO1
 62
   228
 10
236.1327963665
 20
26.0967756329
 30
0.0
  0
VERTEX
  5
672
  8
LOGO1
 62
   228
 10
236.1852923517
 20
26.1524751138
 30
0.0
  0
VERTEX
  5
673
  8
LOGO1
 62
   228
 10
236.2365183905
 20
26.2095958817
 30
0.0
  0
VERTEX
  5
674
  8
LOGO1
 62
   228
 10
236.2864755796
 20
26.268138535
 30
0.0
  0
VERTEX
  5
675
  8
LOGO1
 62
   228
 10
236.3351650156
 20
26.3281036718
 30
0.0
  0
VERTEX
  5
676
  8
LOGO1
 62
   228
 10
236.3825877953
 20
26.3894918903
 30
0.0
  0
VERTEX
  5
677
  8
LOGO1
 62
   228
 10
236.4287450153
 20
26.4523037887
 30
0.0
  0
VERTEX
  5
678
  8
LOGO1
 62
   228
 10
236.4736377724
 20
26.5165399651
 30
0.0
  0
SEQEND
  5
B82
  8
LOGO1
 62
   228
  0
POLYLINE
  5
F0
  8
LOGO1
 62
   228
 66
     1
 10
0.0
 20
0.0
 30
0.0
  0
VERTEX
  5
679
  8
LOGO1
 62
   228
 10
236.4736377724
 20
26.5165399651
 30
0.0
  0
VERTEX
  5
67A
  8
LOGO1
 62
   228
 10
236.5168362789
 20
26.5817528693
 30
0.0
  0
VERTEX
  5
67B
  8
LOGO1
 62
   228
 10
236.5581971118
 20
26.6476380834
 30
0.0
  0
VERTEX
  5
67C
  8
LOGO1
 62
   228
 10
236.5977202213
 20
26.7141955575
 30
0.0
  0
VERTEX
  5
67D
  8
LOGO1
 62
   228
 10
236.6354055574
 20
26.7814252418
 30
0.0
  0
VERTEX
  5
67E
  8
LOGO1
 62
   228
 10
236.6712530704
 20
26.8493270865
 30
0.0
  0
VERTEX
  5
67F
  8
LOGO1
 62
   228
 10
236.7052627104
 20
26.9179010417
 30
0.0
  0
VERTEX
  5
680
  8
LOGO1
 62
   228
 10
236.7374344275
 20
26.9871470574
 30
0.0
  0
VERTEX
  5
681
  8
LOGO1
 62
   228
 10
236.7677681719
 20
27.057065084
 30
0.0
  0
VERTEX
  5
682
  8
LOGO1
 62
   228
 10
236.7962638938
 20
27.1276550716
 30
0.0
  0
VERTEX
  5
683
  8
LOGO1
 62
   228
 10
236.8229215433
 20
27.1989169702
 30
0.0
  0
VERTEX
  5
684
  8
LOGO1
 62
   228
 10
236.8477410705
 20
27.2708507301
 30
0.0
  0
VERTEX
  5
685
  8
LOGO1
 62
   228
 10
236.8707224257
 20
27.3434563014
 30
0.0
  0
VERTEX
  5
686
  8
LOGO1
 62
   228
 10
236.8918655588
 20
27.4167336342
 30
0.0
  0
VERTEX
  5
687
  8
LOGO1
 62
   228
 10
236.9111704202
 20
27.4906826787
 30
0.0
  0
VERTEX
  5
688
  8
LOGO1
 62
   228
 10
236.92863696
 20
27.5653033851
 30
0.0
  0
VERTEX
  5
689
  8
LOGO1
 62
   228
 10
236.9442651282
 20
27.6405957035
 30
0.0
  0
VERTEX
  5
68A
  8
LOGO1
 62
   228
 10
236.9580548751
 20
27.7165595841
 30
0.0
  0
VERTEX
  5
68B
  8
LOGO1
 62
   228
 10
236.9700061509
 20
27.7931949769
 30
0.0
  0
VERTEX
  5
68C
  8
LOGO1
 62
   228
 10
236.9801189055
 20
27.8705018322
 30
0.0
  0
VERTEX
  5
68D
  8
LOGO1
 62
   228
 10
236.9883930893
 20
27.9484801002
 30
0.0
  0
VERTEX
  5
68E
  8
LOGO1
 62
   228
 10
236.9948286524
 20
28.0271297308
 30
0.0
  0
VERTEX
  5
68F
  8
LOGO1
 62
   228
 10
236.9994255449
 20
28.1064506744
 30
0.0
  0
VERTEX
  5
690
  8
LOGO1
 62
   228
 10
237.0021837169
 20
28.1864428811
 30
0.0
  0
VERTEX
  5
691
  8
LOGO1
 62
   228
 10
237.0031031187
 20
28.267106301
 30
0.0
  0
SEQEND
  5
B81
  8
LOGO1
 62
   228
  0
POLYLINE
  5
F1
  8
LOGO1
 62
   228
 66
     1
 10
0.0
 20
0.0
 30
0.0
  0
VERTEX
  5
692
  8
LOGO1
 62
   228
 10
232.9834159917
 20
24.9884409558
 30
0.0
  0
VERTEX
  5
693
  8
LOGO1
 62
   228
 10
233.0177738417
 20
24.9903306383
 30
0.0
  0
VERTEX
  5
694
  8
LOGO1
 62
   228
 10
233.0519361351
 20
24.9922957917
 30
0.0
  0
VERTEX
  5
695
  8
LOGO1
 62
   228
 10
233.0859023236
 20
24.9943365159
 30
0.0
  0
VERTEX
  5
696
  8
LOGO1
 62
   228
 10
233.1196718588
 20
24.9964529104
 30
0.0
  0
VERTEX
  5
697
  8
LOGO1
 62
   228
 10
233.1532441925
 20
24.9986450749
 30
0.0
  0
VERTEX
  5
698
  8
LOGO1
 62
   228
 10
233.1866187762
 20
25.0009131093
 30
0.0
  0
VERTEX
  5
699
  8
LOGO1
 62
   228
 10
233.2197950617
 20
25.0032571131
 30
0.0
  0
VERTEX
  5
69A
  8
LOGO1
 62
   228
 10
233.2527725005
 20
25.0056771861
 30
0.0
  0
VERTEX
  5
69B
  8
LOGO1
 62
   228
 10
233.2855505444
 20
25.008173428
 30
0.0
  0
VERTEX
  5
69C
  8
LOGO1
 62
   228
 10
233.3181286451
 20
25.0107459384
 30
0.0
  0
VERTEX
  5
69D
  8
LOGO1
 62
   228
 10
233.3505062541
 20
25.0133948171
 30
0.0
  0
VERTEX
  5
69E
  8
LOGO1
 62
   228
 10
233.3826828232
 20
25.0161201637
 30
0.0
  0
VERTEX
  5
69F
  8
LOGO1
 62
   228
 10
233.414657804
 20
25.018922078
 30
0.0
  0
VERTEX
  5
6A0
  8
LOGO1
 62
   228
 10
233.4464306481
 20
25.0218006597
 30
0.0
  0
VERTEX
  5
6A1
  8
LOGO1
 62
   228
 10
233.4780008073
 20
25.0247560084
 30
0.0
  0
VERTEX
  5
6A2
  8
LOGO1
 62
   228
 10
233.5093677333
 20
25.0277882239
 30
0.0
  0
VERTEX
  5
6A3
  8
LOGO1
 62
   228
 10
233.5405308776
 20
25.0308974058
 30
0.0
  0
VERTEX
  5
6A4
  8
LOGO1
 62
   228
 10
233.5714896919
 20
25.0340836538
 30
0.0
  0
VERTEX
  5
6A5
  8
LOGO1
 62
   228
 10
233.6022436279
 20
25.0373470677
 30
0.0
  0
VERTEX
  5
6A6
  8
LOGO1
 62
   228
 10
233.6327921373
 20
25.0406877472
 30
0.0
  0
VERTEX
  5
6A7
  8
LOGO1
 62
   228
 10
233.6631346718
 20
25.0441057918
 30
0.0
  0
VERTEX
  5
6A8
  8
LOGO1
 62
   228
 10
233.6932706829
 20
25.0476013014
 30
0.0
  0
VERTEX
  5
6A9
  8
LOGO1
 62
   228
 10
233.7231996223
 20
25.0511743757
 30
0.0
  0
VERTEX
  5
6AA
  8
LOGO1
 62
   228
 10
233.7529209418
 20
25.0548251142
 30
0.0
  0
SEQEND
  5
B80
  8
LOGO1
 62
   228
  0
POLYLINE
  5
F2
  8
LOGO1
 62
   228
 66
     1
 10
0.0
 20
0.0
 30
0.0
  0
VERTEX
  5
6AB
  8
LOGO1
 62
   228
 10
233.7529209418
 20
25.0548251142
 30
0.0
  0
VERTEX
  5
6AC
  8
LOGO1
 62
   228
 10
233.8134962521
 20
25.0626692447
 30
0.0
  0
VERTEX
  5
6AD
  8
LOGO1
 62
   228
 10
233.8734801071
 20
25.0709556331
 30
0.0
  0
VERTEX
  5
6AE
  8
LOGO1
 62
   228
 10
233.9328732546
 20
25.0796850771
 30
0.0
  0
VERTEX
  5
6AF
  8
LOGO1
 62
   228
 10
233.9916764423
 20
25.0888583742
 30
0.0
  0
VERTEX
  5
6B0
  8
LOGO1
 62
   228
 10
234.0498904179
 20
25.098476322
 30
0.0
  0
VERTEX
  5
6B1
  8
LOGO1
 62
   228
 10
234.1075159293
 20
25.1085397182
 30
0.0
  0
VERTEX
  5
6B2
  8
LOGO1
 62
   228
 10
234.1645537241
 20
25.1190493602
 30
0.0
  0
VERTEX
  5
6B3
  8
LOGO1
 62
   228
 10
234.22100455
 20
25.1300060456
 30
0.0
  0
VERTEX
  5
6B4
  8
LOGO1
 62
   228
 10
234.2768691548
 20
25.1414105721
 30
0.0
  0
VERTEX
  5
6B5
  8
LOGO1
 62
   228
 10
234.3321482862
 20
25.1532637372
 30
0.0
  0
VERTEX
  5
6B6
  8
LOGO1
 62
   228
 10
234.3868426919
 20
25.1655663385
 30
0.0
  0
VERTEX
  5
6B7
  8
LOGO1
 62
   228
 10
234.4409531198
 20
25.1783191736
 30
0.0
  0
VERTEX
  5
6B8
  8
LOGO1
 62
   228
 10
234.4944803174
 20
25.19152304
 30
0.0
  0
VERTEX
  5
6B9
  8
LOGO1
 62
   228
 10
234.5474250325
 20
25.2051787354
 30
0.0
  0
VERTEX
  5
6BA
  8
LOGO1
 62
   228
 10
234.5997880129
 20
25.2192870572
 30
0.0
  0
VERTEX
  5
6BB
  8
LOGO1
 62
   228
 10
234.6515700064
 20
25.2338488032
 30
0.0
  0
VERTEX
  5
6BC
  8
LOGO1
 62
   228
 10
234.7027717605
 20
25.2488647708
 30
0.0
  0
VERTEX
  5
6BD
  8
LOGO1
 62
   228
 10
234.7533940231
 20
25.2643357577
 30
0.0
  0
VERTEX
  5
6BE
  8
LOGO1
 62
   228
 10
234.8034375419
 20
25.2802625614
 30
0.0
  0
VERTEX
  5
6BF
  8
LOGO1
 62
   228
 10
234.8529030646
 20
25.2966459795
 30
0.0
  0
VERTEX
  5
6C0
  8
LOGO1
 62
   228
 10
234.9017913389
 20
25.3134868097
 30
0.0
  0
VERTEX
  5
6C1
  8
LOGO1
 62
   228
 10
234.9501031127
 20
25.3307858493
 30
0.0
  0
VERTEX
  5
6C2
  8
LOGO1
 62
   228
 10
234.9978391335
 20
25.3485438962
 30
0.0
  0
VERTEX
  5
6C3
  8
LOGO1
 62
   228
 10
235.0450001492
 20
25.3667617478
 30
0.0
  0
SEQEND
  5
B7F
  8
LOGO1
 62
   228
  0
POLYLINE
  5
F3
  8
LOGO2
 66
     1
 10
0.0
 20
0.0
 30
0.0
  0
VERTEX
  5
6C4
  8
LOGO2
 10
232.9839836403
 20
24.9884714786
 30
0.0
  0
VERTEX
  5
6C5
  8
LOGO2
 10
232.9455052693
 20
24.822059535
 30
0.0
  0
VERTEX
  5
6C6
  8
LOGO2
 10
232.9136067012
 20
24.6578821365
 30
0.0
  0
VERTEX
  5
6C7
  8
LOGO2
 10
232.8883098964
 20
24.4960523103
 30
0.0
  0
VERTEX
  5
6C8
  8
LOGO2
 10
232.8696322705
 20
24.3366814674
 30
0.0
  0
VERTEX
  5
6C9
  8
LOGO2
 10
232.857586682
 20
24.1798793259
 30
0.0
  0
VERTEX
  5
6CA
  8
LOGO2
 10
232.8521814236
 20
24.0257538356
 30
0.0
  0
VERTEX
  5
6CB
  8
LOGO2
 10
232.8534202165
 20
23.8744111035
 30
0.0
  0
VERTEX
  5
6CC
  8
LOGO2
 10
232.8613022079
 20
23.7259553207
 30
0.0
  0
VERTEX
  5
6CD
  8
LOGO2
 10
232.8758219714
 20
23.5804886911
 30
0.0
  0
VERTEX
  5
6CE
  8
LOGO2
 10
232.896969511
 20
23.4381113603
 30
0.0
  0
VERTEX
  5
6CF
  8
LOGO2
 10
232.9247302679
 20
23.2989213475
 30
0.0
  0
VERTEX
  5
6D0
  8
LOGO2
 10
232.9590851301
 20
23.1630144773
 30
0.0
  0
VERTEX
  5
6D1
  8
LOGO2
 10
233.0000104463
 20
23.0304843143
 30
0.0
  0
VERTEX
  5
6D2
  8
LOGO2
 10
233.0474780415
 20
22.9014220983
 30
0.0
  0
VERTEX
  5
6D3
  8
LOGO2
 10
233.1014552371
 20
22.7759166814
 30
0.0
  0
VERTEX
  5
6D4
  8
LOGO2
 10
233.1619048725
 20
22.6540544675
 30
0.0
  0
VERTEX
  5
6D5
  8
LOGO2
 10
233.2287853316
 20
22.5359193518
 30
0.0
  0
VERTEX
  5
6D6
  8
LOGO2
 10
233.3020505707
 20
22.4215926641
 30
0.0
  0
VERTEX
  5
6D7
  8
LOGO2
 10
233.3816501508
 20
22.311153112
 30
0.0
  0
VERTEX
  5
6D8
  8
LOGO2
 10
233.4675292719
 20
22.2046767272
 30
0.0
  0
VERTEX
  5
6D9
  8
LOGO2
 10
233.5596288109
 20
22.1022368127
 30
0.0
  0
VERTEX
  5
6DA
  8
LOGO2
 10
233.6578853623
 20
22.003903893
 30
0.0
  0
VERTEX
  5
6DB
  8
LOGO2
 10
233.7622312818
 20
21.9097456648
 30
0.0
  0
VERTEX
  5
6DC
  8
LOGO2
 10
233.8725947329
 20
21.819826951
 30
0.0
  0
VERTEX
  5
6DD
  8
LOGO2
 10
233.9888997365
 20
21.7342096556
 30
0.0
  0
VERTEX
  5
6DE
  8
LOGO2
 10
234.1110662228
 20
21.6529527216
 30
0.0
  0
VERTEX
  5
6DF
  8
LOGO2
 10
234.2390100869
 20
21.5761120899
 30
0.0
  0
VERTEX
  5
6E0
  8
LOGO2
 10
234.3726432465
 20
21.503740661
 30
0.0
  0
VERTEX
  5
6E1
  8
LOGO2
 10
234.5118737024
 20
21.4358882588
 30
0.0
  0
VERTEX
  5
6E2
  8
LOGO2
 10
234.656605602
 20
21.3726015959
 30
0.0
  0
VERTEX
  5
6E3
  8
LOGO2
 10
234.8067393053
 20
21.3139242418
 30
0.0
  0
VERTEX
  5
6E4
  8
LOGO2
 10
234.9621714534
 20
21.2598965926
 30
0.0
  0
VERTEX
  5
6E5
  8
LOGO2
 10
235.1227950399
 20
21.2105558434
 30
0.0
  0
VERTEX
  5
6E6
  8
LOGO2
 10
235.288499484
 20
21.1659359626
 30
0.0
  0
VERTEX
  5
6E7
  8
LOGO2
 10
235.4591707074
 20
21.1260676685
 30
0.0
  0
VERTEX
  5
6E8
  8
LOGO2
 10
235.6346912122
 20
21.0909784084
 30
0.0
  0
VERTEX
  5
6E9
  8
LOGO2
 10
235.8149401621
 20
21.0606923392
 30
0.0
  0
VERTEX
  5
6EA
  8
LOGO2
 10
235.9997934655
 20
21.0352303113
 30
0.0
  0
VERTEX
  5
6EB
  8
LOGO2
 10
236.1891238611
 20
21.0146098539
 30
0.0
  0
VERTEX
  5
6EC
  8
LOGO2
 10
236.3828010052
 20
20.998845163
 30
0.0
  0
VERTEX
  5
6ED
  8
LOGO2
 10
236.5806915616
 20
20.9879470917
 30
0.0
  0
VERTEX
  5
6EE
  8
LOGO2
 10
236.7826592934
 20
20.9819231429
 30
0.0
  0
VERTEX
  5
6EF
  8
LOGO2
 10
236.988565157
 20
20.9807774636
 30
0.0
  0
VERTEX
  5
6F0
  8
LOGO2
 10
237.1982673973
 20
20.9845108426
 30
0.0
  0
VERTEX
  5
6F1
  8
LOGO2
 10
237.4116216459
 20
20.9931207096
 30
0.0
  0
VERTEX
  5
6F2
  8
LOGO2
 10
237.6284810198
 20
21.0066011373
 30
0.0
  0
VERTEX
  5
6F3
  8
LOGO2
 10
237.8486962234
 20
21.0249428451
 30
0.0
  0
VERTEX
  5
6F4
  8
LOGO2
 10
238.0721156504
 20
21.0481332058
 30
0.0
  0
VERTEX
  5
6F5
  8
LOGO2
 10
238.2985854888
 20
21.0761562539
 30
0.0
  0
VERTEX
  5
6F6
  8
LOGO2
 10
238.5279498263
 20
21.1089926973
 30
0.0
  0
VERTEX
  5
6F7
  8
LOGO2
 10
238.7600507583
 20
21.1466199297
 30
0.0
  0
VERTEX
  5
6F8
  8
LOGO2
 10
238.9947284958
 20
21.189012047
 30
0.0
  0
VERTEX
  5
6F9
  8
LOGO2
 10
239.231821476
 20
21.2361398644
 30
0.0
  0
VERTEX
  5
6FA
  8
LOGO2
 10
239.4711664734
 20
21.287970937
 30
0.0
  0
VERTEX
  5
6FB
  8
LOGO2
 10
239.7125987119
 20
21.344469582
 30
0.0
  0
VERTEX
  5
6FC
  8
LOGO2
 10
239.9559519787
 20
21.405596903
 30
0.0
  0
VERTEX
  5
6FD
  8
LOGO2
 10
240.2010587382
 20
21.4713108173
 30
0.0
  0
VERTEX
  5
6FE
  8
LOGO2
 10
240.447750248
 20
21.5415660845
 30
0.0
  0
VERTEX
  5
6FF
  8
LOGO2
 10
240.6958566742
 20
21.6163143376
 30
0.0
  0
VERTEX
  5
700
  8
LOGO2
 10
240.9452072092
 20
21.6955041165
 30
0.0
  0
VERTEX
  5
701
  8
LOGO2
 10
241.1956301888
 20
21.7790809034
 30
0.0
  0
VERTEX
  5
702
  8
LOGO2
 10
241.4469532103
 20
21.8669871602
 30
0.0
  0
VERTEX
  5
703
  8
LOGO2
 10
241.6990032516
 20
21.9591623682
 30
0.0
  0
VERTEX
  5
704
  8
LOGO2
 10
241.9516067899
 20
22.05554307
 30
0.0
  0
VERTEX
  5
705
  8
LOGO2
 10
242.2045899216
 20
22.1560629125
 30
0.0
  0
VERTEX
  5
706
  8
LOGO2
 10
242.4577784815
 20
22.2606526933
 30
0.0
  0
VERTEX
  5
707
  8
LOGO2
 10
242.7109981631
 20
22.3692404082
 30
0.0
  0
VERTEX
  5
708
  8
LOGO2
 10
242.9640746385
 20
22.4817513004
 30
0.0
  0
VERTEX
  5
709
  8
LOGO2
 10
243.2168336783
 20
22.5981079122
 30
0.0
  0
VERTEX
  5
70A
  8
LOGO2
 10
243.4691012718
 20
22.7182301386
 30
0.0
  0
VERTEX
  5
70B
  8
LOGO2
 10
243.7207037464
 20
22.8420352818
 30
0.0
  0
VERTEX
  5
70C
  8
LOGO2
 10
243.9714678875
 20
22.9694381089
 30
0.0
  0
VERTEX
  5
70D
  8
LOGO2
 10
244.2212210578
 20
23.1003509099
 30
0.0
  0
VERTEX
  5
70E
  8
LOGO2
 10
244.4697913157
 20
23.2346835584
 30
0.0
  0
VERTEX
  5
70F
  8
LOGO2
 10
244.7170075343
 20
23.3723435739
 30
0.0
  0
VERTEX
  5
710
  8
LOGO2
 10
244.9626995186
 20
23.5132361848
 30
0.0
  0
VERTEX
  5
711
  8
LOGO2
 10
245.2066981232
 20
23.6572643944
 30
0.0
  0
VERTEX
  5
712
  8
LOGO2
 10
245.4488353682
 20
23.8043290469
 30
0.0
  0
VERTEX
  5
713
  8
LOGO2
 10
245.6889445555
 20
23.9543288966
 30
0.0
  0
VERTEX
  5
714
  8
LOGO2
 10
245.9268603829
 20
24.1071606765
 30
0.0
  0
VERTEX
  5
715
  8
LOGO2
 10
246.1624190583
 20
24.2627191704
 30
0.0
  0
VERTEX
  5
716
  8
LOGO2
 10
246.3954584125
 20
24.4208972848
 30
0.0
  0
VERTEX
  5
717
  8
LOGO2
 10
246.6258180106
 20
24.5815861226
 30
0.0
  0
VERTEX
  5
718
  8
LOGO2
 10
246.8533392625
 20
24.7446750584
 30
0.0
  0
VERTEX
  5
719
  8
LOGO2
 10
247.0778655323
 20
24.9100518143
 30
0.0
  0
VERTEX
  5
71A
  8
LOGO2
 10
247.2992422459
 20
25.0776025374
 30
0.0
  0
VERTEX
  5
71B
  8
LOGO2
 10
247.5173169975
 20
25.2472118782
 30
0.0
  0
VERTEX
  5
71C
  8
LOGO2
 10
247.7319396545
 20
25.41876307
 30
0.0
  0
VERTEX
  5
71D
  8
LOGO2
 10
247.942962461
 20
25.592138009
 30
0.0
  0
VERTEX
  5
71E
  8
LOGO2
 10
248.1502401392
 20
25.7672173361
 30
0.0
  0
VERTEX
  5
71F
  8
LOGO2
 10
248.3536299899
 20
25.9438805187
 30
0.0
  0
VERTEX
  5
720
  8
LOGO2
 10
248.55299199
 20
26.1220059339
 30
0.0
  0
VERTEX
  5
721
  8
LOGO2
 10
248.7481888899
 20
26.3014709521
 30
0.0
  0
VERTEX
  5
722
  8
LOGO2
 10
248.939086307
 20
26.4821520213
 30
0.0
  0
VERTEX
  5
723
  8
LOGO2
 10
249.125552819
 20
26.6639247525
 30
0.0
  0
VERTEX
  5
724
  8
LOGO2
 10
249.3074600537
 20
26.846664005
 30
0.0
  0
VERTEX
  5
725
  8
LOGO2
 10
249.484682778
 20
27.030243973
 30
0.0
  0
VERTEX
  5
726
  8
LOGO2
 10
249.6570989838
 20
27.2145382715
 30
0.0
  0
VERTEX
  5
727
  8
LOGO2
 10
249.8245899718
 20
27.3994200241
 30
0.0
  0
VERTEX
  5
728
  8
LOGO2
 10
249.9870404336
 20
27.5847619496
 30
0.0
  0
VERTEX
  5
729
  8
LOGO2
 10
250.1443385311
 20
27.7704364504
 30
0.0
  0
VERTEX
  5
72A
  8
LOGO2
 10
250.2963759729
 20
27.9563156996
 30
0.0
  0
VERTEX
  5
72B
  8
LOGO2
 10
250.4430480896
 20
28.1422717295
 30
0.0
  0
VERTEX
  5
72C
  8
LOGO2
 10
250.5842539055
 20
28.3281765196
 30
0.0
  0
VERTEX
  5
72D
  8
LOGO2
 10
250.7198962081
 20
28.5139020844
 30
0.0
  0
VERTEX
  5
72E
  8
LOGO2
 10
250.849881615
 20
28.6993205622
 30
0.0
  0
VERTEX
  5
72F
  8
LOGO2
 10
250.9741206384
 20
28.8843043024
 30
0.0
  0
VERTEX
  5
730
  8
LOGO2
 10
251.0925277465
 20
29.0687259538
 30
0.0
  0
VERTEX
  5
731
  8
LOGO2
 10
251.2050214224
 20
29.2524585521
 30
0.0
  0
SEQEND
  5
B7E
  8
LOGO2
  0
POLYLINE
  5
F4
  8
LOGO2
 66
     1
 10
0.0
 20
0.0
 30
0.0
  0
VERTEX
  5
732
  8
LOGO2
 10
237.6803823263
 20
31.0378392828
 30
0.0
  0
VERTEX
  5
733
  8
LOGO2
 10
237.4619483456
 20
30.8673851268
 30
0.0
  0
VERTEX
  5
734
  8
LOGO2
 10
237.2470094914
 20
30.6949899505
 30
0.0
  0
VERTEX
  5
735
  8
LOGO2
 10
237.0357147884
 20
30.5207732816
 30
0.0
  0
VERTEX
  5
736
  8
LOGO2
 10
236.8282107346
 20
30.3448559105
 30
0.0
  0
VERTEX
  5
737
  8
LOGO2
 10
236.6246411998
 20
30.167359807
 30
0.0
  0
SEQEND
  5
B7D
  8
LOGO2
  0
POLYLINE
  5
F5
  8
LOGO2
 66
     1
 10
0.0
 20
0.0
 30
0.0
  0
VERTEX
  5
738
  8
LOGO2
 10
248.621374098
 20
35.1369634736
 30
0.0
  0
VERTEX
  5
739
  8
LOGO2
 10
248.4208884012
 20
35.1479241517
 30
0.0
  0
VERTEX
  5
73A
  8
LOGO2
 10
248.2162237152
 20
35.1538851575
 30
0.0
  0
VERTEX
  5
73B
  8
LOGO2
 10
248.007524566
 20
35.1548422815
 30
0.0
  0
VERTEX
  5
73C
  8
LOGO2
 10
247.7949383287
 20
35.1507948478
 30
0.0
  0
VERTEX
  5
73D
  8
LOGO2
 10
247.5786151233
 20
35.1417457147
 30
0.0
  0
VERTEX
  5
73E
  8
LOGO2
 10
247.3587077086
 20
35.1277012721
 30
0.0
  0
VERTEX
  5
73F
  8
LOGO2
 10
247.1353713745
 20
35.1086714379
 30
0.0
  0
VERTEX
  5
740
  8
LOGO2
 10
246.9087638323
 20
35.08466965
 30
0.0
  0
VERTEX
  5
741
  8
LOGO2
 10
246.6790451032
 20
35.0557128575
 30
0.0
  0
VERTEX
  5
742
  8
LOGO2
 10
246.4463774056
 20
35.0218215087
 30
0.0
  0
VERTEX
  5
743
  8
LOGO2
 10
246.2109250401
 20
34.9830195363
 30
0.0
  0
VERTEX
  5
744
  8
LOGO2
 10
245.9728542738
 20
34.9393343406
 30
0.0
  0
VERTEX
  5
745
  8
LOGO2
 10
245.7323332228
 20
34.8907967705
 30
0.0
  0
VERTEX
  5
746
  8
LOGO2
 10
245.4895317337
 20
34.8374411011
 30
0.0
  0
VERTEX
  5
747
  8
LOGO2
 10
245.2446212632
 20
34.7793050103
 30
0.0
  0
VERTEX
  5
748
  8
LOGO2
 10
244.9977747573
 20
34.7164295513
 30
0.0
  0
VERTEX
  5
749
  8
LOGO2
 10
244.7491665293
 20
34.6488591244
 30
0.0
  0
VERTEX
  5
74A
  8
LOGO2
 10
244.4989721364
 20
34.576641445
 30
0.0
  0
VERTEX
  5
74B
  8
LOGO2
 10
244.247368256
 20
34.4998275106
 30
0.0
  0
VERTEX
  5
74C
  8
LOGO2
 10
243.9945325608
 20
34.4184715639
 30
0.0
  0
VERTEX
  5
74D
  8
LOGO2
 10
243.7406435934
 20
34.3326310554
 30
0.0
  0
VERTEX
  5
74E
  8
LOGO2
 10
243.48588064
 20
34.2423666022
 30
0.0
  0
VERTEX
  5
74F
  8
LOGO2
 10
243.2304236041
 20
34.1477419455
 30
0.0
  0
VERTEX
  5
750
  8
LOGO2
 10
242.9744528795
 20
34.0488239055
 30
0.0
  0
VERTEX
  5
751
  8
LOGO2
 10
242.7181492223
 20
33.9456823342
 30
0.0
  0
VERTEX
  5
752
  8
LOGO2
 10
242.4616936242
 20
33.8383900661
 30
0.0
  0
VERTEX
  5
753
  8
LOGO2
 10
242.205267184
 20
33.7270228666
 30
0.0
  0
VERTEX
  5
754
  8
LOGO2
 10
241.9490509797
 20
33.611659379
 30
0.0
  0
VERTEX
  5
755
  8
LOGO2
 10
241.6932259412
 20
33.4923810683
 30
0.0
  0
VERTEX
  5
756
  8
LOGO2
 10
241.4379727218
 20
33.3692721642
 30
0.0
  0
VERTEX
  5
757
  8
LOGO2
 10
241.1834715714
 20
33.2424196012
 30
0.0
  0
VERTEX
  5
758
  8
LOGO2
 10
240.9299022086
 20
33.1119129576
 30
0.0
  0
VERTEX
  5
759
  8
LOGO2
 10
240.6774436939
 20
32.9778443921
 30
0.0
  0
VERTEX
  5
75A
  8
LOGO2
 10
240.4262743036
 20
32.8403085786
 30
0.0
  0
SEQEND
  5
B7C
  8
LOGO2
  0
POLYLINE
  5
F6
  8
SLD-0
 66
     1
 10
0.0
 20
0.0
 30
0.0
  0
VERTEX
  5
75B
  8
SLD-0
 10
250.9641560826
 20
34.4376881924
 30
0.0
  0
VERTEX
  5
75C
  8
SLD-0
 10
250.8699330144
 20
34.4983580478
 30
0.0
  0
VERTEX
  5
75D
  8
SLD-0
 10
250.7723850217
 20
34.5564724943
 30
0.0
  0
SEQEND
  5
B7B
  8
SLD-0
  0
INSERT
  5
F7
  8
0
  6
CONTINUOUS
 62
     6
  2
BLOC2
 10
354.8047549869
 20
14.1813780607
 30
0.0
 41
1.75
 42
1.75
 43
1.75
  0
TEXT
  5
F8
  8
PV
 10
6.348821
 20
249.2016878629
 30
0.0
 40
3.5
  1
4
 41
0.7
 11
6.348821
 21
247.9652776462
 31
0.0
 73
     1
  0
TEXT
  5
F9
  8
PV
 10
332.875
 20
7.9330698629
 30
0.0
 40
3.5
  1
B
 41
0.7
 11
332.875
 21
6.6966596462
 31
0.0
 73
     1
  0
TEXT
  5
FA
  8
PV
 10
410.651179
 20
112.9516878629
 30
0.0
 40
3.5
  1
2
 41
0.7
 11
410.651179
 21
111.7152776462
 31
0.0
 73
     1
  0
TEXT
  5
FB
  8
PV
 10
410.651179
 20
181.0766878629
 30
0.0
 40
3.5
  1
3
 41
0.7
 11
410.651179
 21
179.8402776462
 31
0.0
 73
     1
  0
TEXT
  5
FC
  8
PV
 10
410.651179
 20
249.2016878629
 30
0.0
 40
3.5
  1
4
 41
0.7
 11
410.651179
 21
247.9652776462
 31
0.0
 73
     1
  0
TEXT
  5
FD
  8
PV
 10
283.125
 20
7.9330698629
 30
0.0
 40
3.5
  1
C
 41
0.7
 11
283.125
 21
6.6966596462
 31
0.0
 73
     1
  0
TEXT
  5
FE
  8
PV
 10
133.875
 20
7.9330698629
 30
0.0
 40
3.5
  1
F
 41
0.7
 11
133.875
 21
6.6966596462
 31
0.0
 73
     1
  0
TEXT
  5
FF
  8
PV
 10
183.625
 20
7.9330698629
 30
0.0
 40
3.5
  1
E
 41
0.7
 11
183.625
 21
6.6966596462
 31
0.0
 73
     1
  0
TEXT
  5
100
  8
PV
 10
84.125
 20
7.9330698629
 30
0.0
 40
3.5
  1
G
 41
0.7
 11
84.125
 21
6.6966596462
 31
0.0
 73
     1
  0
TEXT
  5
101
  8
PV
 10
382.625
 20
7.9330698629
 30
0.0
 40
3.5
  1
A
 41
0.7
 11
382.625
 21
6.6966596462
 31
0.0
 73
     1
  0
TEXT
  5
102
  8
PV
 10
233.375
 20
7.9330698629
 30
0.0
 40
3.5
  1
D
 41
0.7
 11
233.375
 21
6.6966596462
 31
0.0
 73
     1
  0
TEXT
  5
103
  8
PV
 10
34.375
 20
7.9330698629
 30
0.0
 40
3.5
  1
H
 41
0.7
 11
34.375
 21
6.6966596462
 31
0.0
 73
     1
  0
TEXT
  5
104
  8
PV
 10
6.348821
 20
181.0766878629
 30
0.0
 40
3.5
  1
3
 41
0.7
 11
6.348821
 21
179.8402776462
 31
0.0
 73
     1
  0
TEXT
  5
105
  8
PV
 10
6.348821
 20
44.8266878629
 30
0.0
 40
3.5
  1
1
 41
0.7
 11
6.348821
 21
43.5902776462
 31
0.0
 73
     1
  0
TEXT
  5
106
  8
PV
 10
6.348821
 20
112.9516878629
 30
0.0
 40
3.5
  1
2
 41
0.7
 11
6.348821
 21
111.7152776462
 31
0.0
 73
     1
  0
TEXT
  5
107
  8
PV
 10
34.375
 20
286.0953058629
 30
0.0
 40
3.5
  1
H
 41
0.7
 11
34.375
 21
284.8588956462
 31
0.0
 73
     1
  0
TEXT
  5
108
  8
PV
 10
233.375
 20
286.0953058629
 30
0.0
 40
3.5
  1
D
 41
0.7
 11
233.375
 21
284.8588956462
 31
0.0
 73
     1
  0
TEXT
  5
109
  8
PV
 10
382.625
 20
286.0953058629
 30
0.0
 40
3.5
  1
A
 41
0.7
 11
382.625
 21
284.8588956462
 31
0.0
 73
     1
  0
TEXT
  5
10A
  8
PV
 10
84.125
 20
286.0953058629
 30
0.0
 40
3.5
  1
G
 41
0.7
 11
84.125
 21
284.8588956462
 31
0.0
 73
     1
  0
TEXT
  5
10B
  8
PV
 10
183.625
 20
286.0953058629
 30
0.0
 40
3.5
  1
E
 41
0.7
 11
183.625
 21
284.8588956462
 31
0.0
 73
     1
  0
TEXT
  5
10C
  8
PV
 10
133.875
 20
286.0953058629
 30
0.0
 40
3.5
  1
F
 41
0.7
 11
133.875
 21
284.8588956462
 31
0.0
 73
     1
  0
TEXT
  5
10D
  8
PV
 10
283.125
 20
286.0953058629
 30
0.0
 40
3.5
  1
C
 41
0.7
 11
283.125
 21
284.8588956462
 31
0.0
 73
     1
  0
TEXT
  5
10E
  8
PV
 10
332.875
 20
286.0953058629
 30
0.0
 40
3.5
  1
B
 41
0.7
 11
332.875
 21
284.8588956462
 31
0.0
 73
     1
  0
TEXT
  5
10F
  8
PV
 10
264.5738015861
 20
13.8665820502
 30
0.0
 40
4.4
  1
41.8500 . 01 . PA . 01
 41
0.6045454545
 11
264.5738015861
 21
12.3122377777
 31
0.0
 73
     1
  0
TEXT
  5
110
  8
PV
 10
390.7745970148
 20
39.58514519
 30
0.0
 40
2.0
  1
X
 41
0.7
 11
390.7745970148
 21
38.8786250662
 31
0.0
 73
     1
  0
TEXT
  5
111
  8
PV
 10
390.7351730353
 20
43.576979696
 30
0.0
 40
2.0
  1
X
 41
0.7
 11
390.7351730353
 21
42.8704595722
 31
0.0
 73
     1
  0
TEXT
  5
112
  8
PV
 10
390.7351730353
 20
47.495335563
 30
0.0
 40
2.0
  1
X
 41
0.7
 11
390.7351730353
 21
46.7888154392
 31
0.0
 73
     1
  0
TEXT
  5
113
  8
PV
 10
390.7351730353
 20
51.5289371908
 30
0.0
 40
2.0
  1
X 
 41
0.7
 11
390.7351730353
 21
50.822417067
 31
0.0
 73
     1
  0
TEXT
  5
114
  8
PV
 10
401.9955183353
 20
39.3535251832
 30
0.0
 40
2.0
  1
X
 41
0.7
 11
401.9955183353
 21
38.6470050594
 31
0.0
 73
     1
  0
TEXT
  5
115
  8
PV
 10
401.9917360528
 20
47.3144394337
 30
0.0
 40
2.0
  1
X
 41
0.7
 11
401.9917360528
 21
46.6079193099
 31
0.0
 73
     1
  0
TEXT
  5
116
  8
PV
 10
401.972634601
 20
51.3116569129
 30
0.0
 40
2.0
  1
X
 41
0.7
 11
401.972634601
 21
50.605136789
 31
0.0
 73
     1
  0
TEXT
  5
117
  8
PV
 10
401.972634601
 20
43.359699418
 30
0.0
 40
2.0
  1
X
 41
0.7
 11
401.972634601
 21
42.6531792942
 31
0.0
 73
     1
  0
TEXT
  5
118
  8
PV
 10
250.1001532081
 20
39.4829722616
 30
0.0
 40
2.0
  1
X
 41
0.7
 11
250.1001532081
 21
38.7764521378
 31
0.0
 73
     1
  0
TEXT
  5
119
  8
PV
 10
250.1001532081
 20
43.4845611781
 30
0.0
 40
2.0
  1
X
 41
0.7
 11
250.1001532081
 21
42.7780410542
 31
0.0
 73
     1
  0
TEXT
  5
11A
  8
PV
 10
250.1001532081
 20
47.447734841
 30
0.0
 40
2.0
  1
X
 41
0.7
 11
250.1001532081
 21
46.7412147171
 31
0.0
 73
     1
  0
TEXT
  5
11B
  8
PV
 10
250.1001532081
 20
51.4237135884
 30
0.0
 40
2.0
  1
X
 41
0.7
 11
250.1001532081
 21
50.7171934645
 31
0.0
 73
     1
  0
TEXT
  5
11C
  8
PV
 10
239.7384121833
 20
39.4829722616
 30
0.0
 40
2.0
  1
X
 41
0.7
 11
239.7384121833
 21
38.7764521378
 31
0.0
 73
     1
  0
TEXT
  5
11D
  8
PV
 10
239.7384121833
 20
43.465738446
 30
0.0
 40
2.0
  1
X
 41
0.7
 11
239.7384121833
 21
42.7592183221
 31
0.0
 73
     1
  0
TEXT
  5
11E
  8
PV
 10
239.7114580188
 20
47.4593260935
 30
0.0
 40
2.0
  1
X
 41
0.7
 11
239.7114580188
 21
46.7528059697
 31
0.0
 73
     1
  0
TEXT
  5
11F
  8
PV
 10
239.7371846747
 20
51.4209010298
 30
0.0
 40
2.0
  1
X
 41
0.7
 11
239.7371846747
 21
50.7143809059
 31
0.0
 73
     1
  0
TEXT
  5
120
  8
PV
 10
223.3025238872
 20
39.4882216615
 30
0.0
 40
2.0
  1
X
 41
0.7
 11
223.3025238872
 21
38.7817015377
 31
0.0
 73
     1
  0
TEXT
  5
121
  8
PV
 10
223.3106839328
 20
43.4458509711
 30
0.0
 40
2.0
  1
X
 41
0.7
 11
223.3106839328
 21
42.7393308472
 31
0.0
 73
     1
  0
TEXT
  5
122
  8
PV
 10
223.3025238872
 20
47.4604245872
 30
0.0
 40
2.0
  1
X
 41
0.7
 11
223.3025238872
 21
46.7539044634
 31
0.0
 73
     1
  0
TEXT
  5
123
  8
PV
 10
223.3025238872
 20
51.4180538968
 30
0.0
 40
2.0
  1
X
 41
0.7
 11
223.3025238872
 21
50.711533773
 31
0.0
 73
     1
  0
TEXT
  5
124
  8
PV
 10
263.3372167646
 20
35.1717340864
 30
0.0
 40
2.2
  1
PROD. NAME : VIO-M
 41
0.6416666667
 11
263.3372167646
 21
34.3945619501
 31
0.0
 73
     1
  0
TEXT
  5
125
  8
PV
 10
263.3126437655
 20
23.3757258495
 30
0.0
 40
2.0
  1
MATERIAL: -
 41
0.7
 11
263.3126437655
 21
22.6692057256
 31
0.0
 73
     1
  0
TEXT
  5
126
  8
PV
 10
390.7351730353
 20
55.4539862702
 30
0.0
 40
2.0
  1
01
 41
0.7
 11
390.7351730353
 21
54.7474661464
 31
0.0
 73
     1
  0
TEXT
  5
127
  8
PV
 10
401.972634601
 20
55.4539862702
 30
0.0
 40
2.0
  1
01
 41
0.7
 11
401.972634601
 21
54.7474661464
 31
0.0
 73
     1
  0
TEXT
  5
128
  8
PV
 10
250.3252752916
 20
55.396017232
 30
0.0
 40
2.0
  1
UPDATE NAME
 41
0.7
 11
250.3252752916
 21
54.6894971081
 31
0.0
 73
     1
  0
TEXT
  5
129
  8
PV
 10
239.6505604319
 20
55.029692596
 30
0.0
 40
2.0
  1
PR
 41
0.7
 11
239.6505604319
 21
54.3231724721
 31
0.0
 73
     1
  0
TEXT
  5
12A
  8
PV
 10
222.0842444312
 20
68.0088200338
 30
0.0
 40
2.0
  1
THIS DRAWING IS THE PROPERTY OF BEA AND MAY NOT BE REPRODUCED WITHOUT WRITTEN AGREEMENT
 41
0.6436781609
 11
222.0842444312
 21
67.3022999099
 31
0.0
 73
     1
  0
TEXT
  5
12B
  8
PV
 10
300.1644316903
 20
63.220505224
 30
0.0
 40
2.2
  1
MODIFICATIONS LIST
 41
0.7
 11
300.1644316903
 21
62.4433330878
 31
0.0
 73
     1
  0
TEXT
  5
12C
  8
PV
 10
399.9469401892
 20
59.525618729
 30
0.0
 40
2.0
  1
Rev :
 41
0.7
 11
399.9469401892
 21
58.8190986051
 31
0.0
 73
     1
  0
TEXT
  5
12D
  8
PV
 10
388.7527077653
 20
59.525618729
 30
0.0
 40
2.0
  1
Ver :
 41
0.7
 11
388.7527077653
 21
58.8190986051
 31
0.0
 73
     1
  0
TEXT
  5
12E
  8
PV
 10
250.1638407708
 20
59.6798107451
 30
0.0
 40
2.0
  1
Description :
 41
0.7
 11
250.1638407708
 21
58.9732906213
 31
0.0
 73
     1
  0
TEXT
  5
12F
  8
PV
 10
239.9207006797
 20
59.7105948656
 30
0.0
 40
2.0
  1
By :
 41
0.7
 11
239.9207006797
 21
59.0040747418
 31
0.0
 73
     1
  0
TEXT
  5
130
  8
PV
 10
223.4687214288
 20
55.432133559
 30
0.0
 40
2.0
  1
10/05/13
 41
0.7
 11
223.4687214288
 21
54.7256134351
 31
0.0
 73
     1
  0
TEXT
  5
131
  8
PV
 10
223.7054739288
 20
59.6564555747
 30
0.0
 40
2.0
  1
Date : 
 41
0.6
 11
223.7054739288
 21
58.9499354509
 31
0.0
 73
     1
  0
TEXT
  5
132
  8
PV
 10
263.3474399787
 20
31.2015375237
 30
0.0
 40
2.2
  1
TITLE : VIO-M EXTERNAL DIMENSIONS 
 41
0.6485294118
 11
263.3474399787
 21
30.4243653874
 31
0.0
 73
     1
  0
TEXT
  5
133
  8
PV
 10
327.9989409856
 20
13.8665820502
 30
0.0
 40
4.4
  1
1:1
 41
0.7
 11
327.9989409856
 21
12.3122377777
 31
0.0
 73
     1
  0
TEXT
  5
134
  8
PV
 10
343.6878606228
 20
19.9483855701
 30
0.0
 40
2.0
  1
Size
 41
0.7
 11
343.6878606228
 21
19.2418654463
 31
0.0
 73
     1
  0
TEXT
  5
135
  8
PV
 10
375.8313957379
 20
35.4277311206
 30
0.0
 40
2.0
  1
DRAWER : PR
 41
0.6363636364
 11
375.8313957379
 21
34.7212109967
 31
0.0
 73
     1
  0
TEXT
  5
136
  8
PV
 10
375.6775400219
 20
31.4180758761
 30
0.0
 40
2.0
  1
DATE : 02/03/2012
 41
0.6588235294
 11
375.6775400219
 21
30.7115557522
 31
0.0
 73
     1
  0
TEXT
  5
137
  8
PV
 10
263.2975362943
 20
27.3349674899
 30
0.0
 40
2.0
  1
GENERAL TOLERANCE : -
 41
0.65
 11
263.2975362943
 21
26.6284473661
 31
0.0
 73
     1
  0
TEXT
  5
138
  8
PV
 10
318.5208899755
 20
23.342543407
 30
0.0
 40
2.0
  1
TREATEMENT: -
 41
0.7
 11
318.5208899755
 21
22.6360232832
 31
0.0
 73
     1
  0
TEXT
  5
139
  8
PV
 10
392.0458349658
 20
27.3779861217
 30
0.0
 40
2.0
  1
APPROVED
 41
0.7
 11
392.0458349658
 21
26.6714659979
 31
0.0
 73
     1
  0
TEXT
  5
13A
  8
PV
 10
375.7588660845
 20
27.3825731632
 30
0.0
 40
2.0
  1
VERIFIED
 41
0.7
 11
375.7588660845
 21
26.6760530393
 31
0.0
 73
     1
  0
TEXT
  5
13B
  8
PV
 10
378.5846253155
 20
13.9005238296
 30
0.0
 40
3.5
  1
PAGE: 1 / 1
 41
0.6045454545
 11
378.5846253155
 21
12.6641136128
 31
0.0
 73
     1
  0
TEXT
  5
13C
  8
PV
 10
287.9527898279
 20
19.9344967566
 30
0.0
 40
2.0
  1
Ver.Obj
 41
0.7
 11
287.9527898279
 21
19.2279766327
 31
0.0
 73
     1
  0
TEXT
  5
13D
  8
PV
 10
271.2559181763
 20
19.9344967566
 30
0.0
 40
2.0
  1
Objet 
 41
0.7
 11
271.2559181763
 21
19.2279766327
 31
0.0
 73
     1
  0
TEXT
  5
13E
  8
PV
 10
301.9853812714
 20
19.9344967566
 30
0.0
 40
2.0
  1
Doc. 
 41
0.7
 11
301.9853812714
 21
19.2279766327
 31
0.0
 73
     1
  0
TEXT
  5
13F
  8
LOGO1
 10
233.253130815
 20
14.42943066
 30
0.0
 40
1.3229166667
  1
WWW.BEA.BE
 41
0.7
 11
233.253130815
 21
13.9620970364
 31
0.0
 73
     1
  0
INSERT
  5
147
  8
PV
  2
SW_NOTE_0
 10
412.7964325882
 20
12.4443945837
 30
0.0
  0
TEXT
  5
148
  8
PV
 10
311.9865610784
 20
19.9344967566
 30
0.0
 40
2.0
  1
Rev.Doc. 
 41
0.7
 11
311.9865610784
 21
19.2279766327
 31
0.0
 73
     1
  0
TEXT
  5
149
  8
PV
 10
222.0842444312
 20
72.8090228615
 30
0.0
 40
2.0
  1
Part Volume :   mm³  - Part Weight :  gr
 41
0.595
 11
222.0842444312
 21
72.1025027377
 31
0.0
 73
     1
  0
TEXT
  5
14A
  8
PV
 10
328.5937690112
 20
19.9483855701
 30
0.0
 40
2.0
  1
Scale
 41
0.7
 11
328.5937690112
 21
19.2418654463
 31
0.0
 73
     1
  0
TEXT
  5
14B
  8
PV
 10
342.4073314311
 20
13.9272608591
 30
0.0
 40
4.4
  1
A3
 41
0.7
 11
342.4073314311
 21
12.3729165867
 31
0.0
 73
     1
  0
INSERT
  5
152
  8
SLD-0
  2
SW_NOTE_1
 10
225.7313550468
 20
16.376149639
 30
0.0
  0
LINE
  5
153
  8
0
  6
CONTINUOUS
 62
     7
 10
376.8117174138
 20
215.6284929996
 30
0.0
 11
376.8117174138
 21
209.0284930354
 31
0.0
  0
LINE
  5
154
  8
0
  6
CONTINUOUS
 62
     7
 10
381.011721455
 20
209.0284930354
 30
0.0
 11
381.011721455
 21
215.6284929996
 31
0.0
  0
ARC
  5
155
  8
0
  6
CONTINUOUS
 62
     7
 10
377.8188623878
 20
209.0284929996
 30
0.0
 40
3.192857142857128
 50
290.0159596029
 51
0.0
  0
ARC
  5
156
  8
0
  6
CONTINUOUS
 62
     7
 10
380.0045766735
 20
209.0284929996
 30
0.0
 40
3.192857142857179
 50
180.0
 51
249.9840403971
  0
ARC
  5
157
  8
0
  6
CONTINUOUS
 62
     7
 10
221.2188623878
 20
209.0284929996
 30
0.0
 40
3.192857142857179
 50
290.0159596029
 51
0.0
  0
ARC
  5
158
  8
0
  6
CONTINUOUS
 62
     7
 10
223.4045766735
 20
209.0284929996
 30
0.0
 40
3.19285714285715
 50
180.0
 51
249.9840403971
  0
LINE
  5
159
  8
0
  6
CONTINUOUS
 62
     7
 10
220.2117189397
 20
215.6284929996
 30
0.0
 11
220.2117189397
 21
209.0284930354
 31
0.0
  0
LINE
  5
15A
  8
0
  6
CONTINUOUS
 62
     7
 10
224.4117229809
 20
209.0284930354
 30
0.0
 11
224.4117229809
 21
215.6284929996
 31
0.0
  0
ARC
  5
15B
  8
0
  6
CONTINUOUS
 62
     7
 10
376.1976202758
 20
-92.9550253943
 30
0.0
 40
350.634839547235
 50
91.9743784327
 51
92.4116138113
  0
POLYLINE
  5
15C
  8
0
  6
CONTINUOUS
 62
     7
 66
     1
 10
0.0
 20
0.0
 30
0.0
  0
VERTEX
  5
75E
  8
0
  6
CONTINUOUS
 62
     7
 10
365.8114716043
 20
257.521591503
 30
0.0
  0
VERTEX
  5
75F
  8
0
  6
CONTINUOUS
 62
     7
 10
364.7196411719
 20
257.4935437923
 30
0.0
  0
VERTEX
  5
760
  8
0
  6
CONTINUOUS
 62
     7
 10
364.2419844498
 20
257.4761839395
 30
0.0
  0
SEQEND
  5
B7A
  8
0
  6
CONTINUOUS
 62
     7
  0
POLYLINE
  5
15D
  8
0
  6
CONTINUOUS
 62
     7
 66
     1
 10
0.0
 20
0.0
 30
0.0
  0
VERTEX
  5
761
  8
0
  6
CONTINUOUS
 62
     7
 10
367.3845350375
 20
257.4760610049
 30
0.0
  0
VERTEX
  5
762
  8
0
  6
CONTINUOUS
 62
     7
 10
366.9035851588
 20
257.4935437923
 30
0.0
  0
VERTEX
  5
763
  8
0
  6
CONTINUOUS
 62
     7
 10
365.8114716043
 20
257.521591503
 30
0.0
  0
SEQEND
  5
B79
  8
0
  6
CONTINUOUS
 62
     7
  0
POLYLINE
  5
15E
  8
0
  6
CONTINUOUS
 62
     7
 66
     1
 10
0.0
 20
0.0
 30
0.0
  0
VERTEX
  5
764
  8
0
  6
CONTINUOUS
 62
     7
 10
370.179396831
 20
257.3692643827
 30
0.0
  0
VERTEX
  5
765
  8
0
  6
CONTINUOUS
 62
     7
 10
369.0875663986
 20
257.4172684735
 30
0.0
  0
VERTEX
  5
766
  8
0
  6
CONTINUOUS
 62
     7
 10
368.6097010602
 20
257.4332760459
 30
0.0
  0
SEQEND
  5
B78
  8
0
  6
CONTINUOUS
 62
     7
  0
LINE
  5
15F
  8
0
  6
CONTINUOUS
 62
     7
 10
387.7681761612
 20
215.6284929996
 30
0.0
 11
387.7507194509
 21
216.6284930471
 31
0.0
  0
LINE
  5
160
  8
0
  6
CONTINUOUS
 62
     7
 10
214.0272378554
 20
216.6284930471
 30
0.0
 11
214.009781145
 21
215.6284929996
 31
0.0
  0
LINE
  5
161
  8
0
  6
CONTINUOUS
 62
     7
 10
362.7628430356
 20
216.3284929747
 30
0.0
 11
362.7628430356
 21
216.6284930471
 31
0.0
  0
LINE
  5
162
  8
0
  6
CONTINUOUS
 62
     7
 10
365.7628416647
 20
216.3284929747
 30
0.0
 11
365.7628416647
 21
216.6284930471
 31
0.0
  0
LINE
  5
163
  8
0
  6
CONTINUOUS
 62
     7
 10
361.4245548477
 20
257.1473264878
 30
0.0
 11
361.4286303152
 21
257.3779405838
 31
0.0
  0
LINE
  5
164
  8
0
  6
CONTINUOUS
 62
     7
 10
361.4435463776
 20
257.3784621244
 30
0.0
 11
361.4286303152
 21
257.3779405838
 31
0.0
  0
POLYLINE
  5
165
  8
0
  6
CONTINUOUS
 62
     7
 66
     1
 10
0.0
 20
0.0
 30
0.0
  0
VERTEX
  5
767
  8
0
  6
CONTINUOUS
 62
     7
 10
364.2114743223
 20
238.6183490788
 30
0.0
  0
VERTEX
  5
768
  8
0
  6
CONTINUOUS
 62
     7
 10
363.8967096438
 20
241.5475671923
 30
0.0
  0
VERTEX
  5
769
  8
0
  6
CONTINUOUS
 62
     7
 10
363.5677665104
 20
244.4620815849
 30
0.0
  0
VERTEX
  5
76A
  8
0
  6
CONTINUOUS
 62
     7
 10
363.2235869398
 20
247.3121540433
 30
0.0
  0
VERTEX
  5
76B
  8
0
  6
CONTINUOUS
 62
     7
 10
362.878058814
 20
249.9528595989
 30
0.0
  0
VERTEX
  5
76C
  8
0
  6
CONTINUOUS
 62
     7
 10
362.524186038
 20
252.4215088969
 30
0.0
  0
VERTEX
  5
76D
  8
0
  6
CONTINUOUS
 62
     7
 10
362.2720658411
 20
254.0162684208
 30
0.0
  0
VERTEX
  5
76E
  8
0
  6
CONTINUOUS
 62
     7
 10
362.0250790943
 20
255.4116839355
 30
0.0
  0
VERTEX
  5
76F
  8
0
  6
CONTINUOUS
 62
     7
 10
361.8554368247
 20
256.240203399
 30
0.0
  0
VERTEX
  5
770
  8
0
  6
CONTINUOUS
 62
     7
 10
361.6983711352
 20
256.870682705
 30
0.0
  0
VERTEX
  5
771
  8
0
  6
CONTINUOUS
 62
     7
 10
361.5584715833
 20
257.2598302549
 30
0.0
  0
VERTEX
  5
772
  8
0
  6
CONTINUOUS
 62
     7
 10
361.4809482922
 20
257.339856941
 30
0.0
  0
SEQEND
  5
B77
  8
0
  6
CONTINUOUS
 62
     7
  0
LINE
  5
166
  8
0
  6
CONTINUOUS
 62
     7
 10
364.2114743223
 20
237.8803523069
 30
0.0
 11
364.2114743223
 21
238.6183490788
 31
0.0
  0
LINE
  5
167
  8
0
  6
CONTINUOUS
 62
     7
 10
364.2114743223
 20
237.8803523069
 30
0.0
 11
364.1485243668
 21
238.4762963092
 31
0.0
  0
POLYLINE
  5
168
  8
0
  6
CONTINUOUS
 62
     7
 66
     1
 10
0.0
 20
0.0
 30
0.0
  0
VERTEX
  5
773
  8
0
  6
CONTINUOUS
 62
     7
 10
364.1485243668
 20
238.4762963092
 30
0.0
  0
VERTEX
  5
774
  8
0
  6
CONTINUOUS
 62
     7
 10
363.8379096617
 20
241.3772338813
 30
0.0
  0
VERTEX
  5
775
  8
0
  6
CONTINUOUS
 62
     7
 10
363.5129227867
 20
244.2569540625
 30
0.0
  0
VERTEX
  5
776
  8
0
  6
CONTINUOUS
 62
     7
 10
363.0839109053
 20
247.7536530977
 30
0.0
  0
VERTEX
  5
777
  8
0
  6
CONTINUOUS
 62
     7
 10
362.6354157557
 20
251.0336892491
 30
0.0
  0
VERTEX
  5
778
  8
0
  6
CONTINUOUS
 62
     7
 10
362.4163612356
 20
252.4792471712
 30
0.0
  0
VERTEX
  5
779
  8
0
  6
CONTINUOUS
 62
     7
 10
362.1989532937
 20
253.7915179318
 30
0.0
  0
VERTEX
  5
77A
  8
0
  6
CONTINUOUS
 62
     7
 10
362.0268523325
 20
254.7189811056
 30
0.0
  0
VERTEX
  5
77B
  8
0
  6
CONTINUOUS
 62
     7
 10
361.8642657627
 20
255.4672540909
 30
0.0
  0
VERTEX
  5
77C
  8
0
  6
CONTINUOUS
 62
     7
 10
361.726780199
 20
255.9479096716
 30
0.0
  0
VERTEX
  5
77D
  8
0
  6
CONTINUOUS
 62
     7
 10
361.6106554498
 20
256.1775589173
 30
0.0
  0
SEQEND
  5
B76
  8
0
  6
CONTINUOUS
 62
     7
  0
LINE
  5
169
  8
0
  6
CONTINUOUS
 62
     7
 10
364.2114743223
 20
238.6183490788
 30
0.0
 11
364.2120778193
 21
238.5653493738
 31
0.0
  0
POLYLINE
  5
16A
  8
0
  6
CONTINUOUS
 62
     7
 66
     1
 10
0.0
 20
0.0
 30
0.0
  0
VERTEX
  5
77E
  8
0
  6
CONTINUOUS
 62
     7
 10
365.8114716043
 20
257.5309904104
 30
0.0
  0
VERTEX
  5
77F
  8
0
  6
CONTINUOUS
 62
     7
 10
365.3271168103
 20
257.5140775924
 30
0.0
  0
VERTEX
  5
780
  8
0
  6
CONTINUOUS
 62
     7
 10
364.8427620162
 20
257.4971647745
 30
0.0
  0
VERTEX
  5
781
  8
0
  6
CONTINUOUS
 62
     7
 10
364.7934093704
 20
257.4954399651
 30
0.0
  0
SEQEND
  5
B75
  8
0
  6
CONTINUOUS
 62
     7
  0
POLYLINE
  5
16B
  8
0
  6
CONTINUOUS
 62
     7
 66
     1
 10
0.0
 20
0.0
 30
0.0
  0
VERTEX
  5
782
  8
0
  6
CONTINUOUS
 62
     7
 10
364.2419844498
 20
257.4761839395
 30
0.0
  0
VERTEX
  5
783
  8
0
  6
CONTINUOUS
 62
     7
 10
364.2114743223
 20
257.4751185065
 30
0.0
  0
VERTEX
  5
784
  8
0
  6
CONTINUOUS
 62
     7
 10
363.7271195282
 20
257.4582056885
 30
0.0
  0
VERTEX
  5
785
  8
0
  6
CONTINUOUS
 62
     7
 10
363.0167588224
 20
257.4333989804
 30
0.0
  0
SEQEND
  5
B74
  8
0
  6
CONTINUOUS
 62
     7
  0
POLYLINE
  5
16C
  8
0
  6
CONTINUOUS
 62
     7
 66
     1
 10
0.0
 20
0.0
 30
0.0
  0
VERTEX
  5
786
  8
0
  6
CONTINUOUS
 62
     7
 10
362.4594851961
 20
257.4139380639
 30
0.0
  0
VERTEX
  5
787
  8
0
  6
CONTINUOUS
 62
     7
 10
361.7897003521
 20
257.3905469661
 30
0.0
  0
VERTEX
  5
788
  8
0
  6
CONTINUOUS
 62
     7
 10
361.4435463776
 20
257.3784621244
 30
0.0
  0
SEQEND
  5
B73
  8
0
  6
CONTINUOUS
 62
     7
  0
LINE
  5
16D
  8
0
  6
CONTINUOUS
 62
     7
 10
365.8114716043
 20
257.4883917158
 30
0.0
 11
365.8114716043
 21
238.5653493738
 31
0.0
  0
POLYLINE
  5
16E
  8
0
  6
CONTINUOUS
 62
     7
 66
     1
 10
0.0
 20
0.0
 30
0.0
  0
VERTEX
  5
789
  8
0
  6
CONTINUOUS
 62
     7
 10
367.4114688863
 20
238.6183490788
 30
0.0
  0
VERTEX
  5
78A
  8
0
  6
CONTINUOUS
 62
     7
 10
367.8255051007
 20
242.463241685
 30
0.0
  0
VERTEX
  5
78B
  8
0
  6
CONTINUOUS
 62
     7
 10
368.2695522537
 20
246.2648780828
 30
0.0
  0
VERTEX
  5
78C
  8
0
  6
CONTINUOUS
 62
     7
 10
368.5077547659
 20
248.1640161758
 30
0.0
  0
VERTEX
  5
78D
  8
0
  6
CONTINUOUS
 62
     7
 10
368.7518804898
 20
250.0044399684
 30
0.0
  0
VERTEX
  5
78E
  8
0
  6
CONTINUOUS
 62
     7
 10
369.0333038201
 20
251.9842380469
 30
0.0
  0
VERTEX
  5
78F
  8
0
  6
CONTINUOUS
 62
     7
 10
369.3213805189
 20
253.8374209588
 30
0.0
  0
VERTEX
  5
790
  8
0
  6
CONTINUOUS
 62
     7
 10
369.5362403621
 20
255.0819622164
 30
0.0
  0
VERTEX
  5
791
  8
0
  6
CONTINUOUS
 62
     7
 10
369.7475835313
 20
256.1500960773
 30
0.0
  0
VERTEX
  5
792
  8
0
  6
CONTINUOUS
 62
     7
 10
369.894397222
 20
256.7628392761
 30
0.0
  0
VERTEX
  5
793
  8
0
  6
CONTINUOUS
 62
     7
 10
370.0296029081
 20
257.1829812413
 30
0.0
  0
VERTEX
  5
794
  8
0
  6
CONTINUOUS
 62
     7
 10
370.1410933961
 20
257.3284799045
 30
0.0
  0
SEQEND
  5
B72
  8
0
  6
CONTINUOUS
 62
     7
  0
LINE
  5
16F
  8
0
  6
CONTINUOUS
 62
     7
 10
367.4108653893
 20
238.5653493738
 30
0.0
 11
367.4114688863
 21
238.6183490788
 31
0.0
  0
POLYLINE
  5
170
  8
0
  6
CONTINUOUS
 62
     7
 66
     1
 10
0.0
 20
0.0
 30
0.0
  0
VERTEX
  5
795
  8
0
  6
CONTINUOUS
 62
     7
 10
370.179396831
 20
257.3784621244
 30
0.0
  0
VERTEX
  5
796
  8
0
  6
CONTINUOUS
 62
     7
 10
369.5101260771
 20
257.4018308705
 30
0.0
  0
VERTEX
  5
797
  8
0
  6
CONTINUOUS
 62
     7
 10
369.1628917684
 20
257.4139566904
 30
0.0
  0
SEQEND
  5
B71
  8
0
  6
CONTINUOUS
 62
     7
  0
POLYLINE
  5
171
  8
0
  6
CONTINUOUS
 62
     7
 66
     1
 10
0.0
 20
0.0
 30
0.0
  0
VERTEX
  5
798
  8
0
  6
CONTINUOUS
 62
     7
 10
368.6097010602
 20
257.4332760459
 30
0.0
  0
VERTEX
  5
799
  8
0
  6
CONTINUOUS
 62
     7
 10
368.460801207
 20
257.4384765511
 30
0.0
  0
VERTEX
  5
79A
  8
0
  6
CONTINUOUS
 62
     7
 10
367.936138772
 20
257.4567975288
 30
0.0
  0
VERTEX
  5
79B
  8
0
  6
CONTINUOUS
 62
     7
 10
367.4114688863
 20
257.4751185065
 30
0.0
  0
VERTEX
  5
79C
  8
0
  6
CONTINUOUS
 62
     7
 10
367.3845350375
 20
257.4760610049
 30
0.0
  0
SEQEND
  5
B70
  8
0
  6
CONTINUOUS
 62
     7
  0
POLYLINE
  5
172
  8
0
  6
CONTINUOUS
 62
     7
 66
     1
 10
0.0
 20
0.0
 30
0.0
  0
VERTEX
  5
79D
  8
0
  6
CONTINUOUS
 62
     7
 10
366.8289601435
 20
257.4954585915
 30
0.0
  0
VERTEX
  5
79E
  8
0
  6
CONTINUOUS
 62
     7
 10
366.445232891
 20
257.508862186
 30
0.0
  0
VERTEX
  5
79F
  8
0
  6
CONTINUOUS
 62
     7
 10
365.8114716043
 20
257.5309904104
 30
0.0
  0
SEQEND
  5
B6F
  8
0
  6
CONTINUOUS
 62
     7
  0
LINE
  5
173
  8
0
  6
CONTINUOUS
 62
     7
 10
367.4114688863
 20
237.8803523069
 30
0.0
 11
367.4744188418
 21
238.4762963092
 31
0.0
  0
LINE
  5
174
  8
0
  6
CONTINUOUS
 62
     7
 10
367.4114688863
 20
238.6183490788
 30
0.0
 11
367.4114688863
 21
237.8803523069
 31
0.0
  0
LINE
  5
175
  8
0
  6
CONTINUOUS
 62
     7
 10
370.179396831
 20
257.3784621244
 30
0.0
 11
370.1943128933
 21
257.3779405838
 31
0.0
  0
LINE
  5
176
  8
0
  6
CONTINUOUS
 62
     7
 10
370.1943128933
 20
257.3779405838
 30
0.0
 11
370.198030733
 21
257.1675697153
 31
0.0
  0
POLYLINE
  5
177
  8
0
  6
CONTINUOUS
 62
     7
 66
     1
 10
0.0
 20
0.0
 30
0.0
  0
VERTEX
  5
7A0
  8
0
  6
CONTINUOUS
 62
     7
 10
367.4744188418
 20
238.4762963092
 30
0.0
  0
VERTEX
  5
7A1
  8
0
  6
CONTINUOUS
 62
     7
 10
367.5290837516
 20
238.9944543874
 30
0.0
  0
VERTEX
  5
7A2
  8
0
  6
CONTINUOUS
 62
     7
 10
367.850173973
 20
241.9701622611
 30
0.0
  0
VERTEX
  5
7A3
  8
0
  6
CONTINUOUS
 62
     7
 10
368.187953495
 20
244.9169376677
 30
0.0
  0
VERTEX
  5
7A4
  8
0
  6
CONTINUOUS
 62
     7
 10
368.5651763906
 20
247.9559400862
 30
0.0
  0
VERTEX
  5
7A5
  8
0
  6
CONTINUOUS
 62
     7
 10
368.9571365346
 20
250.8246259576
 30
0.0
  0
VERTEX
  5
7A6
  8
0
  6
CONTINUOUS
 62
     7
 10
369.2632287373
 20
252.8349714165
 30
0.0
  0
VERTEX
  5
7A7
  8
0
  6
CONTINUOUS
 62
     7
 10
369.5630773534
 20
254.5503632909
 30
0.0
  0
VERTEX
  5
7A8
  8
0
  6
CONTINUOUS
 62
     7
 10
369.7048097481
 20
255.2361370807
 30
0.0
  0
VERTEX
  5
7A9
  8
0
  6
CONTINUOUS
 62
     7
 10
369.8362081875
 20
255.7609000986
 30
0.0
  0
VERTEX
  5
7AA
  8
0
  6
CONTINUOUS
 62
     7
 10
370.0122877588
 20
256.1775551921
 30
0.0
  0
SEQEND
  5
B6E
  8
0
  6
CONTINUOUS
 62
     7
  0
ARC
  5
178
  8
0
  6
CONTINUOUS
 62
     7
 10
365.6866490204
 20
238.4524790587
 30
0.0
 40
1.727906766796709
 50
274.1426090341
 51
3.7453413172
  0
LINE
  5
179
  8
0
  6
CONTINUOUS
 62
     7
 10
365.8114716043
 20
238.5653493738
 30
0.0
 11
365.8114716043
 21
236.7290867304
 31
0.0
  0
ARC
  5
17A
  8
0
  6
CONTINUOUS
 62
     7
 10
365.9362941882
 20
238.4524790587
 30
0.0
 40
1.727906766796709
 50
176.2546586828
 51
265.8573909659
  0
LINE
  5
17B
  8
0
  6
CONTINUOUS
 62
     7
 10
364.2200797428
 20
237.6809766328
 30
0.0
 11
364.2114743223
 21
237.8803523069
 31
0.0
  0
LINE
  5
17C
  8
0
  6
CONTINUOUS
 62
     7
 10
367.4114688863
 20
237.8803523069
 30
0.0
 11
367.4028634657
 21
237.6809766328
 31
0.0
  0
LINE
  5
17D
  8
0
  6
CONTINUOUS
 62
     7
 10
367.5561293592
 20
238.4762981718
 30
0.0
 11
367.4744188418
 21
238.4762963092
 31
0.0
  0
LINE
  5
17E
  8
0
  6
CONTINUOUS
 62
     7
 10
364.1485243668
 20
238.4762963092
 30
0.0
 11
364.0668138494
 21
238.4762981718
 31
0.0
  0
ARC
  5
17F
  8
0
  6
CONTINUOUS
 62
     7
 10
56.8145701116
 20
208.4195395912
 30
0.0
 40
308.7124355092581
 50
5.8021673514
 51
8.203004963
  0
LINE
  5
180
  8
0
  6
CONTINUOUS
 62
     7
 10
370.2410354843
 20
257.2532811945
 30
0.0
 11
386.840310656
 21
257.2532811945
 31
0.0
  0
ARC
  5
181
  8
0
  6
CONTINUOUS
 62
     7
 10
530.1172299301
 20
251.6527830753
 30
0.0
 40
143.3863353875355
 50
177.7615262264
 51
184.810438245
  0
POLYLINE
  5
182
  8
0
  6
CONTINUOUS
 62
     7
 66
     1
 10
0.0
 20
0.0
 30
0.0
  0
VERTEX
  5
7AB
  8
0
  6
CONTINUOUS
 62
     7
 10
367.6775067677
 20
239.6284932082
 30
0.0
  0
VERTEX
  5
7AC
  8
0
  6
CONTINUOUS
 62
     7
 10
368.0371239414
 20
242.9332764631
 30
0.0
  0
VERTEX
  5
7AD
  8
0
  6
CONTINUOUS
 62
     7
 10
368.4189363946
 20
246.2053907847
 30
0.0
  0
VERTEX
  5
7AE
  8
0
  6
CONTINUOUS
 62
     7
 10
368.8181757559
 20
249.3609221464
 30
0.0
  0
VERTEX
  5
7AF
  8
0
  6
CONTINUOUS
 62
     7
 10
369.0824627509
 20
251.2898253089
 30
0.0
  0
VERTEX
  5
7B0
  8
0
  6
CONTINUOUS
 62
     7
 10
369.3500205507
 20
253.0912527626
 30
0.0
  0
VERTEX
  5
7B1
  8
0
  6
CONTINUOUS
 62
     7
 10
369.6198358764
 20
254.7194653934
 30
0.0
  0
VERTEX
  5
7B2
  8
0
  6
CONTINUOUS
 62
     7
 10
369.8779537906
 20
256.0448342746
 30
0.0
  0
VERTEX
  5
7B3
  8
0
  6
CONTINUOUS
 62
     7
 10
370.0363084306
 20
256.6962348109
 30
0.0
  0
VERTEX
  5
7B4
  8
0
  6
CONTINUOUS
 62
     7
 10
370.1779588689
 20
257.1275675481
 30
0.0
  0
VERTEX
  5
7B5
  8
0
  6
CONTINUOUS
 62
     7
 10
370.2410354843
 20
257.2532811945
 30
0.0
  0
SEQEND
  5
B6D
  8
0
  6
CONTINUOUS
 62
     7
  0
ARC
  5
183
  8
0
  6
CONTINUOUS
 62
     7
 10
523.9947738471
 20
251.3840045871
 30
0.0
 40
136.7640901435431
 50
177.7395235526
 51
184.9199361144
  0
POLYLINE
  5
184
  8
0
  6
CONTINUOUS
 62
     7
 66
     1
 10
0.0
 20
0.0
 30
0.0
  0
VERTEX
  5
7B6
  8
0
  6
CONTINUOUS
 62
     7
 10
387.2359588374
 20
239.6284932082
 30
0.0
  0
VERTEX
  5
7B7
  8
0
  6
CONTINUOUS
 62
     7
 10
387.3301639785
 20
239.6334292179
 30
0.0
  0
VERTEX
  5
7B8
  8
0
  6
CONTINUOUS
 62
     7
 10
387.420986556
 20
239.6381901389
 30
0.0
  0
VERTEX
  5
7B9
  8
0
  6
CONTINUOUS
 62
     7
 10
387.505155765
 20
239.6426008826
 30
0.0
  0
VERTEX
  5
7BA
  8
0
  6
CONTINUOUS
 62
     7
 10
387.579661571
 20
239.6465049868
 30
0.0
  0
VERTEX
  5
7BB
  8
0
  6
CONTINUOUS
 62
     7
 10
387.6418217649
 20
239.6497627532
 30
0.0
  0
VERTEX
  5
7BC
  8
0
  6
CONTINUOUS
 62
     7
 10
387.6894086232
 20
239.652256835
 30
0.0
  0
VERTEX
  5
7BD
  8
0
  6
CONTINUOUS
 62
     7
 10
387.7207010617
 20
239.6538978254
 30
0.0
  0
VERTEX
  5
7BE
  8
0
  6
CONTINUOUS
 62
     7
 10
387.7345889439
 20
239.654624257
 30
0.0
  0
SEQEND
  5
B6C
  8
0
  6
CONTINUOUS
 62
     7
  0
ARC
  5
185
  8
0
  6
CONTINUOUS
 62
     7
 10
386.8389064995
 20
256.7545130026
 30
0.0
 40
0.4987701684012431
 50
2.7364575991
 51
89.8386985586
  0
LINE
  5
186
  8
0
  6
CONTINUOUS
 62
     7
 10
387.7345889439
 20
239.654624257
 30
0.0
 11
388.9413371314
 21
216.6284930471
 31
0.0
  0
LINE
  5
187
  8
0
  6
CONTINUOUS
 62
     7
 10
387.3371079196
 20
256.7783253079
 30
0.0
 11
387.348931991
 21
256.7783253079
 31
0.0
  0
LINE
  5
188
  8
0
  6
CONTINUOUS
 62
     7
 10
387.3507126798
 20
256.7442351764
 30
0.0
 11
387.3488872876
 21
256.7783253079
 31
0.0
  0
LINE
  5
189
  8
0
  6
CONTINUOUS
 62
     7
 10
389.4530877103
 20
216.6284930471
 30
0.0
 11
387.3507126798
 21
256.7442351764
 31
0.0
  0
LINE
  5
18A
  8
0
  6
CONTINUOUS
 62
     7
 10
388.9413371314
 20
216.6284930471
 30
0.0
 11
389.4530877103
 21
216.6284930471
 31
0.0
  0
POLYLINE
  5
18B
  8
0
  6
CONTINUOUS
 62
     7
 66
     1
 10
0.0
 20
0.0
 30
0.0
  0
VERTEX
  5
7BF
  8
0
  6
CONTINUOUS
 62
     7
 10
215.0710418453
 20
260.3059964066
 30
0.0
  0
VERTEX
  5
7C0
  8
0
  6
CONTINUOUS
 62
     7
 10
215.2541026105
 20
260.0489476507
 30
0.0
  0
VERTEX
  5
7C1
  8
0
  6
CONTINUOUS
 62
     7
 10
215.4066905012
 20
259.4225661641
 30
0.0
  0
VERTEX
  5
7C2
  8
0
  6
CONTINUOUS
 62
     7
 10
215.5170112481
 20
258.3971278554
 30
0.0
  0
VERTEX
  5
7C3
  8
0
  6
CONTINUOUS
 62
     7
 10
215.5874341359
 20
256.8731786495
 30
0.0
  0
VERTEX
  5
7C4
  8
0
  6
CONTINUOUS
 62
     7
 10
215.6119241943
 20
255.278963018
 30
0.0
  0
VERTEX
  5
7C5
  8
0
  6
CONTINUOUS
 62
     7
 10
215.6072005262
 20
253.371368516
 30
0.0
  0
VERTEX
  5
7C6
  8
0
  6
CONTINUOUS
 62
     7
 10
215.5712440242
 20
251.2300120478
 30
0.0
  0
VERTEX
  5
7C7
  8
0
  6
CONTINUOUS
 62
     7
 10
215.507578813
 20
248.9181341415
 30
0.0
  0
VERTEX
  5
7C8
  8
0
  6
CONTINUOUS
 62
     7
 10
215.411347114
 20
246.2642708605
 30
0.0
  0
VERTEX
  5
7C9
  8
0
  6
CONTINUOUS
 62
     7
 10
215.2936353912
 20
243.5355031675
 30
0.0
  0
VERTEX
  5
7CA
  8
0
  6
CONTINUOUS
 62
     7
 10
215.1608213415
 20
240.7839366978
 30
0.0
  0
VERTEX
  5
7CB
  8
0
  6
CONTINUOUS
 62
     7
 10
215.1008143653
 20
239.6100399827
 30
0.0
  0
SEQEND
  5
B6B
  8
0
  6
CONTINUOUS
 62
     7
  0
POLYLINE
  5
18C
  8
0
  6
CONTINUOUS
 62
     7
 66
     1
 10
0.0
 20
0.0
 30
0.0
  0
VERTEX
  5
7CC
  8
0
  6
CONTINUOUS
 62
     7
 10
215.1008143653
 20
239.6100399827
 30
0.0
  0
VERTEX
  5
7CD
  8
0
  6
CONTINUOUS
 62
     7
 10
215.0066166748
 20
239.614977855
 30
0.0
  0
VERTEX
  5
7CE
  8
0
  6
CONTINUOUS
 62
     7
 10
214.9157940974
 20
239.6197369134
 30
0.0
  0
VERTEX
  5
7CF
  8
0
  6
CONTINUOUS
 62
     7
 10
214.8316174378
 20
239.6241476571
 30
0.0
  0
VERTEX
  5
7D0
  8
0
  6
CONTINUOUS
 62
     7
 10
214.7571116318
 20
239.628053624
 30
0.0
  0
VERTEX
  5
7D1
  8
0
  6
CONTINUOUS
 62
     7
 10
214.6949514379
 20
239.6313113903
 30
0.0
  0
VERTEX
  5
7D2
  8
0
  6
CONTINUOUS
 62
     7
 10
214.6473720302
 20
239.6338036096
 30
0.0
  0
VERTEX
  5
7D3
  8
0
  6
CONTINUOUS
 62
     7
 10
214.6160721411
 20
239.6354445999
 30
0.0
  0
VERTEX
  5
7D4
  8
0
  6
CONTINUOUS
 62
     7
 10
214.6021842589
 20
239.6361728942
 30
0.0
  0
SEQEND
  5
B6A
  8
0
  6
CONTINUOUS
 62
     7
  0
POLYLINE
  5
18D
  8
0
  6
CONTINUOUS
 62
     7
 66
     1
 10
0.0
 20
0.0
 30
0.0
  0
VERTEX
  5
7D5
  8
0
  6
CONTINUOUS
 62
     7
 10
214.6021842589
 20
239.6361728942
 30
0.0
  0
VERTEX
  5
7D6
  8
0
  6
CONTINUOUS
 62
     7
 10
214.6621390809
 20
240.7959954625
 30
0.0
  0
VERTEX
  5
7D7
  8
0
  6
CONTINUOUS
 62
     7
 10
214.7943719854
 20
243.4972109085
 30
0.0
  0
VERTEX
  5
7D8
  8
0
  6
CONTINUOUS
 62
     7
 10
214.9128287663
 20
246.176104415
 30
0.0
  0
VERTEX
  5
7D9
  8
0
  6
CONTINUOUS
 62
     7
 10
215.01194384
 20
248.7813489323
 30
0.0
  0
VERTEX
  5
7DA
  8
0
  6
CONTINUOUS
 62
     7
 10
215.0799080362
 20
251.0250875538
 30
0.0
  0
VERTEX
  5
7DB
  8
0
  6
CONTINUOUS
 62
     7
 10
215.1224732031
 20
253.1034419125
 30
0.0
  0
VERTEX
  5
7DC
  8
0
  6
CONTINUOUS
 62
     7
 10
215.1347964634
 20
254.9460263735
 30
0.0
  0
VERTEX
  5
7DD
  8
0
  6
CONTINUOUS
 62
     7
 10
215.115901791
 20
256.4859533494
 30
0.0
  0
VERTEX
  5
7DE
  8
0
  6
CONTINUOUS
 62
     7
 10
215.0493606557
 20
257.9686263388
 30
0.0
  0
VERTEX
  5
7DF
  8
0
  6
CONTINUOUS
 62
     7
 10
214.9459763994
 20
258.9661957508
 30
0.0
  0
VERTEX
  5
7E0
  8
0
  6
CONTINUOUS
 62
     7
 10
214.8115828266
 20
259.5718273705
 30
0.0
  0
VERTEX
  5
7E1
  8
0
  6
CONTINUOUS
 62
     7
 10
214.6565436949
 20
259.8325380867
 30
0.0
  0
SEQEND
  5
B69
  8
0
  6
CONTINUOUS
 62
     7
  0
ARC
  5
18E
  8
0
  6
CONTINUOUS
 62
     7
 10
215.1608266921
 20
259.8092232131
 30
0.0
 40
0.5048216759769034
 50
100.2448199845
 51
177.3528886116
  0
POLYLINE
  5
18F
  8
0
  6
CONTINUOUS
 62
     7
 66
     1
 10
0.0
 20
0.0
 30
0.0
  0
VERTEX
  5
7E2
  8
0
  6
CONTINUOUS
 62
     7
 10
214.6565436949
 20
259.8325380867
 30
0.0
  0
VERTEX
  5
7E3
  8
0
  6
CONTINUOUS
 62
     7
 10
214.649525248
 20
259.6977235561
 30
0.0
  0
VERTEX
  5
7E4
  8
0
  6
CONTINUOUS
 62
     7
 10
214.6297737588
 20
259.3169951623
 30
0.0
  0
VERTEX
  5
7E5
  8
0
  6
CONTINUOUS
 62
     7
 10
214.6099924673
 20
258.9362630432
 30
0.0
  0
SEQEND
  5
B68
  8
0
  6
CONTINUOUS
 62
     7
  0
POLYLINE
  5
190
  8
0
  6
CONTINUOUS
 62
     7
 66
     1
 10
0.0
 20
0.0
 30
0.0
  0
VERTEX
  5
7E6
  8
0
  6
CONTINUOUS
 62
     7
 10
213.3964046468
 20
216.6284930471
 30
0.0
  0
VERTEX
  5
7E7
  8
0
  6
CONTINUOUS
 62
     7
 10
213.5008617868
 20
218.621640587
 30
0.0
  0
VERTEX
  5
7E8
  8
0
  6
CONTINUOUS
 62
     7
 10
214.3382399907
 20
234.5997126585
 30
0.0
  0
VERTEX
  5
7E9
  8
0
  6
CONTINUOUS
 62
     7
 10
214.6021842589
 20
239.6361728942
 30
0.0
  0
SEQEND
  5
B67
  8
0
  6
CONTINUOUS
 62
     7
  0
LINE
  5
191
  8
0
  6
CONTINUOUS
 62
     7
 10
213.3964046468
 20
216.6284930471
 30
0.0
 11
212.5320478906
 21
216.6284930471
 31
0.0
  0
LINE
  5
192
  8
0
  6
CONTINUOUS
 62
     7
 10
214.6010890235
 20
258.9362630432
 30
0.0
 11
212.5320478906
 21
216.6284930471
 31
0.0
  0
LINE
  5
193
  8
0
  6
CONTINUOUS
 62
     7
 10
214.6010890235
 20
258.9362630432
 30
0.0
 11
214.604739808
 21
258.9362630432
 31
0.0
  0
LINE
  5
194
  8
0
  6
CONTINUOUS
 62
     7
 10
214.604739808
 20
258.9362630432
 30
0.0
 11
214.6099924673
 21
258.9362630432
 31
0.0
  0
POLYLINE
  5
195
  8
0
  6
CONTINUOUS
 62
     7
 66
     1
 10
0.0
 20
0.0
 30
0.0
  0
VERTEX
  5
7EA
  8
0
  6
CONTINUOUS
 62
     7
 10
215.1008143653
 20
239.6100399827
 30
0.0
  0
VERTEX
  5
7EB
  8
0
  6
CONTINUOUS
 62
     7
 10
215.0484814872
 20
238.6114107257
 30
0.0
  0
VERTEX
  5
7EC
  8
0
  6
CONTINUOUS
 62
     7
 10
214.8391350736
 20
234.6168918347
 30
0.0
  0
VERTEX
  5
7ED
  8
0
  6
CONTINUOUS
 62
     7
 10
214.0017643203
 20
218.6388197632
 30
0.0
  0
VERTEX
  5
7EE
  8
0
  6
CONTINUOUS
 62
     7
 10
213.8964056601
 20
216.6284930471
 30
0.0
  0
SEQEND
  5
B66
  8
0
  6
CONTINUOUS
 62
     7
  0
LINE
  5
196
  8
0
  6
CONTINUOUS
 62
     7
 10
213.8964056601
 20
216.6284930471
 30
0.0
 11
213.3964046468
 21
216.6284930471
 31
0.0
  0
POLYLINE
  5
197
  8
0
  6
CONTINUOUS
 62
     7
 66
     1
 10
0.0
 20
0.0
 30
0.0
  0
VERTEX
  5
7EF
  8
0
  6
CONTINUOUS
 62
     7
 10
215.0710418453
 20
260.3059964066
 30
0.0
  0
VERTEX
  5
7F0
  8
0
  6
CONTINUOUS
 62
     7
 10
215.1954516401
 20
260.327778179
 30
0.0
  0
VERTEX
  5
7F1
  8
0
  6
CONTINUOUS
 62
     7
 10
215.5288055171
 20
260.3861423021
 30
0.0
  0
SEQEND
  5
B65
  8
0
  6
CONTINUOUS
 62
     7
  0
POLYLINE
  5
198
  8
0
  6
CONTINUOUS
 62
     7
 66
     1
 10
0.0
 20
0.0
 30
0.0
  0
VERTEX
  5
7F2
  8
0
  6
CONTINUOUS
 62
     7
 10
215.539057516
 20
260.3879341667
 30
0.0
  0
VERTEX
  5
7F3
  8
0
  6
CONTINUOUS
 62
     7
 10
215.5339315166
 20
260.3870363718
 30
0.0
  0
VERTEX
  5
7F4
  8
0
  6
CONTINUOUS
 62
     7
 10
215.5288055171
 20
260.3861423021
 30
0.0
  0
SEQEND
  5
B64
  8
0
  6
CONTINUOUS
 62
     7
  0
LINE
  5
199
  8
0
  6
CONTINUOUS
 62
     7
 10
215.5390277137
 20
260.3881316071
 30
0.0
 11
215.487469696
 21
260.3832253998
 31
0.0
  0
POLYLINE
  5
19A
  8
0
  6
CONTINUOUS
 62
     7
 66
     1
 10
0.0
 20
0.0
 30
0.0
  0
VERTEX
  5
7F5
  8
0
  6
CONTINUOUS
 62
     7
 10
361.3818928232
 20
257.2539703732
 30
0.0
  0
VERTEX
  5
7F6
  8
0
  6
CONTINUOUS
 62
     7
 10
350.7958098878
 20
257.3487417584
 30
0.0
  0
VERTEX
  5
7F7
  8
0
  6
CONTINUOUS
 62
     7
 10
340.2851342787
 20
257.6033206468
 30
0.0
  0
VERTEX
  5
7F8
  8
0
  6
CONTINUOUS
 62
     7
 10
329.8417262365
 20
258.0176176315
 30
0.0
  0
VERTEX
  5
7F9
  8
0
  6
CONTINUOUS
 62
     7
 10
319.4576173653
 20
258.5909323579
 30
0.0
  0
VERTEX
  5
7FA
  8
0
  6
CONTINUOUS
 62
     7
 10
309.128136151
 20
259.3108074551
 30
0.0
  0
VERTEX
  5
7FB
  8
0
  6
CONTINUOUS
 62
     7
 10
298.8515987625
 20
260.1541163212
 30
0.0
  0
VERTEX
  5
7FC
  8
0
  6
CONTINUOUS
 62
     7
 10
288.6151194205
 20
261.0931949502
 30
0.0
  0
VERTEX
  5
7FD
  8
0
  6
CONTINUOUS
 62
     7
 10
281.3472661753
 20
261.7874065226
 30
0.0
  0
VERTEX
  5
7FE
  8
0
  6
CONTINUOUS
 62
     7
 10
274.0845873584
 20
262.4682890063
 30
0.0
  0
VERTEX
  5
7FF
  8
0
  6
CONTINUOUS
 62
     7
 10
266.8153520306
 20
263.0843141859
 30
0.0
  0
VERTEX
  5
800
  8
0
  6
CONTINUOUS
 62
     7
 10
259.5065839221
 20
263.5750317758
 30
0.0
  0
VERTEX
  5
801
  8
0
  6
CONTINUOUS
 62
     7
 10
252.1187744667
 20
263.8667555338
 30
0.0
  0
VERTEX
  5
802
  8
0
  6
CONTINUOUS
 62
     7
 10
245.8500720193
 20
263.8818615859
 30
0.0
  0
VERTEX
  5
803
  8
0
  6
CONTINUOUS
 62
     7
 10
239.484575354
 20
263.6098967677
 30
0.0
  0
VERTEX
  5
804
  8
0
  6
CONTINUOUS
 62
     7
 10
233.1613123049
 20
263.0394095367
 30
0.0
  0
VERTEX
  5
805
  8
0
  6
CONTINUOUS
 62
     7
 10
227.0733534922
 20
262.2603395765
 30
0.0
  0
VERTEX
  5
806
  8
0
  6
CONTINUOUS
 62
     7
 10
221.1405679216
 20
261.3444061762
 30
0.0
  0
VERTEX
  5
807
  8
0
  6
CONTINUOUS
 62
     7
 10
215.487469696
 20
260.3832253998
 30
0.0
  0
SEQEND
  5
B63
  8
0
  6
CONTINUOUS
 62
     7
  0
LINE
  5
19B
  8
0
  6
CONTINUOUS
 62
     7
 10
213.8964056601
 20
216.6284930471
 30
0.0
 11
362.3684912552
 21
216.6284930471
 31
0.0
  0
ARC
  5
19C
  8
0
  6
CONTINUOUS
 62
     7
 10
340.2731379261
 20
250.4072109151
 30
0.0
 40
22.19114469570069
 50
5.325584876
 51
17.97099455
  0
ARC
  5
19D
  8
0
  6
CONTINUOUS
 62
     7
 10
365.7238002846
 20
238.2516880055
 30
0.0
 40
1.629273207612869
 50
181.5536731018
 51
265.0494527134
  0
LINE
  5
19E
  8
0
  6
CONTINUOUS
 62
     7
 10
366.0397424926
 20
236.6284927165
 30
0.0
 11
365.583200716
 21
236.6284927165
 31
0.0
  0
ARC
  5
19F
  8
0
  6
CONTINUOUS
 62
     7
 10
365.8991429239
 20
238.2516880055
 30
0.0
 40
1.629273207612869
 50
274.9505472866
 51
358.4463268982
  0
LINE
  5
1A0
  8
0
  6
CONTINUOUS
 62
     7
 10
388.4413361182
 20
216.6284930471
 30
0.0
 11
387.2359588374
 21
239.6284932082
 31
0.0
  0
LINE
  5
1A1
  8
0
  6
CONTINUOUS
 62
     7
 10
362.3684912552
 20
216.6284930471
 30
0.0
 11
388.4413361182
 21
216.6284930471
 31
0.0
  0
LINE
  5
1A2
  8
0
  6
CONTINUOUS
 62
     7
 10
367.5278171529
 20
238.2075128889
 30
0.0
 11
367.6775067677
 21
239.6284932082
 31
0.0
  0
LINE
  5
1A3
  8
0
  6
CONTINUOUS
 62
     7
 10
363.9454364409
 20
239.6284932082
 30
0.0
 11
364.0951260557
 21
238.2075128889
 31
0.0
  0
LINE
  5
1A4
  8
0
  6
CONTINUOUS
 62
     7
 10
388.9413371314
 20
216.6284930471
 30
0.0
 11
388.4413361182
 21
216.6284930471
 31
0.0
  0
POLYLINE
  5
1A5
  8
0
  6
CONTINUOUS
 62
     7
 66
     1
 10
0.0
 20
0.0
 30
0.0
  0
VERTEX
  5
808
  8
0
  6
CONTINUOUS
 62
     7
 10
361.3626479735
 20
257.2840707188
 30
0.0
  0
VERTEX
  5
809
  8
0
  6
CONTINUOUS
 62
     7
 10
354.3449908127
 20
257.328640092
 30
0.0
  0
VERTEX
  5
80A
  8
0
  6
CONTINUOUS
 62
     7
 10
350.2834334602
 20
257.3863597398
 30
0.0
  0
VERTEX
  5
80B
  8
0
  6
CONTINUOUS
 62
     7
 10
346.2279446055
 20
257.4676902776
 30
0.0
  0
VERTEX
  5
80C
  8
0
  6
CONTINUOUS
 62
     7
 10
338.1396278371
 20
257.7013442105
 30
0.0
  0
VERTEX
  5
80D
  8
0
  6
CONTINUOUS
 62
     7
 10
330.0916000833
 20
258.0295087581
 30
0.0
  0
VERTEX
  5
80E
  8
0
  6
CONTINUOUS
 62
     7
 10
322.0899149408
 20
258.4517219847
 30
0.0
  0
VERTEX
  5
80F
  8
0
  6
CONTINUOUS
 62
     7
 10
314.1352671762
 20
258.9632155185
 30
0.0
  0
VERTEX
  5
810
  8
0
  6
CONTINUOUS
 62
     7
 10
306.2208953877
 20
259.5539385265
 30
0.0
  0
VERTEX
  5
811
  8
0
  6
CONTINUOUS
 62
     7
 10
298.3362774928
 20
260.2139817362
 30
0.0
  0
VERTEX
  5
812
  8
0
  6
CONTINUOUS
 62
     7
 10
290.4679603041
 20
260.9314204937
 30
0.0
  0
VERTEX
  5
813
  8
0
  6
CONTINUOUS
 62
     7
 10
288.5011674469
 20
261.1169548517
 30
0.0
  0
VERTEX
  5
814
  8
0
  6
CONTINUOUS
 62
     7
 10
282.5213798885
 20
261.6874867862
 30
0.0
  0
VERTEX
  5
815
  8
0
  6
CONTINUOUS
 62
     7
 10
276.5269696345
 20
262.2554594463
 30
0.0
  0
VERTEX
  5
816
  8
0
  6
CONTINUOUS
 62
     7
 10
272.5658759107
 20
262.6163879221
 30
0.0
  0
VERTEX
  5
817
  8
0
  6
CONTINUOUS
 62
     7
 10
264.5940042664
 20
263.2617944663
 30
0.0
  0
VERTEX
  5
818
  8
0
  6
CONTINUOUS
 62
     7
 10
256.5469935169
 20
263.7337403184
 30
0.0
  0
VERTEX
  5
819
  8
0
  6
CONTINUOUS
 62
     7
 10
252.4964443972
 20
263.8703429883
 30
0.0
  0
VERTEX
  5
81A
  8
0
  6
CONTINUOUS
 62
     7
 10
248.4345368673
 20
263.9178851431
 30
0.0
  0
VERTEX
  5
81B
  8
0
  6
CONTINUOUS
 62
     7
 10
244.3687364091
 20
263.8579899257
 30
0.0
  0
VERTEX
  5
81C
  8
0
  6
CONTINUOUS
 62
     7
 10
240.3156652679
 20
263.6753352171
 30
0.0
  0
VERTEX
  5
81D
  8
0
  6
CONTINUOUS
 62
     7
 10
236.2894273927
 20
263.3671158736
 30
0.0
  0
VERTEX
  5
81E
  8
0
  6
CONTINUOUS
 62
     7
 10
232.3136560251
 20
262.9544021373
 30
0.0
  0
VERTEX
  5
81F
  8
0
  6
CONTINUOUS
 62
     7
 10
228.4045487275
 20
262.4577352589
 30
0.0
  0
VERTEX
  5
820
  8
0
  6
CONTINUOUS
 62
     7
 10
224.5858877529
 20
261.9015270656
 30
0.0
  0
VERTEX
  5
821
  8
0
  6
CONTINUOUS
 62
     7
 10
220.8822860946
 20
261.3122382944
 30
0.0
  0
VERTEX
  5
822
  8
0
  6
CONTINUOUS
 62
     7
 10
215.3712480893
 20
260.3721650129
 30
0.0
  0
SEQEND
  5
B62
  8
0
  6
CONTINUOUS
 62
     7
  0
POLYLINE
  5
1A6
  8
0
  6
CONTINUOUS
 62
     7
 66
     1
 10
0.0
 20
0.0
 30
0.0
  0
VERTEX
  5
823
  8
0
  6
CONTINUOUS
 62
     7
 10
215.3712480893
 20
260.3721650129
 30
0.0
  0
VERTEX
  5
824
  8
0
  6
CONTINUOUS
 62
     7
 10
215.3109728922
 20
260.3829720801
 30
0.0
  0
VERTEX
  5
825
  8
0
  6
CONTINUOUS
 62
     7
 10
215.2546614041
 20
260.4232163912
 30
0.0
  0
VERTEX
  5
826
  8
0
  6
CONTINUOUS
 62
     7
 10
215.2051969995
 20
260.4872913843
 30
0.0
  0
VERTEX
  5
827
  8
0
  6
CONTINUOUS
 62
     7
 10
215.164896809
 20
260.5702647751
 30
0.0
  0
VERTEX
  5
828
  8
0
  6
CONTINUOUS
 62
     7
 10
215.1358544459
 20
260.6672899609
 30
0.0
  0
VERTEX
  5
829
  8
0
  6
CONTINUOUS
 62
     7
 10
215.1200145115
 20
260.7733042722
 30
0.0
  0
VERTEX
  5
82A
  8
0
  6
CONTINUOUS
 62
     7
 10
215.1193439593
 20
260.8827980047
 30
0.0
  0
VERTEX
  5
82B
  8
0
  6
CONTINUOUS
 62
     7
 10
215.1361226668
 20
260.9887266343
 30
0.0
  0
SEQEND
  5
B61
  8
0
  6
CONTINUOUS
 62
     7
  0
POLYLINE
  5
1A7
  8
0
  6
CONTINUOUS
 62
     7
 66
     1
 10
0.0
 20
0.0
 30
0.0
  0
VERTEX
  5
82C
  8
0
  6
CONTINUOUS
 62
     7
 10
215.1361226668
 20
260.9887266343
 30
0.0
  0
VERTEX
  5
82D
  8
0
  6
CONTINUOUS
 62
     7
 10
220.6553265085
 20
261.9327300971
 30
0.0
  0
VERTEX
  5
82E
  8
0
  6
CONTINUOUS
 62
     7
 10
224.3848636379
 20
262.5279607063
 30
0.0
  0
VERTEX
  5
82F
  8
0
  6
CONTINUOUS
 62
     7
 10
228.2344072689
 20
263.0905950254
 30
0.0
  0
VERTEX
  5
830
  8
0
  6
CONTINUOUS
 62
     7
 10
232.1748852362
 20
263.593192566
 30
0.0
  0
VERTEX
  5
831
  8
0
  6
CONTINUOUS
 62
     7
 10
236.1863374342
 20
264.0113340502
 30
0.0
  0
VERTEX
  5
832
  8
0
  6
CONTINUOUS
 62
     7
 10
240.2484349539
 20
264.3236400371
 30
0.0
  0
VERTEX
  5
833
  8
0
  6
CONTINUOUS
 62
     7
 10
244.3368441989
 20
264.5087273603
 30
0.0
  0
VERTEX
  5
834
  8
0
  6
CONTINUOUS
 62
     7
 10
248.4380088379
 20
264.5694197899
 30
0.0
  0
VERTEX
  5
835
  8
0
  6
CONTINUOUS
 62
     7
 10
252.5263510277
 20
264.5214007979
 30
0.0
  0
VERTEX
  5
836
  8
0
  6
CONTINUOUS
 62
     7
 10
256.6033087303
 20
264.3834756499
 30
0.0
  0
VERTEX
  5
837
  8
0
  6
CONTINUOUS
 62
     7
 10
264.6859574695
 20
263.9083334988
 30
0.0
  0
VERTEX
  5
838
  8
0
  6
CONTINUOUS
 62
     7
 10
272.6808495452
 20
263.2601888662
 30
0.0
  0
VERTEX
  5
839
  8
0
  6
CONTINUOUS
 62
     7
 10
276.6490827878
 20
262.8984408265
 30
0.0
  0
VERTEX
  5
83A
  8
0
  6
CONTINUOUS
 62
     7
 10
282.649163865
 20
262.3302036708
 30
0.0
  0
VERTEX
  5
83B
  8
0
  6
CONTINUOUS
 62
     7
 10
288.6304401425
 20
261.7603944426
 30
0.0
  0
VERTEX
  5
83C
  8
0
  6
CONTINUOUS
 62
     7
 10
290.5969126248
 20
261.5752996689
 30
0.0
  0
VERTEX
  5
83D
  8
0
  6
CONTINUOUS
 62
     7
 10
298.4603357134
 20
260.8604835158
 30
0.0
  0
VERTEX
  5
83E
  8
0
  6
CONTINUOUS
 62
     7
 10
306.3359593605
 20
260.2040426617
 30
0.0
  0
VERTEX
  5
83F
  8
0
  6
CONTINUOUS
 62
     7
 10
314.2384819319
 20
259.6174994295
 30
0.0
  0
VERTEX
  5
840
  8
0
  6
CONTINUOUS
 62
     7
 10
322.1785898884
 20
259.1104576176
 30
0.0
  0
VERTEX
  5
841
  8
0
  6
CONTINUOUS
 62
     7
 10
330.163561516
 20
258.6926216071
 30
0.0
  0
VERTEX
  5
842
  8
0
  6
CONTINUOUS
 62
     7
 10
338.1941437353
 20
258.3683276361
 30
0.0
  0
VERTEX
  5
843
  8
0
  6
CONTINUOUS
 62
     7
 10
346.264575385
 20
258.1377656942
 30
0.0
  0
VERTEX
  5
844
  8
0
  6
CONTINUOUS
 62
     7
 10
350.3109670808
 20
258.0575899964
 30
0.0
  0
VERTEX
  5
845
  8
0
  6
CONTINUOUS
 62
     7
 10
354.363345318
 20
258.0006675606
 30
0.0
  0
VERTEX
  5
846
  8
0
  6
CONTINUOUS
 62
     7
 10
362.3691841592
 20
257.9561093634
 30
0.0
  0
SEQEND
  5
B60
  8
0
  6
CONTINUOUS
 62
     7
  0
LINE
  5
1A8
  8
0
  6
CONTINUOUS
 62
     7
 10
362.3691841592
 20
257.9549917763
 30
0.0
 11
362.3691841592
 21
257.9561093634
 31
0.0
  0
POLYLINE
  5
1A9
  8
0
  6
CONTINUOUS
 62
     7
 66
     1
 10
0.0
 20
0.0
 30
0.0
  0
VERTEX
  5
847
  8
0
  6
CONTINUOUS
 62
     7
 10
362.3691841592
 20
257.9549917763
 30
0.0
  0
VERTEX
  5
848
  8
0
  6
CONTINUOUS
 62
     7
 10
362.3152568569
 20
257.9532148128
 30
0.0
  0
VERTEX
  5
849
  8
0
  6
CONTINUOUS
 62
     7
 10
362.0009466638
 20
257.9427281206
 30
0.0
  0
VERTEX
  5
84A
  8
0
  6
CONTINUOUS
 62
     7
 10
361.2768470873
 20
257.9178543573
 30
0.0
  0
SEQEND
  5
B5F
  8
0
  6
CONTINUOUS
 62
     7
  0
ARC
  5
1AA
  8
0
  6
CONTINUOUS
 62
     7
 10
364.6544401772
 20
258.0524093202
 30
0.0
 40
3.380272195945163
 50
182.2813159538
 51
193.1382109335
  0
POLYLINE
  5
1AB
  8
0
  6
CONTINUOUS
 62
     7
 66
     1
 10
0.0
 20
0.0
 30
0.0
  0
VERTEX
  5
84B
  8
0
  6
CONTINUOUS
 62
     7
 10
362.3684912552
 20
258.4368506258
 30
0.0
  0
VERTEX
  5
84C
  8
0
  6
CONTINUOUS
 62
     7
 10
358.2041158904
 20
258.4509508496
 30
0.0
  0
VERTEX
  5
84D
  8
0
  6
CONTINUOUS
 62
     7
 10
349.8743332555
 20
258.5568683034
 30
0.0
  0
VERTEX
  5
84E
  8
0
  6
CONTINUOUS
 62
     7
 10
341.5705121686
 20
258.768870849
 30
0.0
  0
VERTEX
  5
84F
  8
0
  6
CONTINUOUS
 62
     7
 10
333.3150043716
 20
259.0855391508
 30
0.0
  0
VERTEX
  5
850
  8
0
  6
CONTINUOUS
 62
     7
 10
325.1066512992
 20
259.5046790128
 30
0.0
  0
VERTEX
  5
851
  8
0
  6
CONTINUOUS
 62
     7
 10
316.9460508605
 20
260.0219392961
 30
0.0
  0
VERTEX
  5
852
  8
0
  6
CONTINUOUS
 62
     7
 10
308.8299695035
 20
260.625354368
 30
0.0
  0
VERTEX
  5
853
  8
0
  6
CONTINUOUS
 62
     7
 10
292.6948680568
 20
262.0383010989
 30
0.0
  0
VERTEX
  5
854
  8
0
  6
CONTINUOUS
 62
     7
 10
284.6390882139
 20
262.8097193127
 30
0.0
  0
VERTEX
  5
855
  8
0
  6
CONTINUOUS
 62
     7
 10
276.5588096907
 20
263.5759854501
 30
0.0
  0
VERTEX
  5
856
  8
0
  6
CONTINUOUS
 62
     7
 10
268.4253722062
 20
264.2812164312
 30
0.0
  0
VERTEX
  5
857
  8
0
  6
CONTINUOUS
 62
     7
 10
260.2139979233
 20
264.8441226965
 30
0.0
  0
VERTEX
  5
858
  8
0
  6
CONTINUOUS
 62
     7
 10
256.0758374264
 20
265.0437982565
 30
0.0
  0
VERTEX
  5
859
  8
0
  6
CONTINUOUS
 62
     7
 10
251.9206523527
 20
265.1681000179
 30
0.0
  0
VERTEX
  5
85A
  8
0
  6
CONTINUOUS
 62
     7
 10
247.7500259508
 20
265.2002194708
 30
0.0
  0
VERTEX
  5
85B
  8
0
  6
CONTINUOUS
 62
     7
 10
243.5796938469
 20
265.1234002596
 30
0.0
  0
VERTEX
  5
85C
  8
0
  6
CONTINUOUS
 62
     7
 10
239.4207723071
 20
264.9212771838
 30
0.0
  0
VERTEX
  5
85D
  8
0
  6
CONTINUOUS
 62
     7
 10
235.2981723477
 20
264.6011145597
 30
0.0
  0
VERTEX
  5
85E
  8
0
  6
CONTINUOUS
 62
     7
 10
231.2315001716
 20
264.1822764462
 30
0.0
  0
VERTEX
  5
85F
  8
0
  6
CONTINUOUS
 62
     7
 10
227.2448956599
 20
263.6870549803
 30
0.0
  0
VERTEX
  5
860
  8
0
  6
CONTINUOUS
 62
     7
 10
224.0653678407
 20
263.2421472853
 30
0.0
  0
VERTEX
  5
861
  8
0
  6
CONTINUOUS
 62
     7
 10
220.9631844987
 20
262.7751225417
 30
0.0
  0
VERTEX
  5
862
  8
0
  6
CONTINUOUS
 62
     7
 10
215.3644755115
 20
261.8718104249
 30
0.0
  0
SEQEND
  5
B5E
  8
0
  6
CONTINUOUS
 62
     7
  0
LINE
  5
1AC
  8
0
  6
CONTINUOUS
 62
     7
 10
362.430316173
 20
258.4368357247
 30
0.0
 11
362.3684912552
 21
258.4368506258
 31
0.0
  0
LINE
  5
1AD
  8
0
  6
CONTINUOUS
 62
     7
 10
362.4032482137
 20
257.9561130887
 30
0.0
 11
362.430316173
 21
258.4368357247
 31
0.0
  0
LINE
  5
1AE
  8
0
  6
CONTINUOUS
 62
     7
 10
362.3691841592
 20
257.9561093634
 30
0.0
 11
362.4032482137
 21
257.9561130887
 31
0.0
  0
POLYLINE
  5
1AF
  8
0
  6
CONTINUOUS
 62
     7
 66
     1
 10
0.0
 20
0.0
 30
0.0
  0
VERTEX
  5
863
  8
0
  6
CONTINUOUS
 62
     7
 10
215.1361226668
 20
260.9887266343
 30
0.0
  0
VERTEX
  5
864
  8
0
  6
CONTINUOUS
 62
     7
 10
215.2466073264
 20
261.416009981
 30
0.0
  0
VERTEX
  5
865
  8
0
  6
CONTINUOUS
 62
     7
 10
215.3644606103
 20
261.8718104249
 30
0.0
  0
SEQEND
  5
B5D
  8
0
  6
CONTINUOUS
 62
     7
  0
ARC
  5
1B0
  8
0
  6
CONTINUOUS
 62
     7
 10
386.7593354706
 20
256.5507169914
 30
0.0
 40
1.89151622191326
 50
6.9112143919
 51
85.6705593655
  0
LINE
  5
1B1
  8
0
  6
CONTINUOUS
 62
     7
 10
388.0012079706
 20
256.7783253079
 30
0.0
 11
388.6371075739
 21
256.7783253079
 31
0.0
  0
POLYLINE
  5
1B2
  8
0
  6
CONTINUOUS
 62
     7
 66
     1
 10
0.0
 20
0.0
 30
0.0
  0
VERTEX
  5
866
  8
0
  6
CONTINUOUS
 62
     7
 10
388.0002170433
 20
256.8179698473
 30
0.0
  0
VERTEX
  5
867
  8
0
  6
CONTINUOUS
 62
     7
 10
388.00120052
 20
256.7783849126
 30
0.0
  0
VERTEX
  5
868
  8
0
  6
CONTINUOUS
 62
     7
 10
388.0012079706
 20
256.7783253079
 30
0.0
  0
SEQEND
  5
B5C
  8
0
  6
CONTINUOUS
 62
     7
  0
ARC
  5
1B3
  8
0
  6
CONTINUOUS
 62
     7
 10
386.8621490763
 20
256.8177679963
 30
0.0
 40
1.138067984937439
 50
0.0101621411
 51
89.3507304666
  0
LINE
  5
1B4
  8
0
  6
CONTINUOUS
 62
     7
 10
386.8750452628
 20
257.9557629114
 30
0.0
 11
386.9021281232
 21
258.4368357247
 31
0.0
  0
LINE
  5
1B5
  8
0
  6
CONTINUOUS
 62
     7
 10
386.8409290542
 20
257.2833368366
 30
0.0
 11
370.2599972119
 21
257.2833368366
 31
0.0
  0
LINE
  5
1B6
  8
0
  6
CONTINUOUS
 62
     7
 10
386.840310656
 20
257.2532811945
 30
0.0
 11
386.8409290542
 21
257.2833368366
 31
0.0
  0
LINE
  5
1B7
  8
0
  6
CONTINUOUS
 62
     7
 10
370.2410354843
 20
257.2532811945
 30
0.0
 11
370.2599972119
 21
257.2833368366
 31
0.0
  0
POLYLINE
  5
1B8
  8
0
  6
CONTINUOUS
 62
     7
 66
     1
 10
0.0
 20
0.0
 30
0.0
  0
VERTEX
  5
869
  8
0
  6
CONTINUOUS
 62
     7
 10
215.487469696
 20
260.3832253998
 30
0.0
  0
VERTEX
  5
86A
  8
0
  6
CONTINUOUS
 62
     7
 10
215.451051258
 20
260.3797571545
 30
0.0
  0
VERTEX
  5
86B
  8
0
  6
CONTINUOUS
 62
     7
 10
215.3712480893
 20
260.3721650129
 30
0.0
  0
SEQEND
  5
B5B
  8
0
  6
CONTINUOUS
 62
     7
  0
LINE
  5
1B9
  8
0
  6
CONTINUOUS
 62
     7
 10
361.3819896807
 20
257.2534078544
 30
0.0
 11
361.3626479735
 21
257.2840707188
 31
0.0
  0
LINE
  5
1BA
  8
0
  6
CONTINUOUS
 62
     7
 10
387.348931991
 20
256.7783551102
 30
0.0
 11
387.3486414184
 21
256.7923174983
 31
0.0
  0
POLYLINE
  5
1BB
  8
0
  6
CONTINUOUS
 62
     7
 66
     1
 10
0.0
 20
0.0
 30
0.0
  0
VERTEX
  5
86C
  8
0
  6
CONTINUOUS
 62
     7
 10
386.8646442522
 20
257.2831952756
 30
0.0
  0
VERTEX
  5
86D
  8
0
  6
CONTINUOUS
 62
     7
 10
386.8409886588
 20
257.2833368366
 30
0.0
  0
VERTEX
  5
86E
  8
0
  6
CONTINUOUS
 62
     7
 10
386.8409290542
 20
257.2833368366
 30
0.0
  0
SEQEND
  5
B5A
  8
0
  6
CONTINUOUS
 62
     7
  0
ARC
  5
1BC
  8
0
  6
CONTINUOUS
 62
     7
 10
386.8491652212
 20
256.7838878247
 30
0.0
 40
0.4995473260731227
 50
0.9668906645
 51
88.2243421437
  0
LINE
  5
1BD
  8
0
  6
CONTINUOUS
 62
     7
 10
389.091935717
 20
257.6401563173
 30
0.0
 11
389.1184746851
 21
257.1337887829
 31
0.0
  0
LINE
  5
1BE
  8
0
  6
CONTINUOUS
 62
     7
 10
391.2412717571
 20
216.6284930471
 30
0.0
 11
389.1184746851
 21
257.1337887829
 31
0.0
  0
LINE
  5
1BF
  8
0
  6
CONTINUOUS
 62
     7
 10
390.7412707438
 20
216.6284930471
 30
0.0
 11
388.6371075739
 21
256.7783253079
 31
0.0
  0
LINE
  5
1C0
  8
0
  6
CONTINUOUS
 62
     7
 10
362.430316173
 20
258.4368357247
 30
0.0
 11
386.9021281232
 21
258.4368357247
 31
0.0
  0
LINE
  5
1C1
  8
0
  6
CONTINUOUS
 62
     7
 10
362.3684912552
 20
259.0605424529
 30
0.0
 11
362.3684912552
 21
258.4368506258
 31
0.0
  0
ARC
  5
1C2
  8
0
  6
CONTINUOUS
 62
     7
 10
387.5941359854
 20
257.5606334651
 30
0.0
 40
1.499909304008602
 50
3.0391578361
 51
90.0372048738
  0
LINE
  5
1C3
  8
0
  6
CONTINUOUS
 62
     7
 10
362.3684912552
 20
259.0605424529
 30
0.0
 11
387.593162023
 21
259.0605424529
 31
0.0
  0
LINE
  5
1C4
  8
0
  6
CONTINUOUS
 62
     7
 10
390.7412707438
 20
216.6284930471
 30
0.0
 11
391.2412717571
 21
216.6284930471
 31
0.0
  0
POLYLINE
  5
1C5
  8
0
  6
CONTINUOUS
 62
     7
 66
     1
 10
0.0
 20
0.0
 30
0.0
  0
VERTEX
  5
86F
  8
0
  6
CONTINUOUS
 62
     7
 10
215.1224955549
 20
261.8326389974
 30
0.0
  0
VERTEX
  5
870
  8
0
  6
CONTINUOUS
 62
     7
 10
215.0824188818
 20
261.8266077524
 30
0.0
  0
VERTEX
  5
871
  8
0
  6
CONTINUOUS
 62
     7
 10
214.869168364
 20
261.796432901
 30
0.0
  0
SEQEND
  5
B59
  8
0
  6
CONTINUOUS
 62
     7
  0
POLYLINE
  5
1C6
  8
0
  6
CONTINUOUS
 62
     7
 66
     1
 10
0.0
 20
0.0
 30
0.0
  0
VERTEX
  5
872
  8
0
  6
CONTINUOUS
 62
     7
 10
214.8691087593
 20
262.0745258218
 30
0.0
  0
VERTEX
  5
873
  8
0
  6
CONTINUOUS
 62
     7
 10
214.8691087593
 20
262.0744662171
 30
0.0
  0
VERTEX
  5
874
  8
0
  6
CONTINUOUS
 62
     7
 10
214.869168364
 20
261.796432901
 30
0.0
  0
SEQEND
  5
B58
  8
0
  6
CONTINUOUS
 62
     7
  0
LINE
  5
1C7
  8
0
  6
CONTINUOUS
 62
     7
 10
215.1224955549
 20
261.8326389974
 30
0.0
 11
215.3644606103
 21
261.8718104249
 31
0.0
  0
POLYLINE
  5
1C8
  8
0
  6
CONTINUOUS
 62
     7
 66
     1
 10
0.0
 20
0.0
 30
0.0
  0
VERTEX
  5
875
  8
0
  6
CONTINUOUS
 62
     7
 10
362.3684912552
 20
259.0605424529
 30
0.0
  0
VERTEX
  5
876
  8
0
  6
CONTINUOUS
 62
     7
 10
351.8344319989
 20
259.1394478267
 30
0.0
  0
VERTEX
  5
877
  8
0
  6
CONTINUOUS
 62
     7
 10
341.3756012549
 20
259.3760894423
 30
0.0
  0
VERTEX
  5
878
  8
0
  6
CONTINUOUS
 62
     7
 10
330.9839672973
 20
259.7703741675
 30
0.0
  0
VERTEX
  5
879
  8
0
  6
CONTINUOUS
 62
     7
 10
320.6515710433
 20
260.3219071215
 30
0.0
  0
VERTEX
  5
87A
  8
0
  6
CONTINUOUS
 62
     7
 10
310.3732119878
 20
261.0204437559
 30
0.0
  0
VERTEX
  5
87B
  8
0
  6
CONTINUOUS
 62
     7
 10
300.147050303
 20
261.8437664395
 30
0.0
  0
VERTEX
  5
87C
  8
0
  6
CONTINUOUS
 62
     7
 10
289.9645830137
 20
262.7664202636
 30
0.0
  0
VERTEX
  5
87D
  8
0
  6
CONTINUOUS
 62
     7
 10
279.7754721348
 20
263.7371787613
 30
0.0
  0
VERTEX
  5
87E
  8
0
  6
CONTINUOUS
 62
     7
 10
273.8021507491
 20
264.2938004618
 30
0.0
  0
VERTEX
  5
87F
  8
0
  6
CONTINUOUS
 62
     7
 10
267.8236558666
 20
264.8052232152
 30
0.0
  0
VERTEX
  5
880
  8
0
  6
CONTINUOUS
 62
     7
 10
261.8217046936
 20
265.2375953084
 30
0.0
  0
VERTEX
  5
881
  8
0
  6
CONTINUOUS
 62
     7
 10
255.7766630878
 20
265.5542673355
 30
0.0
  0
VERTEX
  5
882
  8
0
  6
CONTINUOUS
 62
     7
 10
249.6604665746
 20
265.7023289984
 30
0.0
  0
VERTEX
  5
883
  8
0
  6
CONTINUOUS
 62
     7
 10
243.4206053247
 20
265.6158165818
 30
0.0
  0
VERTEX
  5
884
  8
0
  6
CONTINUOUS
 62
     7
 10
237.5043898453
 20
265.2605915254
 30
0.0
  0
VERTEX
  5
885
  8
0
  6
CONTINUOUS
 62
     7
 10
231.6387265553
 20
264.6629059499
 30
0.0
  0
VERTEX
  5
886
  8
0
  6
CONTINUOUS
 62
     7
 10
225.8499458064
 20
263.881079275
 30
0.0
  0
VERTEX
  5
887
  8
0
  6
CONTINUOUS
 62
     7
 10
220.2286168565
 20
262.9937076753
 30
0.0
  0
VERTEX
  5
888
  8
0
  6
CONTINUOUS
 62
     7
 10
214.8691087593
 20
262.0745258218
 30
0.0
  0
SEQEND
  5
B57
  8
0
  6
CONTINUOUS
 62
     7
  0
LINE
  5
1C9
  8
0
  6
CONTINUOUS
 62
     7
 10
388.0012079706
 20
256.7783253079
 30
0.0
 11
390.1053711404
 21
216.6284930471
 31
0.0
  0
LINE
  5
1CA
  8
0
  6
CONTINUOUS
 62
     7
 10
390.1053711404
 20
216.6284930471
 30
0.0
 11
390.7412707438
 21
216.6284930471
 31
0.0
  0
LINE
  5
1CB
  8
0
  6
CONTINUOUS
 62
     7
 10
386.8409290542
 20
257.9561130887
 30
0.0
 11
386.8750452628
 21
257.9557629114
 31
0.0
  0
LINE
  5
1CC
  8
0
  6
CONTINUOUS
 62
     7
 10
370.3475415339
 20
257.9561130887
 30
0.0
 11
386.8409290542
 21
257.9561130887
 31
0.0
  0
LINE
  5
1CD
  8
0
  6
CONTINUOUS
 62
     7
 10
361.2877845396
 20
257.6284924334
 30
0.0
 11
370.3206300368
 21
257.6284924334
 31
0.0
  0
ARC
  5
1CE
  8
0
  6
CONTINUOUS
 62
     7
 10
396.7294095009
 20
257.4670045599
 30
0.0
 40
9.866477550977859
 50
177.160561453
 51
181.067463586
  0
ARC
  5
1CF
  8
0
  6
CONTINUOUS
 62
     7
 10
387.8914840735
 20
251.2919002368
 30
0.0
 40
5.527139241832374
 50
88.8727727119
 51
95.6363360139
  0
POLYLINE
  5
1D0
  8
0
  6
CONTINUOUS
 62
     7
 66
     1
 10
0.0
 20
0.0
 30
0.0
  0
VERTEX
  5
889
  8
0
  6
CONTINUOUS
 62
     7
 10
387.3507126798
 20
256.7442351764
 30
0.0
  0
VERTEX
  5
88A
  8
0
  6
CONTINUOUS
 62
     7
 10
387.3713731398
 20
256.7453155106
 30
0.0
  0
VERTEX
  5
88B
  8
0
  6
CONTINUOUS
 62
     7
 10
387.4204501142
 20
256.7478896862
 30
0.0
  0
VERTEX
  5
88C
  8
0
  6
CONTINUOUS
 62
     7
 10
387.4942630162
 20
256.7517565375
 30
0.0
  0
VERTEX
  5
88D
  8
0
  6
CONTINUOUS
 62
     7
 10
387.5872611632
 20
256.7566292172
 30
0.0
  0
VERTEX
  5
88E
  8
0
  6
CONTINUOUS
 62
     7
 10
387.6924633612
 20
256.7621426469
 30
0.0
  0
VERTEX
  5
88F
  8
0
  6
CONTINUOUS
 62
     7
 10
387.8019496431
 20
256.7678833192
 30
0.0
  0
VERTEX
  5
890
  8
0
  6
CONTINUOUS
 62
     7
 10
387.907509469
 20
256.7734153753
 30
0.0
  0
VERTEX
  5
891
  8
0
  6
CONTINUOUS
 62
     7
 10
388.0012079706
 20
256.7783253079
 30
0.0
  0
SEQEND
  5
B56
  8
0
  6
CONTINUOUS
 62
     7
  0
ARC
  5
1D1
  8
0
  6
CONTINUOUS
 62
     7
 10
387.9074903506
 20
252.968915787
 30
0.0
 40
3.85017082717607
 50
88.6199672387
 51
98.3415444881
  0
LINE
  5
1D2
  8
0
  6
CONTINUOUS
 62
     7
 10
386.8409290542
 20
257.2833368366
 30
0.0
 11
386.8409290542
 21
257.9561130887
 31
0.0
  0
ARC
  5
1D3
  8
0
  6
CONTINUOUS
 62
     7
 10
367.1589872517
 20
258.0289365213
 30
0.0
 40
3.189385781429867
 50
346.4805568666
 51
358.6916484051
  0
LINE
  5
1D4
  8
0
  6
CONTINUOUS
 62
     7
 10
390.1053711404
 20
216.6284930471
 30
0.0
 11
389.4530877103
 21
216.6284930471
 31
0.0
  0
LINE
  5
1D5
  8
0
  6
CONTINUOUS
 62
     7
 10
213.0070447554
 20
258.9362630432
 30
0.0
 11
210.7722505559
 21
216.6284930471
 31
0.0
  0
LINE
  5
1D6
  8
0
  6
CONTINUOUS
 62
     7
 10
213.5070457687
 20
258.9362630432
 30
0.0
 11
213.0070447554
 21
258.9362630432
 31
0.0
  0
LINE
  5
1D7
  8
0
  6
CONTINUOUS
 62
     7
 10
213.5070457687
 20
258.9362630432
 30
0.0
 11
211.2722441186
 21
216.6284930471
 31
0.0
  0
LINE
  5
1D8
  8
0
  6
CONTINUOUS
 62
     7
 10
211.2722441186
 20
216.6284930471
 30
0.0
 11
210.7722505559
 21
216.6284930471
 31
0.0
  0
LINE
  5
1D9
  8
0
  6
CONTINUOUS
 62
     7
 10
213.5070457687
 20
258.9362630432
 30
0.0
 11
213.9499008288
 21
258.9362630432
 31
0.0
  0
LINE
  5
1DA
  8
0
  6
CONTINUOUS
 62
     7
 10
211.8808596959
 20
216.6284930471
 30
0.0
 11
213.9499008288
 21
258.9362630432
 31
0.0
  0
LINE
  5
1DB
  8
0
  6
CONTINUOUS
 62
     7
 10
211.2722441186
 20
216.6284930471
 30
0.0
 11
211.8808596959
 21
216.6284930471
 31
0.0
  0
POLYLINE
  5
1DC
  8
0
  6
CONTINUOUS
 62
     7
 66
     1
 10
0.0
 20
0.0
 30
0.0
  0
VERTEX
  5
892
  8
0
  6
CONTINUOUS
 62
     7
 10
213.9499008288
 20
258.9362630432
 30
0.0
  0
VERTEX
  5
893
  8
0
  6
CONTINUOUS
 62
     7
 10
214.0575244655
 20
258.9361289328
 30
0.0
  0
VERTEX
  5
894
  8
0
  6
CONTINUOUS
 62
     7
 10
214.1691565146
 20
258.9360395258
 30
0.0
  0
VERTEX
  5
895
  8
0
  6
CONTINUOUS
 62
     7
 10
214.2737626662
 20
258.9361475592
 30
0.0
  0
VERTEX
  5
896
  8
0
  6
CONTINUOUS
 62
     7
 10
214.3644809355
 20
258.9362630432
 30
0.0
  0
VERTEX
  5
897
  8
0
  6
CONTINUOUS
 62
     7
 10
214.4533589115
 20
258.9361885374
 30
0.0
  0
VERTEX
  5
898
  8
0
  6
CONTINUOUS
 62
     7
 10
214.5272165169
 20
258.9361252075
 30
0.0
  0
VERTEX
  5
899
  8
0
  6
CONTINUOUS
 62
     7
 10
214.5786553254
 20
258.9361810868
 30
0.0
  0
VERTEX
  5
89A
  8
0
  6
CONTINUOUS
 62
     7
 10
214.6010890235
 20
258.9362630432
 30
0.0
  0
SEQEND
  5
B55
  8
0
  6
CONTINUOUS
 62
     7
  0
LINE
  5
1DD
  8
0
  6
CONTINUOUS
 62
     7
 10
212.5320478906
 20
216.6284930471
 30
0.0
 11
211.8808596959
 21
216.6284930471
 31
0.0
  0
LINE
  5
1DE
  8
0
  6
CONTINUOUS
 62
     7
 10
213.5070457687
 20
258.9362630432
 30
0.0
 11
213.5073512425
 21
258.9711429363
 31
0.0
  0
ARC
  5
1DF
  8
0
  6
CONTINUOUS
 62
     7
 10
216.1155219523
 20
259.471475986
 30
0.0
 40
2.655727322616076
 50
124.6434206724
 51
190.8592934154
  0
POLYLINE
  5
1E0
  8
0
  6
CONTINUOUS
 62
     7
 66
     1
 10
0.0
 20
0.0
 30
0.0
  0
VERTEX
  5
89B
  8
0
  6
CONTINUOUS
 62
     7
 10
214.7705524792
 20
261.768727917
 30
0.0
  0
VERTEX
  5
89C
  8
0
  6
CONTINUOUS
 62
     7
 10
214.6331935753
 20
261.6800771838
 30
0.0
  0
VERTEX
  5
89D
  8
0
  6
CONTINUOUS
 62
     7
 10
214.6058275928
 20
261.6563582605
 30
0.0
  0
SEQEND
  5
B54
  8
0
  6
CONTINUOUS
 62
     7
  0
LINE
  5
1E1
  8
0
  6
CONTINUOUS
 62
     7
 10
214.7705524792
 20
261.768727917
 30
0.0
 11
215.1224955549
 21
261.8326389974
 31
0.0
  0
LINE
  5
1E2
  8
0
  6
CONTINUOUS
 62
     7
 10
214.6058275928
 20
261.6563582605
 30
0.0
 11
214.6059691538
 21
262.0235377734
 31
0.0
  0
POLYLINE
  5
1E3
  8
0
  6
CONTINUOUS
 62
     7
 66
     1
 10
0.0
 20
0.0
 30
0.0
  0
VERTEX
  5
89E
  8
0
  6
CONTINUOUS
 62
     7
 10
214.869168364
 20
261.796432901
 30
0.0
  0
VERTEX
  5
89F
  8
0
  6
CONTINUOUS
 62
     7
 10
214.7999524702
 20
261.7796877211
 30
0.0
  0
VERTEX
  5
8A0
  8
0
  6
CONTINUOUS
 62
     7
 10
214.7705524792
 20
261.768727917
 30
0.0
  0
SEQEND
  5
B53
  8
0
  6
CONTINUOUS
 62
     7
  0
LINE
  5
1E4
  8
0
  6
CONTINUOUS
 62
     7
 10
214.6059691538
 20
262.0235377734
 30
0.0
 11
214.7484913101
 21
262.0521927064
 31
0.0
  0
LINE
  5
1E5
  8
0
  6
CONTINUOUS
 62
     7
 10
214.7484913101
 20
262.0521927064
 30
0.0
 11
214.8691087593
 21
262.0745258218
 31
0.0
  0
LINE
  5
1E6
  8
0
  6
CONTINUOUS
 62
     7
 10
213.0088179936
 20
258.9711429363
 30
0.0
 11
213.5073512425
 21
258.9711429363
 31
0.0
  0
ARC
  5
1E7
  8
0
  6
CONTINUOUS
 62
     7
 10
203.9761197425
 20
259.4128659009
 30
0.0
 40
9.043492515248786
 50
356.9790444717
 51
357.2003143852
  0
ARC
  5
1E8
  8
0
  6
CONTINUOUS
 62
     7
 10
214.5822056967
 20
260.489091415
 30
0.0
 40
1.497356914913716
 50
101.7320235541
 51
177.2094262341
  0
LINE
  5
1E9
  8
0
  6
CONTINUOUS
 62
     7
 10
214.6059691538
 20
262.0235377734
 30
0.0
 11
214.2777412762
 21
261.9551675206
 31
0.0
  0
LINE
  5
1EA
  8
0
  6
CONTINUOUS
 62
     7
 10
213.0866244068
 20
260.5619909053
 30
0.0
 11
213.0088179936
 21
258.9711429363
 31
0.0
  0
LINE
  5
1EB
  8
0
  6
CONTINUOUS
 62
     7
 10
370.7803010573
 20
215.6284929996
 30
0.0
 11
372.1981465449
 21
215.6284929996
 31
0.0
  0
LINE
  5
1EC
  8
0
  6
CONTINUOUS
 62
     7
 10
370.7803010573
 20
215.6284929996
 30
0.0
 11
370.7628443469
 21
216.6284930471
 31
0.0
  0
LINE
  5
1ED
  8
0
  6
CONTINUOUS
 62
     7
 10
336.2628452112
 20
216.6284930471
 30
0.0
 11
336.2453885009
 21
215.6284929996
 31
0.0
  0
LINE
  5
1EE
  8
0
  6
CONTINUOUS
 62
     7
 10
335.2628431846
 20
215.6284929996
 30
0.0
 11
336.2453885009
 21
215.6284929996
 31
0.0
  0
LINE
  5
1EF
  8
0
  6
CONTINUOUS
 62
     7
 10
335.2628431846
 20
215.6284929996
 30
0.0
 11
335.2453901996
 21
216.6284930471
 31
0.0
  0
LINE
  5
1F0
  8
0
  6
CONTINUOUS
 62
     7
 10
300.7628431176
 20
216.6284930471
 30
0.0
 11
300.7453882699
 21
215.6284929996
 31
0.0
  0
LINE
  5
1F1
  8
0
  6
CONTINUOUS
 62
     7
 10
299.7628434193
 20
215.6284929996
 30
0.0
 11
300.7453882699
 21
215.6284929996
 31
0.0
  0
LINE
  5
1F2
  8
0
  6
CONTINUOUS
 62
     7
 10
299.7628434193
 20
215.6284929996
 30
0.0
 11
299.7453885716
 21
216.6284930471
 31
0.0
  0
LINE
  5
1F3
  8
0
  6
CONTINUOUS
 62
     7
 10
385.5907439818
 20
216.6284930471
 30
0.0
 11
385.6075971951
 21
215.6284929996
 31
0.0
  0
LINE
  5
1F4
  8
0
  6
CONTINUOUS
 62
     7
 10
376.5679716696
 20
215.6284929996
 30
0.0
 11
385.6075971951
 21
215.6284929996
 31
0.0
  0
LINE
  5
1F5
  8
0
  6
CONTINUOUS
 62
     7
 10
376.5505149593
 20
216.6284930471
 30
0.0
 11
376.5679716696
 21
215.6284929996
 31
0.0
  0
LINE
  5
1F6
  8
0
  6
CONTINUOUS
 62
     7
 10
385.9599351515
 20
216.6284930471
 30
0.0
 11
385.9767883648
 21
215.6284929996
 31
0.0
  0
LINE
  5
1F7
  8
0
  6
CONTINUOUS
 62
     7
 10
385.6075971951
 20
215.6284929996
 30
0.0
 11
385.9767883648
 21
215.6284929996
 31
0.0
  0
LINE
  5
1F8
  8
0
  6
CONTINUOUS
 62
     7
 10
372.1981465449
 20
215.6284929996
 30
0.0
 11
373.7457811465
 21
215.6284929996
 31
0.0
  0
LINE
  5
1F9
  8
0
  6
CONTINUOUS
 62
     7
 10
373.7457811465
 20
215.6284929996
 30
0.0
 11
373.7632378568
 21
216.6284930471
 31
0.0
  0
LINE
  5
1FA
  8
0
  6
CONTINUOUS
 62
     7
 10
216.4488553633
 20
216.6284930471
 30
0.0
 11
216.4319946994
 21
215.6284929996
 31
0.0
  0
LINE
  5
1FB
  8
0
  6
CONTINUOUS
 62
     7
 10
224.9496250977
 20
215.6284929996
 30
0.0
 11
224.9670743574
 21
216.6284930471
 31
0.0
  0
LINE
  5
1FC
  8
0
  6
CONTINUOUS
 62
     7
 10
216.4319946994
 20
215.6284929996
 30
0.0
 11
224.9496250977
 21
215.6284929996
 31
0.0
  0
LINE
  5
1FD
  8
0
  6
CONTINUOUS
 62
     7
 10
215.8992409338
 20
216.6284930471
 30
0.0
 11
215.8823877205
 21
215.6284929996
 31
0.0
  0
LINE
  5
1FE
  8
0
  6
CONTINUOUS
 62
     7
 10
215.8823877205
 20
215.6284929996
 30
0.0
 11
216.4319946994
 21
215.6284929996
 31
0.0
  0
LINE
  5
1FF
  8
0
  6
CONTINUOUS
 62
     7
 10
265.2628428866
 20
216.6284930471
 30
0.0
 11
265.2453880389
 21
215.6284929996
 31
0.0
  0
LINE
  5
200
  8
0
  6
CONTINUOUS
 62
     7
 10
262.7628434082
 20
215.6284929996
 30
0.0
 11
265.2453880389
 21
215.6284929996
 31
0.0
  0
LINE
  5
201
  8
0
  6
CONTINUOUS
 62
     7
 10
262.7628434082
 20
215.6284929996
 30
0.0
 11
262.7453885605
 21
216.6284930471
 31
0.0
  0
LINE
  5
202
  8
0
  6
CONTINUOUS
 62
     7
 10
256.2510378291
 20
216.6284930471
 30
0.0
 11
256.2335811188
 21
215.6284929996
 31
0.0
  0
LINE
  5
203
  8
0
  6
CONTINUOUS
 62
     7
 10
250.8034005393
 20
215.6284929996
 30
0.0
 11
256.2335811188
 21
215.6284929996
 31
0.0
  0
LINE
  5
204
  8
0
  6
CONTINUOUS
 62
     7
 10
250.8034005393
 20
215.6284929996
 30
0.0
 11
250.7859475543
 21
216.6284930471
 31
0.0
  0
LINE
  5
205
  8
0
  6
CONTINUOUS
 62
     7
 10
236.7510355641
 20
216.6284930471
 30
0.0
 11
236.7335825791
 21
215.6284929996
 31
0.0
  0
LINE
  5
206
  8
0
  6
CONTINUOUS
 62
     7
 10
227.7543514599
 20
215.6284929996
 30
0.0
 11
236.7335825791
 21
215.6284929996
 31
0.0
  0
LINE
  5
207
  8
0
  6
CONTINUOUS
 62
     7
 10
227.7368947496
 20
216.6284930471
 30
0.0
 11
227.7543514599
 21
215.6284929996
 31
0.0
  0
LINE
  5
208
  8
0
  6
CONTINUOUS
 62
     7
 10
336.2802981963
 20
216.6284930471
 30
0.0
 11
336.2628452112
 21
215.6284929996
 31
0.0
  0
LINE
  5
209
  8
0
  6
CONTINUOUS
 62
     7
 10
336.2628452112
 20
215.6284929996
 30
0.0
 11
336.2453885009
 21
215.6284929996
 31
0.0
  0
LINE
  5
20A
  8
0
  6
CONTINUOUS
 62
     7
 10
370.7628443469
 20
215.6284929996
 30
0.0
 11
370.7453876366
 21
216.6284930471
 31
0.0
  0
LINE
  5
20B
  8
0
  6
CONTINUOUS
 62
     7
 10
370.7803010573
 20
215.6284929996
 30
0.0
 11
370.7628443469
 21
215.6284929996
 31
0.0
  0
LINE
  5
20C
  8
0
  6
CONTINUOUS
 62
     7
 10
300.7802988966
 20
216.6284930471
 30
0.0
 11
300.7628431176
 21
215.6284929996
 31
0.0
  0
LINE
  5
20D
  8
0
  6
CONTINUOUS
 62
     7
 10
300.7628431176
 20
215.6284929996
 30
0.0
 11
300.7453882699
 21
215.6284929996
 31
0.0
  0
LINE
  5
20E
  8
0
  6
CONTINUOUS
 62
     7
 10
236.7510355641
 20
215.6284929996
 30
0.0
 11
236.7684922745
 21
216.6284930471
 31
0.0
  0
LINE
  5
20F
  8
0
  6
CONTINUOUS
 62
     7
 10
236.7510355641
 20
215.6284929996
 30
0.0
 11
236.7335825791
 21
215.6284929996
 31
0.0
  0
LINE
  5
210
  8
0
  6
CONTINUOUS
 62
     7
 10
265.2802977343
 20
216.6284930471
 30
0.0
 11
265.2628428866
 21
215.6284929996
 31
0.0
  0
LINE
  5
211
  8
0
  6
CONTINUOUS
 62
     7
 10
265.2628428866
 20
215.6284929996
 30
0.0
 11
265.2453880389
 21
215.6284929996
 31
0.0
  0
LINE
  5
212
  8
0
  6
CONTINUOUS
 62
     7
 10
250.768490844
 20
216.6284930471
 30
0.0
 11
250.7859475543
 21
215.6284929996
 31
0.0
  0
LINE
  5
213
  8
0
  6
CONTINUOUS
 62
     7
 10
250.8034005393
 20
215.6284929996
 30
0.0
 11
250.7859475543
 21
215.6284929996
 31
0.0
  0
LINE
  5
214
  8
0
  6
CONTINUOUS
 62
     7
 10
376.5855028858
 20
215.6284929996
 30
0.0
 11
373.7457811465
 21
215.6284929996
 31
0.0
  0
LINE
  5
215
  8
0
  6
CONTINUOUS
 62
     7
 10
236.7510355641
 20
215.6284929996
 30
0.0
 11
250.7859475543
 21
215.6284929996
 31
0.0
  0
LINE
  5
216
  8
0
  6
CONTINUOUS
 62
     7
 10
385.9767883648
 20
215.6284929996
 30
0.0
 11
386.7681741347
 21
215.6284929996
 31
0.0
  0
LINE
  5
217
  8
0
  6
CONTINUOUS
 62
     7
 10
386.7681741347
 20
215.6284929996
 30
0.0
 11
387.7681761612
 21
215.6284929996
 31
0.0
  0
LINE
  5
218
  8
0
  6
CONTINUOUS
 62
     7
 10
389.7655948629
 20
215.6284929996
 30
0.0
 11
389.7475197543
 21
216.6284930471
 31
0.0
  0
LINE
  5
219
  8
0
  6
CONTINUOUS
 62
     7
 10
389.7655948629
 20
215.6284929996
 30
0.0
 11
387.7681761612
 21
215.6284929996
 31
0.0
  0
LINE
  5
21A
  8
0
  6
CONTINUOUS
 62
     7
 10
215.0097831716
 20
215.6284929996
 30
0.0
 11
215.8823877205
 21
215.6284929996
 31
0.0
  0
LINE
  5
21B
  8
0
  6
CONTINUOUS
 62
     7
 10
214.009781145
 20
215.6284929996
 30
0.0
 11
215.0097831716
 21
215.6284929996
 31
0.0
  0
LINE
  5
21C
  8
0
  6
CONTINUOUS
 62
     7
 10
226.1617228021
 20
216.6284930471
 30
0.0
 11
226.1617228021
 21
215.6284929996
 31
0.0
  0
LINE
  5
21D
  8
0
  6
CONTINUOUS
 62
     7
 10
224.9496250977
 20
215.6284929996
 30
0.0
 11
226.1617228021
 21
215.6284929996
 31
0.0
  0
LINE
  5
21E
  8
0
  6
CONTINUOUS
 62
     7
 10
226.1617228021
 20
215.6284929996
 30
0.0
 11
227.7543514599
 21
215.6284929996
 31
0.0
  0
LINE
  5
21F
  8
0
  6
CONTINUOUS
 62
     7
 10
358.0466702213
 20
216.3284929747
 30
0.0
 11
358.0466702213
 21
216.6284930471
 31
0.0
  0
LINE
  5
220
  8
0
  6
CONTINUOUS
 62
     7
 10
357.2864576806
 20
216.3284929747
 30
0.0
 11
358.0466702213
 21
216.3284929747
 31
0.0
  0
LINE
  5
221
  8
0
  6
CONTINUOUS
 62
     7
 10
357.2864576806
 20
216.3284929747
 30
0.0
 11
357.2864576806
 21
216.6284930471
 31
0.0
  0
LINE
  5
222
  8
0
  6
CONTINUOUS
 62
     7
 10
356.5723120798
 20
216.3284929747
 30
0.0
 11
357.2864576806
 21
216.3284929747
 31
0.0
  0
LINE
  5
223
  8
0
  6
CONTINUOUS
 62
     7
 10
356.5723120798
 20
216.3284929747
 30
0.0
 11
356.5723120798
 21
216.6284930471
 31
0.0
  0
LINE
  5
224
  8
0
  6
CONTINUOUS
 62
     7
 10
362.2889563074
 20
216.3284929747
 30
0.0
 11
362.2889563074
 21
216.6284930471
 31
0.0
  0
LINE
  5
225
  8
0
  6
CONTINUOUS
 62
     7
 10
361.908850037
 20
216.3284929747
 30
0.0
 11
362.2889563074
 21
216.3284929747
 31
0.0
  0
LINE
  5
226
  8
0
  6
CONTINUOUS
 62
     7
 10
361.908850037
 20
216.3284929747
 30
0.0
 11
361.908850037
 21
216.6284930471
 31
0.0
  0
LINE
  5
227
  8
0
  6
CONTINUOUS
 62
     7
 10
362.533849441
 20
216.3284929747
 30
0.0
 11
362.533849441
 21
216.6284930471
 31
0.0
  0
LINE
  5
228
  8
0
  6
CONTINUOUS
 62
     7
 10
362.2889563074
 20
216.3284929747
 30
0.0
 11
362.533849441
 21
216.3284929747
 31
0.0
  0
LINE
  5
229
  8
0
  6
CONTINUOUS
 62
     7
 10
360.4059487213
 20
216.3284929747
 30
0.0
 11
360.4059487213
 21
216.6284930471
 31
0.0
  0
LINE
  5
22A
  8
0
  6
CONTINUOUS
 62
     7
 10
360.1620539655
 20
216.3284929747
 30
0.0
 11
360.4059487213
 21
216.3284929747
 31
0.0
  0
LINE
  5
22B
  8
0
  6
CONTINUOUS
 62
     7
 10
360.1620539655
 20
216.3284929747
 30
0.0
 11
360.1620539655
 21
216.6284930471
 31
0.0
  0
LINE
  5
22C
  8
0
  6
CONTINUOUS
 62
     7
 10
360.7755347719
 20
216.3284929747
 30
0.0
 11
360.7755347719
 21
216.6284930471
 31
0.0
  0
LINE
  5
22D
  8
0
  6
CONTINUOUS
 62
     7
 10
360.4059487213
 20
216.3284929747
 30
0.0
 11
360.7755347719
 21
216.3284929747
 31
0.0
  0
LINE
  5
22E
  8
0
  6
CONTINUOUS
 62
     7
 10
359.1013595094
 20
216.3284929747
 30
0.0
 11
359.1013595094
 21
216.6284930471
 31
0.0
  0
LINE
  5
22F
  8
0
  6
CONTINUOUS
 62
     7
 10
358.3030819525
 20
216.3284929747
 30
0.0
 11
359.1013595094
 21
216.3284929747
 31
0.0
  0
LINE
  5
230
  8
0
  6
CONTINUOUS
 62
     7
 10
358.3030819525
 20
216.3284929747
 30
0.0
 11
358.3030819525
 21
216.6284930471
 31
0.0
  0
LINE
  5
231
  8
0
  6
CONTINUOUS
 62
     7
 10
359.7774400939
 20
216.3284929747
 30
0.0
 11
359.7774400939
 21
216.6284930471
 31
0.0
  0
LINE
  5
232
  8
0
  6
CONTINUOUS
 62
     7
 10
359.1013595094
 20
216.3284929747
 30
0.0
 11
359.7774400939
 21
216.3284929747
 31
0.0
  0
LINE
  5
233
  8
0
  6
CONTINUOUS
 62
     7
 10
364.5530834426
 20
216.3284929747
 30
0.0
 11
364.5530834426
 21
216.6284930471
 31
0.0
  0
LINE
  5
234
  8
0
  6
CONTINUOUS
 62
     7
 10
362.82231357
 20
216.3284929747
 30
0.0
 11
364.5530834426
 21
216.3284929747
 31
0.0
  0
LINE
  5
235
  8
0
  6
CONTINUOUS
 62
     7
 10
362.82231357
 20
216.3284929747
 30
0.0
 11
362.82231357
 21
216.6284930471
 31
0.0
  0
LINE
  5
236
  8
0
  6
CONTINUOUS
 62
     7
 10
356.1876982083
 20
216.3284929747
 30
0.0
 11
356.1876982083
 21
216.6284930471
 31
0.0
  0
LINE
  5
237
  8
0
  6
CONTINUOUS
 62
     7
 10
354.4569283356
 20
216.3284929747
 30
0.0
 11
356.1876982083
 21
216.3284929747
 31
0.0
  0
LINE
  5
238
  8
0
  6
CONTINUOUS
 62
     7
 10
354.4569283356
 20
216.3284929747
 30
0.0
 11
354.4569283356
 21
216.6284930471
 31
0.0
  0
LINE
  5
239
  8
0
  6
CONTINUOUS
 62
     7
 10
360.7755347719
 20
216.3284929747
 30
0.0
 11
361.908850037
 21
216.3284929747
 31
0.0
  0
LINE
  5
23A
  8
0
  6
CONTINUOUS
 62
     7
 10
362.7628430356
 20
216.3284929747
 30
0.0
 11
362.533849441
 21
216.3284929747
 31
0.0
  0
LINE
  5
23B
  8
0
  6
CONTINUOUS
 62
     7
 10
365.7628416647
 20
216.3284929747
 30
0.0
 11
364.5530834426
 21
216.3284929747
 31
0.0
  0
LINE
  5
23C
  8
0
  6
CONTINUOUS
 62
     7
 10
279.0471480792
 20
215.6284929996
 30
0.0
 11
280.0296933954
 21
215.6284929996
 31
0.0
  0
LINE
  5
23D
  8
0
  6
CONTINUOUS
 62
     7
 10
279.0296932315
 20
216.6284930471
 30
0.0
 11
279.0471480792
 21
215.6284929996
 31
0.0
  0
LINE
  5
23E
  8
0
  6
CONTINUOUS
 62
     7
 10
280.0471482431
 20
216.6284930471
 30
0.0
 11
280.0296933954
 21
215.6284929996
 31
0.0
  0
LINE
  5
23F
  8
0
  6
CONTINUOUS
 62
     7
 10
280.0471482431
 20
215.6284929996
 30
0.0
 11
280.0646030908
 21
216.6284930471
 31
0.0
  0
LINE
  5
240
  8
0
  6
CONTINUOUS
 62
     7
 10
280.0471482431
 20
215.6284929996
 30
0.0
 11
280.0296933954
 21
215.6284929996
 31
0.0
  0
LINE
  5
241
  8
0
  6
CONTINUOUS
 62
     7
 10
277.5516936188
 20
216.3681085266
 30
0.0
 11
277.5471478333
 21
216.6284930471
 31
0.0
  0
LINE
  5
242
  8
0
  6
CONTINUOUS
 62
     7
 10
277.5659177085
 20
215.6284929996
 30
0.0
 11
277.5530077149
 21
216.3681085266
 31
0.0
  0
LINE
  5
243
  8
0
  6
CONTINUOUS
 62
     7
 10
277.5516936188
 20
216.3681085266
 30
0.0
 11
277.5530077149
 21
216.3681085266
 31
0.0
  0
LINE
  5
244
  8
0
  6
CONTINUOUS
 62
     7
 10
277.5659177085
 20
215.6284929996
 30
0.0
 11
279.0471480792
 21
215.6284929996
 31
0.0
  0
LINE
  5
245
  8
0
  6
CONTINUOUS
 62
     7
 10
277.5516936188
 20
216.3681085266
 30
0.0
 11
277.5646036123
 21
215.6284929996
 31
0.0
  0
LINE
  5
246
  8
0
  6
CONTINUOUS
 62
     7
 10
277.5646036123
 20
215.6284929996
 30
0.0
 11
277.5659177085
 21
215.6284929996
 31
0.0
  0
LINE
  5
247
  8
0
  6
CONTINUOUS
 62
     8
 10
381.011721455
 20
209.0284930354
 30
0.0
 11
376.8117174138
 21
209.0284930354
 31
0.0
  0
LINE
  5
248
  8
0
  6
CONTINUOUS
 62
     8
 10
224.4117229809
 20
209.0284930354
 30
0.0
 11
220.2117189397
 21
209.0284930354
 31
0.0
  0
LINE
  5
249
  8
0
  6
CONTINUOUS
 62
     8
 10
365.8114716043
 20
236.7290867304
 30
0.0
 11
365.8114716043
 21
236.6284927165
 31
0.0
  0
LINE
  5
24A
  8
0
  6
CONTINUOUS
 62
     8
 10
372.1981465449
 20
216.6284930471
 30
0.0
 11
372.1981465449
 21
215.6284929996
 31
0.0
  0
LINE
  5
24B
  8
0
  6
CONTINUOUS
 62
     8
 10
386.7681741347
 20
216.6284930471
 30
0.0
 11
386.7681741347
 21
215.6284929996
 31
0.0
  0
LINE
  5
24C
  8
0
  6
CONTINUOUS
 62
     8
 10
215.0097831716
 20
216.6284930471
 30
0.0
 11
215.0097831716
 21
215.6284929996
 31
0.0
  0
DIMENSION
  5
24D
  8
COTATION
  2
_D
 10
378.9117195307
 20
201.7765313876
 30
0.0
 11
300.6117195307
 21
201.7765313876
 31
0.0
 70
   160
  1
<>
  3
SLDDIMSTYLE0
 13
222.3117195307
 23
207.0284929996
 33
0.0
 14
378.9117195307
 24
207.0284929996
 34
0.0
  0
DIMENSION
  5
25A
  8
COTATION
  2
_D_1
 10
401.358843266
 20
215.6284929996
 30
0.0
 11
401.358843266
 21
237.3445184034
 31
0.0
 70
   160
  1
<>
  3
SLDDIMSTYLE1
 13
387.593159901
 23
259.0605438072
 33
0.0
 14
383.4640847254
 24
215.6284929996
 34
0.0
 50
90.0
  0
LINE
  5
265
  8
COTATION
  6
CENTERX2
 10
222.3117195307
 20
207.0284929996
 30
0.0
 11
222.3117195307
 21
220.6284929996
 31
0.0
  0
LINE
  5
266
  8
COTATION
  6
CENTERX2
 10
378.9117195307
 20
207.0284929996
 30
0.0
 11
378.9117195307
 21
220.6284929996
 31
0.0
  0
POLYLINE
  5
267
  8
0
  6
CONTINUOUS
 62
     7
 66
     1
 10
0.0
 20
0.0
 30
0.0
  0
VERTEX
  5
8A1
  8
0
  6
CONTINUOUS
 62
     7
 10
364.2702668537
 20
120.9552353619
 30
0.0
  0
VERTEX
  5
8A2
  8
0
  6
CONTINUOUS
 62
     7
 10
364.7193133463
 20
120.9393730758
 30
0.0
  0
VERTEX
  5
8A3
  8
0
  6
CONTINUOUS
 62
     7
 10
365.8114716043
 20
120.9004847704
 30
0.0
  0
SEQEND
  5
B52
  8
0
  6
CONTINUOUS
 62
     7
  0
LINE
  5
268
  8
0
  6
CONTINUOUS
 62
     7
 10
364.2114296188
 20
120.9573140739
 30
0.0
 11
364.2702668537
 21
120.9552353619
 31
0.0
  0
POLYLINE
  5
269
  8
0
  6
CONTINUOUS
 62
     7
 66
     1
 10
0.0
 20
0.0
 30
0.0
  0
VERTEX
  5
8A4
  8
0
  6
CONTINUOUS
 62
     7
 10
365.8114716043
 20
120.9004847704
 30
0.0
  0
VERTEX
  5
8A5
  8
0
  6
CONTINUOUS
 62
     7
 10
366.9032498826
 20
120.9394773839
 30
0.0
  0
VERTEX
  5
8A6
  8
0
  6
CONTINUOUS
 62
     7
 10
367.2331913938
 20
120.9510965644
 30
0.0
  0
SEQEND
  5
B51
  8
0
  6
CONTINUOUS
 62
     7
  0
POLYLINE
  5
26A
  8
0
  6
CONTINUOUS
 62
     7
 66
     1
 10
0.0
 20
0.0
 30
0.0
  0
VERTEX
  5
8A7
  8
0
  6
CONTINUOUS
 62
     7
 10
310.9851877769
 20
137.4099543689
 30
0.0
  0
VERTEX
  5
8A8
  8
0
  6
CONTINUOUS
 62
     7
 10
310.9566520532
 20
137.4163842199
 30
0.0
  0
VERTEX
  5
8A9
  8
0
  6
CONTINUOUS
 62
     7
 10
310.9387762477
 20
137.420414984
 30
0.0
  0
SEQEND
  5
B50
  8
0
  6
CONTINUOUS
 62
     7
  0
POLYLINE
  5
26B
  8
0
  6
CONTINUOUS
 62
     7
 66
     1
 10
0.0
 20
0.0
 30
0.0
  0
VERTEX
  5
8AA
  8
0
  6
CONTINUOUS
 62
     7
 10
364.2114743223
 20
120.9573177992
 30
0.0
  0
VERTEX
  5
8AB
  8
0
  6
CONTINUOUS
 62
     7
 10
363.9797836174
 20
120.9876453875
 30
0.0
  0
VERTEX
  5
8AC
  8
0
  6
CONTINUOUS
 62
     7
 10
363.7406572332
 20
121.1338406799
 30
0.0
  0
VERTEX
  5
8AD
  8
0
  6
CONTINUOUS
 62
     7
 10
363.4867116441
 20
121.4608094094
 30
0.0
  0
VERTEX
  5
8AE
  8
0
  6
CONTINUOUS
 62
     7
 10
363.2235869398
 20
121.9738116859
 30
0.0
  0
VERTEX
  5
8AF
  8
0
  6
CONTINUOUS
 62
     7
 10
362.8818586101
 20
122.912879139
 30
0.0
  0
VERTEX
  5
8B0
  8
0
  6
CONTINUOUS
 62
     7
 10
362.524186038
 20
124.2522029577
 30
0.0
  0
VERTEX
  5
8B1
  8
0
  6
CONTINUOUS
 62
     7
 10
362.2749119629
 20
125.4273495076
 30
0.0
  0
VERTEX
  5
8B2
  8
0
  6
CONTINUOUS
 62
     7
 10
362.0250790943
 20
126.8559573589
 30
0.0
  0
VERTEX
  5
8B3
  8
0
  6
CONTINUOUS
 62
     7
 10
361.857545339
 20
128.0045798419
 30
0.0
  0
VERTEX
  5
8B4
  8
0
  6
CONTINUOUS
 62
     7
 10
361.6983711352
 20
129.3031713365
 30
0.0
  0
VERTEX
  5
8B5
  8
0
  6
CONTINUOUS
 62
     7
 10
361.5607589115
 20
130.6757061182
 30
0.0
  0
VERTEX
  5
8B6
  8
0
  6
CONTINUOUS
 62
     7
 10
361.5420356025
 20
130.9114164112
 30
0.0
  0
SEQEND
  5
B4F
  8
0
  6
CONTINUOUS
 62
     7
  0
LINE
  5
26C
  8
0
  6
CONTINUOUS
 62
     7
 10
365.8114716043
 20
130.9015481172
 30
0.0
 11
365.8114716043
 21
120.9110645948
 31
0.0
  0
POLYLINE
  5
26D
  8
0
  6
CONTINUOUS
 62
     7
 66
     1
 10
0.0
 20
0.0
 30
0.0
  0
VERTEX
  5
8B7
  8
0
  6
CONTINUOUS
 62
     7
 10
367.4114688863
 20
120.9573177992
 30
0.0
  0
VERTEX
  5
8B8
  8
0
  6
CONTINUOUS
 62
     7
 10
367.8255051007
 20
121.0833555458
 30
0.0
  0
VERTEX
  5
8B9
  8
0
  6
CONTINUOUS
 62
     7
 10
368.2695522537
 20
121.6985090075
 30
0.0
  0
VERTEX
  5
8BA
  8
0
  6
CONTINUOUS
 62
     7
 10
368.5077547659
 20
122.2375138102
 30
0.0
  0
VERTEX
  5
8BB
  8
0
  6
CONTINUOUS
 62
     7
 10
368.7518804898
 20
122.9477813838
 30
0.0
  0
VERTEX
  5
8BC
  8
0
  6
CONTINUOUS
 62
     7
 10
369.0333038201
 20
123.9780215917
 30
0.0
  0
VERTEX
  5
8BD
  8
0
  6
CONTINUOUS
 62
     7
 10
369.3213805189
 20
125.2910709379
 30
0.0
  0
VERTEX
  5
8BE
  8
0
  6
CONTINUOUS
 62
     7
 10
369.5362403621
 20
126.4756610988
 30
0.0
  0
VERTEX
  5
8BF
  8
0
  6
CONTINUOUS
 62
     7
 10
369.7475835313
 20
127.8733788429
 30
0.0
  0
VERTEX
  5
8C0
  8
0
  6
CONTINUOUS
 62
     7
 10
369.894397222
 20
129.0370328723
 30
0.0
  0
VERTEX
  5
8C1
  8
0
  6
CONTINUOUS
 62
     7
 10
370.0296029081
 20
130.3234948216
 30
0.0
  0
VERTEX
  5
8C2
  8
0
  6
CONTINUOUS
 62
     7
 10
370.0769736995
 20
130.9015481172
 30
0.0
  0
SEQEND
  5
B4E
  8
0
  6
CONTINUOUS
 62
     7
  0
LINE
  5
26E
  8
0
  6
CONTINUOUS
 62
     7
 10
367.4108653893
 20
120.9573997555
 30
0.0
 11
367.4114688863
 21
120.9573177992
 31
0.0
  0
POLYLINE
  5
26F
  8
0
  6
CONTINUOUS
 62
     7
 66
     1
 10
0.0
 20
0.0
 30
0.0
  0
VERTEX
  5
8C3
  8
0
  6
CONTINUOUS
 62
     7
 10
215.9382298221
 20
170.7226822989
 30
0.0
  0
VERTEX
  5
8C4
  8
0
  6
CONTINUOUS
 62
     7
 10
215.6446992983
 20
165.5089194326
 30
0.0
  0
VERTEX
  5
8C5
  8
0
  6
CONTINUOUS
 62
     7
 10
215.343077444
 20
160.2087580038
 30
0.0
  0
VERTEX
  5
8C6
  8
0
  6
CONTINUOUS
 62
     7
 10
215.0950401654
 20
155.8171091972
 30
0.0
  0
VERTEX
  5
8C7
  8
0
  6
CONTINUOUS
 62
     7
 10
214.8490890493
 20
151.3871802388
 30
0.0
  0
VERTEX
  5
8C8
  8
0
  6
CONTINUOUS
 62
     7
 10
214.7484913101
 20
149.5449087022
 30
0.0
  0
VERTEX
  5
8C9
  8
0
  6
CONTINUOUS
 62
     7
 10
214.7484913101
 20
149.5448509602
 30
0.0
  0
SEQEND
  5
B4D
  8
0
  6
CONTINUOUS
 62
     7
  0
POLYLINE
  5
270
  8
0
  6
CONTINUOUS
 62
     7
 66
     1
 10
0.0
 20
0.0
 30
0.0
  0
VERTEX
  5
8CA
  8
0
  6
CONTINUOUS
 62
     7
 10
362.3684912552
 20
170.4139789006
 30
0.0
  0
VERTEX
  5
8CB
  8
0
  6
CONTINUOUS
 62
     7
 10
332.5969621171
 20
170.4329625143
 30
0.0
  0
VERTEX
  5
8CC
  8
0
  6
CONTINUOUS
 62
     7
 10
293.3472807733
 20
170.6429596895
 30
0.0
  0
VERTEX
  5
8CD
  8
0
  6
CONTINUOUS
 62
     7
 10
273.7135149171
 20
170.9418953767
 30
0.0
  0
VERTEX
  5
8CE
  8
0
  6
CONTINUOUS
 62
     7
 10
254.0797151257
 20
171.2438557668
 30
0.0
  0
VERTEX
  5
8CF
  8
0
  6
CONTINUOUS
 62
     7
 10
235.0075065722
 20
171.1554562578
 30
0.0
  0
VERTEX
  5
8D0
  8
0
  6
CONTINUOUS
 62
     7
 10
215.9382298221
 20
170.7226822989
 30
0.0
  0
SEQEND
  5
B4C
  8
0
  6
CONTINUOUS
 62
     7
  0
POLYLINE
  5
271
  8
0
  6
CONTINUOUS
 62
     7
 66
     1
 10
0.0
 20
0.0
 30
0.0
  0
VERTEX
  5
8D1
  8
0
  6
CONTINUOUS
 62
     7
 10
362.3684912552
 20
130.9015481172
 30
0.0
  0
VERTEX
  5
8D2
  8
0
  6
CONTINUOUS
 62
     7
 10
351.8344319989
 20
131.2143644689
 30
0.0
  0
VERTEX
  5
8D3
  8
0
  6
CONTINUOUS
 62
     7
 10
341.3756012549
 20
132.1069850026
 30
0.0
  0
VERTEX
  5
8D4
  8
0
  6
CONTINUOUS
 62
     7
 10
330.9839672973
 20
133.5106632112
 30
0.0
  0
VERTEX
  5
8D5
  8
0
  6
CONTINUOUS
 62
     7
 10
320.6515710433
 20
135.3559075294
 30
0.0
  0
VERTEX
  5
8D6
  8
0
  6
CONTINUOUS
 62
     7
 10
310.3732119878
 20
137.5483004747
 30
0.0
  0
VERTEX
  5
8D7
  8
0
  6
CONTINUOUS
 62
     7
 10
300.147050303
 20
139.963108152
 30
0.0
  0
VERTEX
  5
8D8
  8
0
  6
CONTINUOUS
 62
     7
 10
289.9645830137
 20
142.4711449443
 30
0.0
  0
VERTEX
  5
8D9
  8
0
  6
CONTINUOUS
 62
     7
 10
279.7754721348
 20
144.914011508
 30
0.0
  0
VERTEX
  5
8DA
  8
0
  6
CONTINUOUS
 62
     7
 10
273.8021507491
 20
146.2331386654
 30
0.0
  0
VERTEX
  5
8DB
  8
0
  6
CONTINUOUS
 62
     7
 10
267.8236558666
 20
147.4043308197
 30
0.0
  0
VERTEX
  5
8DC
  8
0
  6
CONTINUOUS
 62
     7
 10
261.8217046936
 20
148.3728168903
 30
0.0
  0
VERTEX
  5
8DD
  8
0
  6
CONTINUOUS
 62
     7
 10
255.7766630878
 20
149.0805345027
 30
0.0
  0
VERTEX
  5
8DE
  8
0
  6
CONTINUOUS
 62
     7
 10
249.6604665746
 20
149.4502677022
 30
0.0
  0
VERTEX
  5
8DF
  8
0
  6
CONTINUOUS
 62
     7
 10
243.4206053247
 20
149.3843635915
 30
0.0
  0
VERTEX
  5
8E0
  8
0
  6
CONTINUOUS
 62
     7
 10
237.5043898453
 20
148.8256762175
 30
0.0
  0
VERTEX
  5
8E1
  8
0
  6
CONTINUOUS
 62
     7
 10
231.6387265553
 20
147.7133250235
 30
0.0
  0
VERTEX
  5
8E2
  8
0
  6
CONTINUOUS
 62
     7
 10
225.8499458064
 20
145.985824093
 30
0.0
  0
VERTEX
  5
8E3
  8
0
  6
CONTINUOUS
 62
     7
 10
220.2286168565
 20
143.6260575799
 30
0.0
  0
VERTEX
  5
8E4
  8
0
  6
CONTINUOUS
 62
     7
 10
214.8691087593
 20
140.6763783095
 30
0.0
  0
SEQEND
  5
B4B
  8
0
  6
CONTINUOUS
 62
     7
  0
LINE
  5
272
  8
0
  6
CONTINUOUS
 62
     7
 10
214.7484913101
 20
140.6222870944
 30
0.0
 11
214.8691087593
 21
140.6763783095
 31
0.0
  0
LINE
  5
273
  8
0
  6
CONTINUOUS
 62
     7
 10
214.7484913101
 20
149.5448509602
 30
0.0
 11
214.7484913101
 21
140.6222870944
 31
0.0
  0
LINE
  5
274
  8
0
  6
CONTINUOUS
 62
     7
 10
214.869168364
 20
140.676486343
 30
0.0
 11
214.8691087593
 21
140.6763783095
 31
0.0
  0
LINE
  5
275
  8
0
  6
CONTINUOUS
 62
     7
 10
279.7229548548
 20
144.9067341535
 30
0.0
 11
277.9452779894
 21
145.3181850163
 31
0.0
  0
POLYLINE
  5
276
  8
0
  6
CONTINUOUS
 62
     7
 66
     1
 10
0.0
 20
0.0
 30
0.0
  0
VERTEX
  5
8E5
  8
0
  6
CONTINUOUS
 62
     7
 10
249.0188225736
 20
149.4434913991
 30
0.0
  0
VERTEX
  5
8E6
  8
0
  6
CONTINUOUS
 62
     7
 10
247.7568208804
 20
149.4808523355
 30
0.0
  0
VERTEX
  5
8E7
  8
0
  6
CONTINUOUS
 62
     7
 10
243.8016056647
 20
149.3970686941
 30
0.0
  0
SEQEND
  5
B4A
  8
0
  6
CONTINUOUS
 62
     7
  0
LINE
  5
277
  8
0
  6
CONTINUOUS
 62
     7
 10
215.1008367171
 20
120.9015464781
 30
0.0
 11
362.3684912552
 21
120.9015464781
 31
0.0
  0
LINE
  5
278
  8
0
  6
CONTINUOUS
 62
     7
 10
215.1008143653
 20
120.9015464781
 30
0.0
 11
213.8964056601
 21
120.9015464781
 31
0.0
  0
POLYLINE
  5
279
  8
0
  6
CONTINUOUS
 62
     7
 66
     1
 10
0.0
 20
0.0
 30
0.0
  0
VERTEX
  5
8E8
  8
0
  6
CONTINUOUS
 62
     7
 10
215.0710418453
 20
140.6895844637
 30
0.0
  0
VERTEX
  5
8E9
  8
0
  6
CONTINUOUS
 62
     7
 10
215.2541026105
 20
137.3337759076
 30
0.0
  0
VERTEX
  5
8EA
  8
0
  6
CONTINUOUS
 62
     7
 10
215.4066905012
 20
134.0286089478
 30
0.0
  0
VERTEX
  5
8EB
  8
0
  6
CONTINUOUS
 62
     7
 10
215.5170112481
 20
130.9823720155
 30
0.0
  0
VERTEX
  5
8EC
  8
0
  6
CONTINUOUS
 62
     7
 10
215.5874341359
 20
128.1593731044
 30
0.0
  0
VERTEX
  5
8ED
  8
0
  6
CONTINUOUS
 62
     7
 10
215.6119241943
 20
126.1944016812
 30
0.0
  0
VERTEX
  5
8EE
  8
0
  6
CONTINUOUS
 62
     7
 10
215.6072005262
 20
124.5321361719
 30
0.0
  0
VERTEX
  5
8EF
  8
0
  6
CONTINUOUS
 62
     7
 10
215.5712440242
 20
123.2286347447
 30
0.0
  0
VERTEX
  5
8F0
  8
0
  6
CONTINUOUS
 62
     7
 10
215.507578813
 20
122.2536256908
 30
0.0
  0
VERTEX
  5
8F1
  8
0
  6
CONTINUOUS
 62
     7
 10
215.411347114
 20
121.5265384315
 30
0.0
  0
VERTEX
  5
8F2
  8
0
  6
CONTINUOUS
 62
     7
 10
215.2936353912
 20
121.0993556677
 30
0.0
  0
VERTEX
  5
8F3
  8
0
  6
CONTINUOUS
 62
     7
 10
215.1608213415
 20
120.9175316988
 30
0.0
  0
VERTEX
  5
8F4
  8
0
  6
CONTINUOUS
 62
     7
 10
215.1008143653
 20
120.9015464781
 30
0.0
  0
SEQEND
  5
B49
  8
0
  6
CONTINUOUS
 62
     7
  0
POLYLINE
  5
27A
  8
0
  6
CONTINUOUS
 62
     7
 66
     1
 10
0.0
 20
0.0
 30
0.0
  0
VERTEX
  5
8F5
  8
0
  6
CONTINUOUS
 62
     7
 10
215.0710418453
 20
140.6895844637
 30
0.0
  0
VERTEX
  5
8F6
  8
0
  6
CONTINUOUS
 62
     7
 10
215.1954516401
 20
140.7639189063
 30
0.0
  0
VERTEX
  5
8F7
  8
0
  6
CONTINUOUS
 62
     7
 10
215.5288055171
 20
140.9636317192
 30
0.0
  0
SEQEND
  5
B48
  8
0
  6
CONTINUOUS
 62
     7
  0
POLYLINE
  5
27B
  8
0
  6
CONTINUOUS
 62
     7
 66
     1
 10
0.0
 20
0.0
 30
0.0
  0
VERTEX
  5
8F8
  8
0
  6
CONTINUOUS
 62
     7
 10
215.539057516
 20
140.9697300194
 30
0.0
  0
VERTEX
  5
8F9
  8
0
  6
CONTINUOUS
 62
     7
 10
215.5339315166
 20
140.9666827319
 30
0.0
  0
VERTEX
  5
8FA
  8
0
  6
CONTINUOUS
 62
     7
 10
215.5288055171
 20
140.9636317192
 30
0.0
  0
SEQEND
  5
B47
  8
0
  6
CONTINUOUS
 62
     7
  0
ARC
  5
27C
  8
0
  6
CONTINUOUS
 62
     7
 10
411.0962046894
 20
134.6057447459
 30
0.0
 40
49.85216573472469
 50
184.2579998583
 51
192.1923058868
  0
LINE
  5
27D
  8
0
  6
CONTINUOUS
 62
     7
 10
214.6059691538
 20
140.6015484033
 30
0.0
 11
214.7484913101
 21
140.6222870944
 31
0.0
  0
POLYLINE
  5
27E
  8
0
  6
CONTINUOUS
 62
     7
 66
     1
 10
0.0
 20
0.0
 30
0.0
  0
VERTEX
  5
8FB
  8
0
  6
CONTINUOUS
 62
     7
 10
214.7484913101
 20
149.5448509602
 30
0.0
  0
VERTEX
  5
8FC
  8
0
  6
CONTINUOUS
 62
     7
 10
214.7484913101
 20
149.5447913556
 30
0.0
  0
VERTEX
  5
8FD
  8
0
  6
CONTINUOUS
 62
     7
 10
214.5889371266
 20
146.5672580896
 30
0.0
  0
VERTEX
  5
8FE
  8
0
  6
CONTINUOUS
 62
     7
 10
214.2777412762
 20
140.6015484033
 30
0.0
  0
SEQEND
  5
B46
  8
0
  6
CONTINUOUS
 62
     7
  0
LINE
  5
27F
  8
0
  6
CONTINUOUS
 62
     7
 10
214.6059691538
 20
140.6015484033
 30
0.0
 11
214.2777412762
 21
140.6015484033
 31
0.0
  0
POLYLINE
  5
280
  8
0
  6
CONTINUOUS
 62
     7
 66
     1
 10
0.0
 20
0.0
 30
0.0
  0
VERTEX
  5
8FF
  8
0
  6
CONTINUOUS
 62
     7
 10
213.0866244068
 20
140.6015484033
 30
0.0
  0
VERTEX
  5
900
  8
0
  6
CONTINUOUS
 62
     7
 10
213.0970626702
 20
140.7953342794
 30
0.0
  0
VERTEX
  5
901
  8
0
  6
CONTINUOUS
 62
     7
 10
213.5445743431
 20
149.4287150351
 30
0.0
  0
SEQEND
  5
B45
  8
0
  6
CONTINUOUS
 62
     7
  0
ARC
  5
281
  8
0
  6
CONTINUOUS
 62
     7
 10
214.3939917151
 20
146.9215134278
 30
0.0
 40
2.647181476920012
 50
82.3040657551
 51
108.7159183368
  0
LINE
  5
282
  8
0
  6
CONTINUOUS
 62
     7
 10
214.2777412762
 20
140.6015484033
 30
0.0
 11
213.0866244068
 21
140.6015484033
 31
0.0
  0
ARC
  5
283
  8
0
  6
CONTINUOUS
 62
     7
 10
214.138511934
 20
142.5780956254
 30
0.0
 40
2.13058910913292
 50
282.7848802925
 51
310.733345168
  0
LINE
  5
284
  8
0
  6
CONTINUOUS
 62
     7
 10
214.604739808
 20
140.6003302334
 30
0.0
 11
214.6099924673
 21
140.5003285406
 31
0.0
  0
ARC
  5
285
  8
0
  6
CONTINUOUS
 62
     7
 10
215.1011438598
 20
121.4011720904
 30
0.0
 40
0.4996257209166415
 50
182.9589643492
 51
269.9622144266
  0
POLYLINE
  5
286
  8
0
  6
CONTINUOUS
 62
     7
 66
     1
 10
0.0
 20
0.0
 30
0.0
  0
VERTEX
  5
902
  8
0
  6
CONTINUOUS
 62
     7
 10
214.6021842589
 20
121.3753810523
 30
0.0
  0
VERTEX
  5
903
  8
0
  6
CONTINUOUS
 62
     7
 10
214.6621390809
 20
121.3911651073
 30
0.0
  0
VERTEX
  5
904
  8
0
  6
CONTINUOUS
 62
     7
 10
214.7943719854
 20
121.568995565
 30
0.0
  0
VERTEX
  5
905
  8
0
  6
CONTINUOUS
 62
     7
 10
214.9128287663
 20
121.9871072469
 30
0.0
  0
VERTEX
  5
906
  8
0
  6
CONTINUOUS
 62
     7
 10
215.01194384
 20
122.700165063
 30
0.0
  0
VERTEX
  5
907
  8
0
  6
CONTINUOUS
 62
     7
 10
215.0799080362
 20
123.6457815765
 30
0.0
  0
VERTEX
  5
908
  8
0
  6
CONTINUOUS
 62
     7
 10
215.1224732031
 20
124.9101190267
 30
0.0
  0
VERTEX
  5
909
  8
0
  6
CONTINUOUS
 62
     7
 10
215.1347964634
 20
126.515432298
 30
0.0
  0
VERTEX
  5
90A
  8
0
  6
CONTINUOUS
 62
     7
 10
215.115901791
 20
128.4132069348
 30
0.0
  0
VERTEX
  5
90B
  8
0
  6
CONTINUOUS
 62
     7
 10
215.0493606557
 20
131.1618714033
 30
0.0
  0
VERTEX
  5
90C
  8
0
  6
CONTINUOUS
 62
     7
 10
214.9459763994
 20
134.1279512642
 30
0.0
  0
VERTEX
  5
90D
  8
0
  6
CONTINUOUS
 62
     7
 10
214.8115828266
 20
137.2937364874
 30
0.0
  0
VERTEX
  5
90E
  8
0
  6
CONTINUOUS
 62
     7
 10
214.6565436949
 20
140.5083341895
 30
0.0
  0
SEQEND
  5
B44
  8
0
  6
CONTINUOUS
 62
     7
  0
ARC
  5
287
  8
0
  6
CONTINUOUS
 62
     7
 10
214.0767163601
 20
142.3989108995
 30
0.0
 40
1.977493371603308
 50
287.0504292194
 51
300.1868217584
  0
ARC
  5
288
  8
0
  6
CONTINUOUS
 62
     7
 10
213.0092017404
 20
140.5990901007
 30
0.0
 40
0.002488074212319
 50
98.8724007063
 51
150.1037671616
  0
LINE
  5
289
  8
0
  6
CONTINUOUS
 62
     7
 10
213.0070447554
 20
140.6003302334
 30
0.0
 11
210.7722505559
 21
137.6418834923
 31
0.0
  0
LINE
  5
28A
  8
0
  6
CONTINUOUS
 62
     7
 10
210.7722505559
 20
137.6418834923
 30
0.0
 11
212.992911004
 21
177.3139934892
 31
0.0
  0
ARC
  5
28B
  8
0
  6
CONTINUOUS
 62
     7
 10
200.9360225317
 20
171.1616210114
 30
0.0
 40
13.53588736432751
 50
0.2394924197
 51
27.0342490513
  0
ARC
  5
28C
  8
0
  6
CONTINUOUS
 62
     7
 10
204.3341066146
 20
170.8112815092
 30
0.0
 40
10.14584843327267
 50
357.0993728813
 51
2.2985719782
  0
POLYLINE
  5
28D
  8
0
  6
CONTINUOUS
 62
     7
 66
     1
 10
0.0
 20
0.0
 30
0.0
  0
VERTEX
  5
90F
  8
0
  6
CONTINUOUS
 62
     7
 10
213.5445743431
 20
149.4287150351
 30
0.0
  0
VERTEX
  5
910
  8
0
  6
CONTINUOUS
 62
     7
 10
213.7998312344
 20
154.700906053
 30
0.0
  0
VERTEX
  5
911
  8
0
  6
CONTINUOUS
 62
     7
 10
214.0388458599
 20
159.9369254334
 30
0.0
  0
VERTEX
  5
912
  8
0
  6
CONTINUOUS
 62
     7
 10
214.2619013419
 20
165.1517581565
 30
0.0
  0
VERTEX
  5
913
  8
0
  6
CONTINUOUS
 62
     7
 10
214.466956221
 20
170.2978623005
 30
0.0
  0
SEQEND
  5
B43
  8
0
  6
CONTINUOUS
 62
     7
  0
ARC
  5
28E
  8
0
  6
CONTINUOUS
 62
     7
 10
215.5908954015
 20
169.1654696942
 30
0.0
 40
1.595478704384446
 50
77.4260688356
 51
134.7853403646
  0
ARC
  5
28F
  8
0
  6
CONTINUOUS
 62
     7
 10
214.5747977687
 20
140.8443243962
 30
0.0
 40
0.3457915781055633
 50
275.8416853243
 51
283.6742982898
  0
LINE
  5
290
  8
0
  6
CONTINUOUS
 62
     7
 10
213.3964046468
 20
121.3753810523
 30
0.0
 11
214.6021842589
 21
121.3753810523
 31
0.0
  0
LINE
  5
291
  8
0
  6
CONTINUOUS
 62
     7
 10
213.3964046468
 20
121.3753810523
 30
0.0
 11
212.5320478906
 21
137.8457053004
 31
0.0
  0
LINE
  5
292
  8
0
  6
CONTINUOUS
 62
     7
 10
385.5545267095
 20
170.4139789006
 30
0.0
 11
362.3684912552
 21
170.4139789006
 31
0.0
  0
POLYLINE
  5
293
  8
0
  6
CONTINUOUS
 62
     7
 66
     1
 10
0.0
 20
0.0
 30
0.0
  0
VERTEX
  5
914
  8
0
  6
CONTINUOUS
 62
     7
 10
387.593162023
 20
130.9015481172
 30
0.0
  0
VERTEX
  5
915
  8
0
  6
CONTINUOUS
 62
     7
 10
386.7757960786
 20
145.9833709894
 30
0.0
  0
VERTEX
  5
916
  8
0
  6
CONTINUOUS
 62
     7
 10
386.3783895602
 20
153.528536707
 30
0.0
  0
VERTEX
  5
917
  8
0
  6
CONTINUOUS
 62
     7
 10
385.9953626623
 20
161.0558946056
 30
0.0
  0
VERTEX
  5
918
  8
0
  6
CONTINUOUS
 62
     7
 10
385.7671364774
 20
165.7476937769
 30
0.0
  0
VERTEX
  5
919
  8
0
  6
CONTINUOUS
 62
     7
 10
385.5545267095
 20
170.4139789006
 30
0.0
  0
SEQEND
  5
B42
  8
0
  6
CONTINUOUS
 62
     7
  0
LINE
  5
294
  8
0
  6
CONTINUOUS
 62
     7
 10
362.3684912552
 20
130.9015481172
 30
0.0
 11
387.593162023
 21
130.9015481172
 31
0.0
  0
POLYLINE
  5
295
  8
0
  6
CONTINUOUS
 62
     7
 66
     1
 10
0.0
 20
0.0
 30
0.0
  0
VERTEX
  5
91A
  8
0
  6
CONTINUOUS
 62
     7
 10
387.0501339068
 20
170.1776297202
 30
0.0
  0
VERTEX
  5
91B
  8
0
  6
CONTINUOUS
 62
     7
 10
387.2631385555
 20
165.601162277
 30
0.0
  0
VERTEX
  5
91C
  8
0
  6
CONTINUOUS
 62
     7
 10
387.4909698595
 20
160.9750874711
 30
0.0
  0
VERTEX
  5
91D
  8
0
  6
CONTINUOUS
 62
     7
 10
387.8751664986
 20
153.4828963129
 30
0.0
  0
VERTEX
  5
91E
  8
0
  6
CONTINUOUS
 62
     7
 10
388.2726400723
 20
145.9729196875
 30
0.0
  0
VERTEX
  5
91F
  8
0
  6
CONTINUOUS
 62
     7
 10
389.091935717
 20
130.9015481172
 30
0.0
  0
SEQEND
  5
B41
  8
0
  6
CONTINUOUS
 62
     7
  0
LINE
  5
296
  8
0
  6
CONTINUOUS
 62
     7
 10
389.091935717
 20
130.9015481172
 30
0.0
 11
387.593162023
 21
130.9015481172
 31
0.0
  0
ARC
  5
297
  8
0
  6
CONTINUOUS
 62
     7
 10
385.9775072184
 20
168.2403381132
 30
0.0
 40
2.214413417451317
 50
61.0278706741
 51
101.011874898
  0
LINE
  5
298
  8
0
  6
CONTINUOUS
 62
     7
 10
391.2412717571
 20
130.9015481172
 30
0.0
 11
389.1184746851
 21
130.9015481172
 31
0.0
  0
ARC
  5
299
  8
0
  6
CONTINUOUS
 62
     7
 10
397.1214503072
 20
170.8149630776
 30
0.0
 40
10.09146212623124
 50
177.3159405864
 51
183.6209649262
  0
ARC
  5
29A
  8
0
  6
CONTINUOUS
 62
     7
 10
401.1744562593
 20
170.7574785625
 30
0.0
 40
14.1433331088301
 50
152.3803692021
 51
177.8522098125
  0
LINE
  5
29B
  8
0
  6
CONTINUOUS
 62
     7
 10
390.4854625096
 20
144.4015475361
 30
0.0
 11
388.6428296198
 21
177.3143227117
 31
0.0
  0
LINE
  5
29C
  8
0
  6
CONTINUOUS
 62
     7
 10
390.4112547268
 20
144.3229364602
 30
0.0
 11
390.4854625096
 21
144.4015475361
 31
0.0
  0
LINE
  5
29D
  8
0
  6
CONTINUOUS
 62
     7
 10
390.9623071184
 20
134.4801588355
 30
0.0
 11
390.4112547268
 21
144.3229364602
 31
0.0
  0
LINE
  5
29E
  8
0
  6
CONTINUOUS
 62
     7
 10
391.0453214874
 20
134.4015477596
 30
0.0
 11
390.9623071184
 21
134.4801588355
 31
0.0
  0
LINE
  5
29F
  8
0
  6
CONTINUOUS
 62
     7
 10
391.2412717571
 20
130.9015481172
 30
0.0
 11
391.0453214874
 21
134.4015477596
 31
0.0
  0
POLYLINE
  5
2A0
  8
0
  6
CONTINUOUS
 62
     7
 66
     1
 10
0.0
 20
0.0
 30
0.0
  0
VERTEX
  5
920
  8
0
  6
CONTINUOUS
 62
     7
 10
367.6775067677
 20
120.9015464781
 30
0.0
  0
VERTEX
  5
921
  8
0
  6
CONTINUOUS
 62
     7
 10
368.0371239414
 20
121.0637828706
 30
0.0
  0
VERTEX
  5
922
  8
0
  6
CONTINUOUS
 62
     7
 10
368.4189363946
 20
121.5888103841
 30
0.0
  0
VERTEX
  5
923
  8
0
  6
CONTINUOUS
 62
     7
 10
368.8181757559
 20
122.534099072
 30
0.0
  0
VERTEX
  5
924
  8
0
  6
CONTINUOUS
 62
     7
 10
369.0824627509
 20
123.3983030913
 30
0.0
  0
VERTEX
  5
925
  8
0
  6
CONTINUOUS
 62
     7
 10
369.3500205507
 20
124.4988134502
 30
0.0
  0
VERTEX
  5
926
  8
0
  6
CONTINUOUS
 62
     7
 10
369.6198358764
 20
125.8894345163
 30
0.0
  0
VERTEX
  5
927
  8
0
  6
CONTINUOUS
 62
     7
 10
369.8779537906
 20
127.5658486782
 30
0.0
  0
VERTEX
  5
928
  8
0
  6
CONTINUOUS
 62
     7
 10
370.0363084306
 20
128.8353233038
 30
0.0
  0
VERTEX
  5
929
  8
0
  6
CONTINUOUS
 62
     7
 10
370.1779588689
 20
130.1965667306
 30
0.0
  0
VERTEX
  5
92A
  8
0
  6
CONTINUOUS
 62
     7
 10
370.2410354843
 20
130.9015481172
 30
0.0
  0
SEQEND
  5
B40
  8
0
  6
CONTINUOUS
 62
     7
  0
LINE
  5
2A1
  8
0
  6
CONTINUOUS
 62
     7
 10
367.5278171529
 20
120.9015464781
 30
0.0
 11
367.6775067677
 21
120.9015464781
 31
0.0
  0
POLYLINE
  5
2A2
  8
0
  6
CONTINUOUS
 62
     7
 66
     1
 10
0.0
 20
0.0
 30
0.0
  0
VERTEX
  5
92B
  8
0
  6
CONTINUOUS
 62
     7
 10
387.2359588374
 20
120.9015464781
 30
0.0
  0
VERTEX
  5
92C
  8
0
  6
CONTINUOUS
 62
     7
 10
387.2359588374
 20
120.9015464781
 30
0.0
  0
VERTEX
  5
92D
  8
0
  6
CONTINUOUS
 62
     7
 10
387.1147378911
 20
120.9898284076
 30
0.0
  0
VERTEX
  5
92E
  8
0
  6
CONTINUOUS
 62
     7
 10
387.0041712751
 20
121.2665392457
 30
0.0
  0
VERTEX
  5
92F
  8
0
  6
CONTINUOUS
 62
     7
 10
386.9034543266
 20
121.7711745201
 30
0.0
  0
VERTEX
  5
930
  8
0
  6
CONTINUOUS
 62
     7
 10
386.8195533385
 20
122.5299453734
 30
0.0
  0
VERTEX
  5
931
  8
0
  6
CONTINUOUS
 62
     7
 10
386.7668851842
 20
123.3584946392
 30
0.0
  0
VERTEX
  5
932
  8
0
  6
CONTINUOUS
 62
     7
 10
386.731092595
 20
124.4238159059
 30
0.0
  0
VERTEX
  5
933
  8
0
  6
CONTINUOUS
 62
     7
 10
386.7174878349
 20
125.749132633
 30
0.0
  0
VERTEX
  5
934
  8
0
  6
CONTINUOUS
 62
     7
 10
386.7323964466
 20
127.4095802007
 30
0.0
  0
VERTEX
  5
935
  8
0
  6
CONTINUOUS
 62
     7
 10
386.7604106297
 20
128.6464697121
 30
0.0
  0
VERTEX
  5
936
  8
0
  6
CONTINUOUS
 62
     7
 10
386.8048831453
 20
130.0155027209
 30
0.0
  0
VERTEX
  5
937
  8
0
  6
CONTINUOUS
 62
     7
 10
386.840310656
 20
130.9015481172
 30
0.0
  0
SEQEND
  5
B3F
  8
0
  6
CONTINUOUS
 62
     7
  0
LINE
  5
2A3
  8
0
  6
CONTINUOUS
 62
     7
 10
367.6775067677
 20
120.9015464781
 30
0.0
 11
387.2359588374
 21
120.9015464781
 31
0.0
  0
POLYLINE
  5
2A4
  8
0
  6
CONTINUOUS
 62
     7
 66
     1
 10
0.0
 20
0.0
 30
0.0
  0
VERTEX
  5
938
  8
0
  6
CONTINUOUS
 62
     7
 10
387.3371079196
 20
130.9015481172
 30
0.0
  0
VERTEX
  5
939
  8
0
  6
CONTINUOUS
 62
     7
 10
387.3035207023
 20
130.1091490684
 30
0.0
  0
VERTEX
  5
93A
  8
0
  6
CONTINUOUS
 62
     7
 10
387.2595920791
 20
128.8384003935
 30
0.0
  0
VERTEX
  5
93B
  8
0
  6
CONTINUOUS
 62
     7
 10
387.2310265531
 20
127.6560156046
 30
0.0
  0
VERTEX
  5
93C
  8
0
  6
CONTINUOUS
 62
     7
 10
387.2162222494
 20
126.0989560185
 30
0.0
  0
VERTEX
  5
93D
  8
0
  6
CONTINUOUS
 62
     7
 10
387.2297227015
 20
124.8070700465
 30
0.0
  0
VERTEX
  5
93E
  8
0
  6
CONTINUOUS
 62
     7
 10
387.2652917733
 20
123.7809537349
 30
0.0
  0
VERTEX
  5
93F
  8
0
  6
CONTINUOUS
 62
     7
 10
387.3181834449
 20
122.9708521066
 30
0.0
  0
VERTEX
  5
940
  8
0
  6
CONTINUOUS
 62
     7
 10
387.4319463601
 20
122.0454229413
 30
0.0
  0
VERTEX
  5
941
  8
0
  6
CONTINUOUS
 62
     7
 10
387.5732168187
 20
121.5331247447
 30
0.0
  0
VERTEX
  5
942
  8
0
  6
CONTINUOUS
 62
     7
 10
387.7345889439
 20
121.3753810523
 30
0.0
  0
SEQEND
  5
B3E
  8
0
  6
CONTINUOUS
 62
     7
  0
ARC
  5
2A5
  8
0
  6
CONTINUOUS
 62
     7
 10
387.2356400993
 20
121.4011607712
 30
0.0
 40
0.4996143947598196
 50
270.0365528962
 51
357.042268328
  0
ARC
  5
2A6
  8
0
  6
CONTINUOUS
 62
     7
 10
212.1330400203
 20
137.8248105654
 30
0.0
 40
0.3995545901208714
 50
2.997654139
 51
129.1352856327
  0
LINE
  5
2A7
  8
0
  6
CONTINUOUS
 62
     7
 10
213.5070457687
 20
140.6003302334
 30
0.0
 11
211.2722441186
 21
137.6418834923
 31
0.0
  0
LINE
  5
2A8
  8
0
  6
CONTINUOUS
 62
     7
 10
211.2722441186
 20
137.6418834923
 30
0.0
 11
211.8808596959
 21
138.1347282229
 31
0.0
  0
LINE
  5
2A9
  8
0
  6
CONTINUOUS
 62
     7
 10
211.2722441186
 20
137.6418834923
 30
0.0
 11
210.7722505559
 21
137.6418834923
 31
0.0
  0
LINE
  5
2AA
  8
0
  6
CONTINUOUS
 62
     7
 10
387.7345889439
 20
121.3753810523
 30
0.0
 11
388.9413371314
 21
121.3753810523
 31
0.0
  0
LINE
  5
2AB
  8
0
  6
CONTINUOUS
 62
     7
 10
388.9413371314
 20
121.3753810523
 30
0.0
 11
389.4412710895
 21
130.9015481172
 31
0.0
  0
LINE
  5
2AC
  8
0
  6
CONTINUOUS
 62
     7
 10
363.9454364409
 20
120.9015464781
 30
0.0
 11
364.0951260557
 21
120.9015464781
 31
0.0
  0
POLYLINE
  5
2AD
  8
0
  6
CONTINUOUS
 62
     7
 66
     1
 10
0.0
 20
0.0
 30
0.0
  0
VERTEX
  5
943
  8
0
  6
CONTINUOUS
 62
     7
 10
362.3684912552
 20
124.0772819517
 30
0.0
  0
VERTEX
  5
944
  8
0
  6
CONTINUOUS
 62
     7
 10
362.5868901243
 20
123.2316298781
 30
0.0
  0
VERTEX
  5
945
  8
0
  6
CONTINUOUS
 62
     7
 10
362.8047674527
 20
122.534099072
 30
0.0
  0
VERTEX
  5
946
  8
0
  6
CONTINUOUS
 62
     7
 10
363.1012707581
 20
121.7945209144
 30
0.0
  0
VERTEX
  5
947
  8
0
  6
CONTINUOUS
 62
     7
 10
363.3878051867
 20
121.2937785683
 30
0.0
  0
VERTEX
  5
948
  8
0
  6
CONTINUOUS
 62
     7
 10
363.6728420486
 20
120.9963551162
 30
0.0
  0
VERTEX
  5
949
  8
0
  6
CONTINUOUS
 62
     7
 10
363.9454364409
 20
120.9015464781
 30
0.0
  0
SEQEND
  5
B3D
  8
0
  6
CONTINUOUS
 62
     7
  0
ARC
  5
2AE
  8
0
  6
CONTINUOUS
 62
     7
 10
148.0819189216
 20
172.7281927518
 30
0.0
 40
67.88594111601107
 50
358.3071015349
 51
359.8607739058
  0
POLYLINE
  5
2AF
  8
0
  6
CONTINUOUS
 62
     7
 66
     1
 10
0.0
 20
0.0
 30
0.0
  0
VERTEX
  5
94A
  8
0
  6
CONTINUOUS
 62
     7
 10
215.9676596155
 20
172.563233217
 30
0.0
  0
VERTEX
  5
94B
  8
0
  6
CONTINUOUS
 62
     7
 10
235.0146367778
 20
172.4507814877
 30
0.0
  0
VERTEX
  5
94C
  8
0
  6
CONTINUOUS
 62
     7
 10
254.0633983542
 20
172.4273532534
 30
0.0
  0
VERTEX
  5
94D
  8
0
  6
CONTINUOUS
 62
     7
 10
273.6954360833
 20
172.5073076457
 30
0.0
  0
VERTEX
  5
94E
  8
0
  6
CONTINUOUS
 62
     7
 10
293.3275357452
 20
172.5845086992
 30
0.0
  0
VERTEX
  5
94F
  8
0
  6
CONTINUOUS
 62
     7
 10
332.5945369532
 20
172.6330668105
 30
0.0
  0
VERTEX
  5
950
  8
0
  6
CONTINUOUS
 62
     7
 10
362.3684912552
 20
172.6337822991
 30
0.0
  0
SEQEND
  5
B3C
  8
0
  6
CONTINUOUS
 62
     7
  0
ARC
  5
2B0
  8
0
  6
CONTINUOUS
 62
     7
 10
215.9520344935
 20
171.0762851548
 30
0.0
 40
1.487030155788082
 50
89.3979476387
 51
174.5236409235
  0
LINE
  5
2B1
  8
0
  6
CONTINUOUS
 62
     7
 10
362.3684912552
 20
172.6337822991
 30
0.0
 11
385.5454519023
 21
172.6337822991
 31
0.0
  0
ARC
  5
2B2
  8
0
  6
CONTINUOUS
 62
     7
 10
425.8687296531
 20
171.688708167
 30
0.0
 40
40.33435128618735
 50
178.657379794
 51
181.8110808403
  0
ARC
  5
2B3
  8
0
  6
CONTINUOUS
 62
     7
 10
385.5586918976
 20
171.1445989868
 30
0.0
 40
1.489242168036863
 50
5.5075374994
 51
90.5093905225
  0
ARC
  5
2B4
  8
0
  6
CONTINUOUS
 62
     7
 10
202.2592973026
 20
172.5332088017
 30
0.0
 40
13.70839519292961
 50
0.1254905211
 51
26.8684346867
  0
LINE
  5
2B5
  8
0
  6
CONTINUOUS
 62
     7
 10
362.3684912552
 20
178.7286266124
 30
0.0
 11
214.4878252973
 21
178.7286266124
 31
0.0
  0
ARC
  5
2B6
  8
0
  6
CONTINUOUS
 62
     7
 10
214.4877566258
 20
177.2315068885
 30
0.0
 40
1.497119725460139
 50
89.9973718966
 51
176.8415829163
  0
LINE
  5
2B7
  8
0
  6
CONTINUOUS
 62
     7
 10
362.3684912552
 20
178.7286266124
 30
0.0
 11
387.1479972829
 21
178.7286266124
 31
0.0
  0
ARC
  5
2B8
  8
0
  6
CONTINUOUS
 62
     7
 10
400.3585092732
 20
171.9970216187
 30
0.0
 40
14.82673709340267
 50
152.9982338838
 51
177.5385734647
  0
ARC
  5
2B9
  8
0
  6
CONTINUOUS
 62
     7
 10
387.1480534318
 20
177.2315610345
 30
0.0
 40
1.497065578927238
 50
3.1690752494
 51
90.0021489317
  0
LINE
  5
2BA
  8
0
  6
CONTINUOUS
 62
     7
 10
362.3684912552
 20
120.9015464781
 30
0.0
 11
363.9454364409
 21
120.9015464781
 31
0.0
  0
LINE
  5
2BB
  8
0
  6
CONTINUOUS
 62
     7
 10
388.4413361182
 20
120.9015464781
 30
0.0
 11
387.2359588374
 21
120.9015464781
 31
0.0
  0
ARC
  5
2BC
  8
0
  6
CONTINUOUS
 62
     7
 10
388.4416530925
 20
121.4019355039
 30
0.0
 40
0.5003891262477799
 50
269.9637056594
 51
356.9580213746
  0
ARC
  5
2BD
  8
0
  6
CONTINUOUS
 62
     7
 10
213.8960311481
 20
121.401874789
 30
0.0
 40
0.5003284510295037
 50
183.0353852266
 51
270.0428877394
  0
LINE
  5
2BE
  8
0
  6
CONTINUOUS
 62
     7
 10
367.5278171529
 20
120.9015464781
 30
0.0
 11
366.0397424926
 21
120.9015464781
 31
0.0
  0
LINE
  5
2BF
  8
0
  6
CONTINUOUS
 62
     7
 10
365.583200716
 20
120.9015464781
 30
0.0
 11
364.0951260557
 21
120.9015464781
 31
0.0
  0
LINE
  5
2C0
  8
0
  6
CONTINUOUS
 62
     7
 10
366.0397424926
 20
120.9015464781
 30
0.0
 11
365.8412739267
 21
120.9015464781
 31
0.0
  0
LINE
  5
2C1
  8
0
  6
CONTINUOUS
 62
     7
 10
365.7815798749
 20
120.9015464781
 30
0.0
 11
365.583200716
 21
120.9015464781
 31
0.0
  0
LINE
  5
2C2
  8
0
  6
CONTINUOUS
 62
     8
 10
361.3818928232
 20
130.9043607114
 30
0.0
 11
360.99764403
 21
130.9179170428
 31
0.0
  0
LINE
  5
2C3
  8
0
  6
CONTINUOUS
 62
     8
 10
318.2770356168
 20
135.8499741552
 30
0.0
 11
310.9751239051
 21
137.4321906267
 31
0.0
  0
LINE
  5
2C4
  8
0
  6
CONTINUOUS
 62
     8
 10
280.5821790923
 20
144.7206018863
 30
0.0
 11
278.9871224766
 21
145.0770451127
 31
0.0
  0
LINE
  5
2C5
  8
0
  6
CONTINUOUS
 62
     8
 10
245.1776682963
 20
149.426217228
 30
0.0
 11
241.3742176821
 21
149.1911160199
 31
0.0
  0
LINE
  5
2C6
  8
0
  6
CONTINUOUS
 62
     8
 10
217.6643132796
 20
142.21475929
 30
0.0
 11
215.487469696
 21
141.055407971
 31
0.0
  0
LINE
  5
2C7
  8
0
  6
CONTINUOUS
 62
     8
 10
214.5509913196
 20
140.6015484033
 30
0.0
 11
212.5320478906
 21
137.8457053004
 31
0.0
  0
LINE
  5
2C8
  8
0
  6
CONTINUOUS
 62
     8
 10
211.8808596959
 20
138.1347282229
 30
0.0
 11
213.6880650749
 21
140.6015484033
 31
0.0
  0
LINE
  5
2C9
  8
0
  6
CONTINUOUS
 62
     8
 10
366.0397424926
 20
120.9015464781
 30
0.0
 11
366.0397424926
 21
120.9095185993
 31
0.0
  0
LINE
  5
2CA
  8
0
  6
CONTINUOUS
 62
     8
 10
365.583200716
 20
120.9095185993
 30
0.0
 11
365.583200716
 21
120.9015464781
 31
0.0
  0
DIMENSION
  5
2CB
  8
COTATION
  2
_D_2
 10
200.248491716
 20
120.9015476921
 30
0.0
 11
200.248491716
 21
149.8150871775
 31
0.0
 70
   160
  1
<>
  3
SLDDIMSTYLE1
 13
214.4878280841
 23
178.7286266641
 33
0.0
 14
213.8964057958
 24
120.9015476921
 34
0.0
 50
90.0
  0
DIMENSION
  5
2D5
  8
COTATION
  2
_D_3
 10
391.2412683781
 20
189.2730378009
 30
0.0
 11
301.0067580849
 21
189.2730378009
 31
0.0
 70
   160
  1
<>
  3
SLDDIMSTYLE1
 13
210.7722477918
 23
137.641882176
 33
0.0
 14
391.2412683781
 24
130.9015476921
 34
0.0
  0
ARC
  5
2DF
  8
0
  6
CONTINUOUS
 62
     7
 10
159.1465877608
 20
144.7473936292
 30
0.0
 40
3.192857142857179
 50
20.0159596029
 51
90.0
  0
ARC
  5
2E0
  8
0
  6
CONTINUOUS
 62
     7
 10
159.1465877608
 20
146.9331079149
 30
0.0
 40
3.19285714285715
 50
270.0
 51
339.9840403971
  0
LINE
  5
2E1
  8
0
  6
CONTINUOUS
 62
     7
 10
152.5465877608
 20
143.7402507661
 30
0.0
 11
159.1465877251
 21
143.7402507661
 31
0.0
  0
LINE
  5
2E2
  8
0
  6
CONTINUOUS
 62
     7
 10
159.1465877251
 20
147.940251082
 30
0.0
 11
152.5465877608
 21
147.940251082
 31
0.0
  0
POLYLINE
  5
2E3
  8
0
  6
CONTINUOUS
 62
     7
 66
     1
 10
0.0
 20
0.0
 30
0.0
  0
VERTEX
  5
951
  8
0
  6
CONTINUOUS
 62
     7
 10
116.5500501052
 20
123.6044755576
 30
0.0
  0
VERTEX
  5
952
  8
0
  6
CONTINUOUS
 62
     7
 10
116.4253311113
 20
123.6634543536
 30
0.0
  0
VERTEX
  5
953
  8
0
  6
CONTINUOUS
 62
     7
 10
116.2131572024
 20
123.7782156466
 30
0.0
  0
VERTEX
  5
954
  8
0
  6
CONTINUOUS
 62
     7
 10
116.162374045
 20
123.806542754
 30
0.0
  0
VERTEX
  5
955
  8
0
  6
CONTINUOUS
 62
     7
 10
116.1504195885
 20
123.8132967053
 30
0.0
  0
VERTEX
  5
956
  8
0
  6
CONTINUOUS
 62
     7
 10
116.1488214389
 20
123.8142131267
 30
0.0
  0
VERTEX
  5
957
  8
0
  6
CONTINUOUS
 62
     7
 10
116.1482328431
 20
123.8145521281
 30
0.0
  0
VERTEX
  5
958
  8
0
  6
CONTINUOUS
 62
     7
 10
116.1479906992
 20
123.8146936892
 30
0.0
  0
VERTEX
  5
959
  8
0
  6
CONTINUOUS
 62
     7
 10
116.1477783577
 20
123.8148166237
 30
0.0
  0
VERTEX
  5
95A
  8
0
  6
CONTINUOUS
 62
     7
 10
116.1477336542
 20
123.8148427008
 30
0.0
  0
VERTEX
  5
95B
  8
0
  6
CONTINUOUS
 62
     7
 10
116.1477113024
 20
123.8148576019
 30
0.0
  0
VERTEX
  5
95C
  8
0
  6
CONTINUOUS
 62
     7
 10
116.1476889507
 20
123.8148725031
 30
0.0
  0
VERTEX
  5
95D
  8
0
  6
CONTINUOUS
 62
     7
 10
116.1476777748
 20
123.8148762284
 30
0.0
  0
VERTEX
  5
95E
  8
0
  6
CONTINUOUS
 62
     7
 10
116.1476665989
 20
123.814883679
 30
0.0
  0
VERTEX
  5
95F
  8
0
  6
CONTINUOUS
 62
     7
 10
116.1476479725
 20
123.8148948548
 30
0.0
  0
VERTEX
  5
960
  8
0
  6
CONTINUOUS
 62
     7
 10
116.1476256207
 20
123.8149060307
 30
0.0
  0
VERTEX
  5
961
  8
0
  6
CONTINUOUS
 62
     7
 10
116.1476069943
 20
123.8149209319
 30
0.0
  0
VERTEX
  5
962
  8
0
  6
CONTINUOUS
 62
     7
 10
116.1475324885
 20
123.8149619101
 30
0.0
  0
VERTEX
  5
963
  8
0
  6
CONTINUOUS
 62
     7
 10
116.1474654333
 20
123.8150028883
 30
0.0
  0
VERTEX
  5
964
  8
0
  6
CONTINUOUS
 62
     7
 10
116.1472940699
 20
123.8151109217
 30
0.0
  0
VERTEX
  5
965
  8
0
  6
CONTINUOUS
 62
     7
 10
116.1473201469
 20
123.8151034711
 30
0.0
  0
SEQEND
  5
B3B
  8
0
  6
CONTINUOUS
 62
     7
  0
POLYLINE
  5
2E4
  8
0
  6
CONTINUOUS
 62
     7
 66
     1
 10
0.0
 20
0.0
 30
0.0
  0
VERTEX
  5
966
  8
0
  6
CONTINUOUS
 62
     7
 10
104.8476429538
 20
143.8829107581
 30
0.0
  0
VERTEX
  5
967
  8
0
  6
CONTINUOUS
 62
     7
 10
105.0535732762
 20
142.4390441177
 30
0.0
  0
VERTEX
  5
968
  8
0
  6
CONTINUOUS
 62
     7
 10
105.7590613023
 20
139.1687197981
 30
0.0
  0
VERTEX
  5
969
  8
0
  6
CONTINUOUS
 62
     7
 10
106.5959254161
 20
136.3597168027
 30
0.0
  0
VERTEX
  5
96A
  8
0
  6
CONTINUOUS
 62
     7
 10
107.4446545795
 20
134.1471253334
 30
0.0
  0
VERTEX
  5
96B
  8
0
  6
CONTINUOUS
 62
     7
 10
108.1856334464
 20
132.550588846
 30
0.0
  0
VERTEX
  5
96C
  8
0
  6
CONTINUOUS
 62
     7
 10
108.731977071
 20
131.5195663272
 30
0.0
  0
VERTEX
  5
96D
  8
0
  6
CONTINUOUS
 62
     7
 10
108.9150676385
 20
131.1964868007
 30
0.0
  0
VERTEX
  5
96E
  8
0
  6
CONTINUOUS
 62
     7
 10
109.0330289558
 20
130.9933429955
 30
0.0
  0
VERTEX
  5
96F
  8
0
  6
CONTINUOUS
 62
     7
 10
109.4253132001
 20
130.3453510998
 30
0.0
  0
VERTEX
  5
970
  8
0
  6
CONTINUOUS
 62
     7
 10
110.0062647716
 20
129.4652549921
 30
0.0
  0
VERTEX
  5
971
  8
0
  6
CONTINUOUS
 62
     7
 10
110.7952514545
 20
128.4040948747
 30
0.0
  0
VERTEX
  5
972
  8
0
  6
CONTINUOUS
 62
     7
 10
111.2527618066
 20
127.85152629
 30
0.0
  0
VERTEX
  5
973
  8
0
  6
CONTINUOUS
 62
     7
 10
111.6830514626
 20
127.372278869
 30
0.0
  0
VERTEX
  5
974
  8
0
  6
CONTINUOUS
 62
     7
 10
112.0808752135
 20
126.9627763329
 30
0.0
  0
VERTEX
  5
975
  8
0
  6
CONTINUOUS
 62
     7
 10
112.4449776367
 20
126.6152849792
 30
0.0
  0
VERTEX
  5
976
  8
0
  6
CONTINUOUS
 62
     7
 10
112.7887772278
 20
126.308544576
 30
0.0
  0
VERTEX
  5
977
  8
0
  6
CONTINUOUS
 62
     7
 10
113.2535444454
 20
125.9067794679
 30
0.0
  0
VERTEX
  5
978
  8
0
  6
CONTINUOUS
 62
     7
 10
113.5434688882
 20
125.6653061507
 30
0.0
  0
VERTEX
  5
979
  8
0
  6
CONTINUOUS
 62
     7
 10
113.8698490218
 20
125.4029488562
 30
0.0
  0
VERTEX
  5
97A
  8
0
  6
CONTINUOUS
 62
     7
 10
114.6292829768
 20
124.8323461412
 30
0.0
  0
VERTEX
  5
97B
  8
0
  6
CONTINUOUS
 62
     7
 10
115.0513583676
 20
124.5386368034
 30
0.0
  0
SEQEND
  5
B3A
  8
0
  6
CONTINUOUS
 62
     7
  0
ARC
  5
2E5
  8
0
  6
CONTINUOUS
 62
     7
 10
125.7244799746
 20
139.1439626999
 30
0.0
 40
18.02482970153116
 50
242.7578081331
 51
261.8839220143
  0
ARC
  5
2E6
  8
0
  6
CONTINUOUS
 62
     7
 10
114.4231338175
 20
169.5640431407
 30
0.0
 40
2.99999217741319
 50
107.9665298415
 51
145.9301815017
  0
ARC
  5
2E7
  8
0
  6
CONTINUOUS
 62
     7
 10
157.1332349668
 20
138.612400844
 30
0.0
 40
55.73335429249807
 50
144.1783701387
 51
168.7559515294
  0
ARC
  5
2E8
  8
0
  6
CONTINUOUS
 62
     7
 10
118.4258369189
 20
131.9012859697
 30
0.0
 40
7.73819307477471
 50
187.4230918537
 51
228.5510703686
  0
ARC
  5
2E9
  8
0
  6
CONTINUOUS
 62
     7
 10
157.8100070772
 20
22.2591859332
 30
0.0
 40
155.1815899633274
 50
92.3131932326
 51
106.1888206013
  0
ARC
  5
2EA
  8
0
  6
CONTINUOUS
 62
     7
 10
124.3050004795
 20
174.7282286082
 30
0.0
 40
10.34890783028863
 50
191.6763637213
 51
199.418737859
  0
POLYLINE
  5
2EB
  8
0
  6
CONTINUOUS
 62
     7
 66
     1
 10
0.0
 20
0.0
 30
0.0
  0
VERTEX
  5
97C
  8
0
  6
CONTINUOUS
 62
     7
 10
114.1702489809
 20
172.6337822991
 30
0.0
  0
VERTEX
  5
97D
  8
0
  6
CONTINUOUS
 62
     7
 10
117.0435355858
 20
173.4919842063
 30
0.0
  0
VERTEX
  5
97E
  8
0
  6
CONTINUOUS
 62
     7
 10
122.8611538068
 20
174.9534329072
 30
0.0
  0
VERTEX
  5
97F
  8
0
  6
CONTINUOUS
 62
     7
 10
128.7581728653
 20
176.1301863378
 30
0.0
  0
VERTEX
  5
980
  8
0
  6
CONTINUOUS
 62
     7
 10
134.4148119793
 20
177.0290523207
 30
0.0
  0
VERTEX
  5
981
  8
0
  6
CONTINUOUS
 62
     7
 10
140.0973856331
 20
177.7444172556
 30
0.0
  0
VERTEX
  5
982
  8
0
  6
CONTINUOUS
 62
     7
 10
151.5465877133
 20
178.7286266124
 30
0.0
  0
SEQEND
  5
B39
  8
0
  6
CONTINUOUS
 62
     7
  0
LINE
  5
2EC
  8
0
  6
CONTINUOUS
 62
     7
 10
151.5465877133
 20
178.7286266124
 30
0.0
 11
151.5465877133
 21
177.3143227117
 31
0.0
  0
LINE
  5
2ED
  8
0
  6
CONTINUOUS
 62
     7
 10
151.5465877133
 20
130.9015481172
 30
0.0
 11
111.0412919776
 21
130.9015481172
 31
0.0
  0
LINE
  5
2EE
  8
0
  6
CONTINUOUS
 62
     7
 10
110.5349244432
 20
130.9015481172
 30
0.0
 11
111.0412919776
 21
130.9015481172
 31
0.0
  0
POLYLINE
  5
2EF
  8
0
  6
CONTINUOUS
 62
     7
 66
     1
 10
0.0
 20
0.0
 30
0.0
  0
VERTEX
  5
983
  8
0
  6
CONTINUOUS
 62
     7
 10
113.5322855667
 20
170.1776297202
 30
0.0
  0
VERTEX
  5
984
  8
0
  6
CONTINUOUS
 62
     7
 10
112.7076702074
 20
165.601162277
 30
0.0
  0
VERTEX
  5
985
  8
0
  6
CONTINUOUS
 62
     7
 10
112.1131995574
 20
160.9750874711
 30
0.0
  0
VERTEX
  5
986
  8
0
  6
CONTINUOUS
 62
     7
 10
111.4404195801
 20
153.4828963129
 30
0.0
  0
VERTEX
  5
987
  8
0
  6
CONTINUOUS
 62
     7
 10
111.001952912
 20
145.9729196875
 30
0.0
  0
VERTEX
  5
988
  8
0
  6
CONTINUOUS
 62
     7
 10
110.5349244432
 20
130.9015481172
 30
0.0
  0
SEQEND
  5
B38
  8
0
  6
CONTINUOUS
 62
     7
  0
ARC
  5
2F0
  8
0
  6
CONTINUOUS
 62
     7
 10
114.9977273974
 20
169.8575585007
 30
0.0
 40
1.499988448193286
 50
107.5749643796
 51
167.6793531422
  0
LINE
  5
2F1
  8
0
  6
CONTINUOUS
 62
     7
 10
151.5465877133
 20
144.4015475361
 30
0.0
 11
151.5465877133
 21
177.3143227117
 31
0.0
  0
LINE
  5
2F2
  8
0
  6
CONTINUOUS
 62
     7
 10
150.0465878167
 20
144.3229364602
 30
0.0
 11
151.5465877133
 21
144.4015475361
 31
0.0
  0
LINE
  5
2F3
  8
0
  6
CONTINUOUS
 62
     7
 10
150.0465878167
 20
134.4801588355
 30
0.0
 11
150.0465878167
 21
144.3229364602
 31
0.0
  0
LINE
  5
2F4
  8
0
  6
CONTINUOUS
 62
     7
 10
151.5465877133
 20
134.4015477596
 30
0.0
 11
150.0465878167
 21
134.4801588355
 31
0.0
  0
LINE
  5
2F5
  8
0
  6
CONTINUOUS
 62
     7
 10
151.5465877133
 20
130.9015481172
 30
0.0
 11
151.5465877133
 21
134.4015477596
 31
0.0
  0
POLYLINE
  5
2F6
  8
0
  6
CONTINUOUS
 62
     7
 66
     1
 10
0.0
 20
0.0
 30
0.0
  0
VERTEX
  5
989
  8
0
  6
CONTINUOUS
 62
     7
 10
109.1145383076
 20
130.9015481172
 30
0.0
  0
VERTEX
  5
98A
  8
0
  6
CONTINUOUS
 62
     7
 10
109.5831164972
 20
145.9833709894
 30
0.0
  0
VERTEX
  5
98B
  8
0
  6
CONTINUOUS
 62
     7
 10
110.0242802755
 20
153.528536707
 30
0.0
  0
VERTEX
  5
98C
  8
0
  6
CONTINUOUS
 62
     7
 10
110.7006328062
 20
161.0558946056
 30
0.0
  0
VERTEX
  5
98D
  8
0
  6
CONTINUOUS
 62
     7
 10
111.3038094596
 20
165.7476937769
 30
0.0
  0
VERTEX
  5
98E
  8
0
  6
CONTINUOUS
 62
     7
 10
112.1452147023
 20
170.4139789006
 30
0.0
  0
SEQEND
  5
B37
  8
0
  6
CONTINUOUS
 62
     7
  0
ARC
  5
2F7
  8
0
  6
CONTINUOUS
 62
     7
 10
111.5072969291
 20
162.4818573957
 30
0.0
 40
7.957731501720786
 50
75.2579314525
 51
85.4020494832
  0
LINE
  5
2F8
  8
0
  6
CONTINUOUS
 62
     7
 10
110.5349244432
 20
130.9015481172
 30
0.0
 11
109.1145383076
 21
130.9015481172
 31
0.0
  0
LINE
  5
2F9
  8
0
  6
CONTINUOUS
 62
     7
 10
128.5204565034
 20
121.3753810523
 30
0.0
 11
151.5465877133
 21
121.3753810523
 31
0.0
  0
POLYLINE
  5
2FA
  8
0
  6
CONTINUOUS
 62
     7
 66
     1
 10
0.0
 20
0.0
 30
0.0
  0
VERTEX
  5
98F
  8
0
  6
CONTINUOUS
 62
     7
 10
111.3967554525
 20
130.9015481172
 30
0.0
  0
VERTEX
  5
990
  8
0
  6
CONTINUOUS
 62
     7
 10
111.5493507937
 20
130.1091490684
 30
0.0
  0
VERTEX
  5
991
  8
0
  6
CONTINUOUS
 62
     7
 10
111.9836525873
 20
128.8384003935
 30
0.0
  0
VERTEX
  5
992
  8
0
  6
CONTINUOUS
 62
     7
 10
112.6226590828
 20
127.6560156046
 30
0.0
  0
VERTEX
  5
993
  8
0
  6
CONTINUOUS
 62
     7
 10
113.8993309692
 20
126.0989560185
 30
0.0
  0
VERTEX
  5
994
  8
0
  6
CONTINUOUS
 62
     7
 10
115.4506200806
 20
124.8070700465
 30
0.0
  0
VERTEX
  5
995
  8
0
  6
CONTINUOUS
 62
     7
 10
117.1568328396
 20
123.7809537349
 30
0.0
  0
VERTEX
  5
996
  8
0
  6
CONTINUOUS
 62
     7
 10
118.9773337797
 20
122.9708521066
 30
0.0
  0
VERTEX
  5
997
  8
0
  6
CONTINUOUS
 62
     7
 10
122.0747468875
 20
122.0454229413
 30
0.0
  0
VERTEX
  5
998
  8
0
  6
CONTINUOUS
 62
     7
 10
125.2833636359
 20
121.5331247447
 30
0.0
  0
VERTEX
  5
999
  8
0
  6
CONTINUOUS
 62
     7
 10
128.5204565034
 20
121.3753810523
 30
0.0
  0
SEQEND
  5
B36
  8
0
  6
CONTINUOUS
 62
     7
  0
LINE
  5
2FB
  8
0
  6
CONTINUOUS
 62
     7
 10
151.5465877133
 20
121.3753810523
 30
0.0
 11
151.5465877133
 21
130.9015481172
 31
0.0
  0
ARC
  5
2FC
  8
0
  6
CONTINUOUS
 62
     7
 10
130.7617772674
 20
121.2613476778
 30
0.0
 40
2.244219770298397
 50
177.0874305931
 51
189.2256746211
  0
POLYLINE
  5
2FD
  8
0
  6
CONTINUOUS
 62
     7
 66
     1
 10
0.0
 20
0.0
 30
0.0
  0
VERTEX
  5
99A
  8
0
  6
CONTINUOUS
 62
     7
 10
128.5465875522
 20
120.9015464781
 30
0.0
  0
VERTEX
  5
99B
  8
0
  6
CONTINUOUS
 62
     7
 10
128.5465279476
 20
120.9015464781
 30
0.0
  0
VERTEX
  5
99C
  8
0
  6
CONTINUOUS
 62
     7
 10
126.1096851782
 20
120.9898284076
 30
0.0
  0
VERTEX
  5
99D
  8
0
  6
CONTINUOUS
 62
     7
 10
123.6869966493
 20
121.2665392457
 30
0.0
  0
VERTEX
  5
99E
  8
0
  6
CONTINUOUS
 62
     7
 10
121.2225103632
 20
121.7711745201
 30
0.0
  0
VERTEX
  5
99F
  8
0
  6
CONTINUOUS
 62
     7
 10
118.8250290112
 20
122.5299453734
 30
0.0
  0
VERTEX
  5
9A0
  8
0
  6
CONTINUOUS
 62
     7
 10
116.9624248401
 20
123.3584946392
 30
0.0
  0
VERTEX
  5
9A1
  8
0
  6
CONTINUOUS
 62
     7
 10
115.1897417263
 20
124.4238159059
 30
0.0
  0
VERTEX
  5
9A2
  8
0
  6
CONTINUOUS
 62
     7
 10
113.5924415545
 20
125.749132633
 30
0.0
  0
VERTEX
  5
9A3
  8
0
  6
CONTINUOUS
 62
     7
 10
112.229637231
 20
127.4095802007
 30
0.0
  0
VERTEX
  5
9A4
  8
0
  6
CONTINUOUS
 62
     7
 10
111.5580307201
 20
128.6464697121
 30
0.0
  0
VERTEX
  5
9A5
  8
0
  6
CONTINUOUS
 62
     7
 10
111.0900523023
 20
130.0155027209
 30
0.0
  0
VERTEX
  5
9A6
  8
0
  6
CONTINUOUS
 62
     7
 10
110.9217995659
 20
130.9015481172
 30
0.0
  0
SEQEND
  5
B35
  8
0
  6
CONTINUOUS
 62
     7
  0
LINE
  5
2FE
  8
0
  6
CONTINUOUS
 62
     7
 10
110.9217995659
 20
130.9015481172
 30
0.0
 11
111.3967554525
 21
130.9015481172
 31
0.0
  0
LINE
  5
2FF
  8
0
  6
CONTINUOUS
 62
     7
 10
151.5465877133
 20
120.9015464781
 30
0.0
 11
128.5465875522
 21
120.9015464781
 31
0.0
  0
LINE
  5
300
  8
0
  6
CONTINUOUS
 62
     7
 10
151.5465877133
 20
121.3753810523
 30
0.0
 11
151.5465877133
 21
120.9015464781
 31
0.0
  0
ARC
  5
301
  8
0
  6
CONTINUOUS
 62
     7
 10
115.076115038
 20
169.77381943
 30
0.0
 40
2.999996820987067
 50
107.5751032693
 51
167.6791033086
  0
LINE
  5
302
  8
0
  6
CONTINUOUS
 62
     7
 10
102.9770480351
 20
149.4782241432
 30
0.0
 11
102.9826620475
 21
149.4717626272
 31
0.0
  0
POLYLINE
  5
303
  8
0
  6
CONTINUOUS
 62
     7
 66
     1
 10
0.0
 20
0.0
 30
0.0
  0
VERTEX
  5
9A7
  8
0
  6
CONTINUOUS
 62
     7
 10
113.5489897684
 20
172.4344123293
 30
0.0
  0
VERTEX
  5
9A8
  8
0
  6
CONTINUOUS
 62
     7
 10
113.5272489742
 20
172.4273532534
 30
0.0
  0
VERTEX
  5
9A9
  8
0
  6
CONTINUOUS
 62
     7
 10
113.7746566788
 20
172.5073076457
 30
0.0
  0
VERTEX
  5
9AA
  8
0
  6
CONTINUOUS
 62
     7
 10
114.0151874975
 20
172.5845086992
 30
0.0
  0
VERTEX
  5
9AB
  8
0
  6
CONTINUOUS
 62
     7
 10
114.167991455
 20
172.6330668105
 30
0.0
  0
SEQEND
  5
B34
  8
0
  6
CONTINUOUS
 62
     7
  0
LINE
  5
304
  8
0
  6
CONTINUOUS
 62
     7
 10
114.1691313938
 20
172.6334279308
 30
0.0
 11
114.1702489809
 21
172.6337822991
 31
0.0
  0
POLYLINE
  5
305
  8
0
  6
CONTINUOUS
 62
     7
 66
     1
 10
0.0
 20
0.0
 30
0.0
  0
VERTEX
  5
9AC
  8
0
  6
CONTINUOUS
 62
     7
 10
151.5465877133
 20
178.7286266124
 30
0.0
  0
VERTEX
  5
9AD
  8
0
  6
CONTINUOUS
 62
     7
 10
151.5465877133
 20
178.7286266124
 30
0.0
  0
SEQEND
  5
B33
  8
0
  6
CONTINUOUS
 62
     7
  0
POLYLINE
  5
306
  8
0
  6
CONTINUOUS
 62
     7
 66
     1
 10
0.0
 20
0.0
 30
0.0
  0
VERTEX
  5
9AE
  8
0
  6
CONTINUOUS
 62
     7
 10
109.1145383076
 20
130.9015481172
 30
0.0
  0
VERTEX
  5
9AF
  8
0
  6
CONTINUOUS
 62
     7
 10
109.0356329338
 20
131.2143644689
 30
0.0
  0
VERTEX
  5
9B0
  8
0
  6
CONTINUOUS
 62
     7
 10
108.7989913181
 20
132.1069850026
 30
0.0
  0
VERTEX
  5
9B1
  8
0
  6
CONTINUOUS
 62
     7
 10
108.4047065929
 20
133.5106632112
 30
0.0
  0
VERTEX
  5
9B2
  8
0
  6
CONTINUOUS
 62
     7
 10
107.853173639
 20
135.3559075294
 30
0.0
  0
VERTEX
  5
9B3
  8
0
  6
CONTINUOUS
 62
     7
 10
107.1546370045
 20
137.5483004747
 30
0.0
  0
VERTEX
  5
9B4
  8
0
  6
CONTINUOUS
 62
     7
 10
106.3313143209
 20
139.963108152
 30
0.0
  0
VERTEX
  5
9B5
  8
0
  6
CONTINUOUS
 62
     7
 10
105.4086604969
 20
142.4711449443
 30
0.0
  0
VERTEX
  5
9B6
  8
0
  6
CONTINUOUS
 62
     7
 10
104.4379019991
 20
144.914011508
 30
0.0
  0
VERTEX
  5
9B7
  8
0
  6
CONTINUOUS
 62
     7
 10
103.8812802986
 20
146.2331386654
 30
0.0
  0
VERTEX
  5
9B8
  8
0
  6
CONTINUOUS
 62
     7
 10
103.3698575453
 20
147.4043308197
 30
0.0
  0
VERTEX
  5
9B9
  8
0
  6
CONTINUOUS
 62
     7
 10
102.9374854521
 20
148.3728168903
 30
0.0
  0
VERTEX
  5
9BA
  8
0
  6
CONTINUOUS
 62
     7
 10
102.620813425
 20
149.0805345027
 30
0.0
  0
VERTEX
  5
9BB
  8
0
  6
CONTINUOUS
 62
     7
 10
102.4727517621
 20
149.4502677022
 30
0.0
  0
VERTEX
  5
9BC
  8
0
  6
CONTINUOUS
 62
     7
 10
102.4952748672
 20
149.433109015
 30
0.0
  0
SEQEND
  5
B32
  8
0
  6
CONTINUOUS
 62
     7
  0
LINE
  5
307
  8
0
  6
CONTINUOUS
 62
     7
 10
151.5465877133
 20
135.5175702272
 30
0.0
 11
151.5465877133
 21
143.3429764954
 31
0.0
  0
LINE
  5
308
  8
0
  6
CONTINUOUS
 62
     7
 10
152.5465877608
 20
143.3604313431
 30
0.0
 11
151.5465877133
 21
143.3429764954
 31
0.0
  0
LINE
  5
309
  8
0
  6
CONTINUOUS
 62
     7
 10
152.5465877608
 20
135.5001135169
 30
0.0
 11
151.5465877133
 21
135.5175702272
 31
0.0
  0
LINE
  5
30A
  8
0
  6
CONTINUOUS
 62
     7
 10
152.5465877608
 20
143.3604313431
 30
0.0
 11
152.5465877608
 21
135.5001135169
 31
0.0
  0
LINE
  5
30B
  8
0
  6
CONTINUOUS
 62
     7
 10
151.5465877133
 20
134.3912696837
 30
0.0
 11
152.5465877608
 21
134.3738129733
 31
0.0
  0
LINE
  5
30C
  8
0
  6
CONTINUOUS
 62
     7
 10
152.5465877608
 20
134.3738129733
 30
0.0
 11
152.5465877608
 21
135.4087135194
 31
0.0
  0
LINE
  5
30D
  8
0
  6
CONTINUOUS
 62
     7
 10
151.5465877133
 20
135.5001135169
 30
0.0
 11
150.0465878167
 21
135.44773221
 31
0.0
  0
LINE
  5
30E
  8
0
  6
CONTINUOUS
 62
     7
 10
151.5465877133
 20
135.5001135169
 30
0.0
 11
151.5465877133
 21
135.5175702272
 31
0.0
  0
LINE
  5
30F
  8
0
  6
CONTINUOUS
 62
     7
 10
152.5465877608
 20
135.4087135194
 30
0.0
 11
152.5465877608
 21
135.5001135169
 31
0.0
  0
LINE
  5
310
  8
0
  6
CONTINUOUS
 62
     7
 10
151.5465877133
 20
173.8727957079
 30
0.0
 11
152.5465877608
 21
173.8902507721
 31
0.0
  0
LINE
  5
311
  8
0
  6
CONTINUOUS
 62
     7
 10
151.5465877133
 20
153.5568787156
 30
0.0
 11
152.5465877608
 21
153.574933335
 31
0.0
  0
LINE
  5
312
  8
0
  6
CONTINUOUS
 62
     7
 10
152.5465877608
 20
147.5785868613
 30
0.0
 11
151.5465877133
 21
147.5954233108
 31
0.0
  0
LINE
  5
313
  8
0
  6
CONTINUOUS
 62
     7
 10
150.0465878167
 20
143.41281265
 30
0.0
 11
151.5465877133
 21
143.3604313431
 31
0.0
  0
LINE
  5
314
  8
0
  6
CONTINUOUS
 62
     7
 10
151.5465877133
 20
143.3604313431
 30
0.0
 11
151.5465877133
 21
143.3429764954
 31
0.0
  0
LINE
  5
315
  8
0
  6
CONTINUOUS
 62
     7
 10
152.5465877608
 20
143.3604313431
 30
0.0
 11
152.5465877608
 21
147.5785868613
 31
0.0
  0
LINE
  5
316
  8
0
  6
CONTINUOUS
 62
     7
 10
152.5465877608
 20
153.574933335
 30
0.0
 11
152.5465877608
 21
173.8902507721
 31
0.0
  0
LINE
  5
317
  8
0
  6
CONTINUOUS
 62
     7
 10
151.5465877133
 20
153.4882979838
 30
0.0
 11
152.5465877608
 21
153.5051344333
 31
0.0
  0
LINE
  5
318
  8
0
  6
CONTINUOUS
 62
     7
 10
152.5465877608
 20
153.5051344333
 30
0.0
 11
152.5465877608
 21
153.574933335
 31
0.0
  0
LINE
  5
319
  8
0
  6
CONTINUOUS
 62
     7
 10
151.5465877133
 20
123.81900385
 30
0.0
 11
152.5465877608
 21
123.8015471397
 31
0.0
  0
LINE
  5
31A
  8
0
  6
CONTINUOUS
 62
     7
 10
152.5465877608
 20
123.8015471397
 30
0.0
 11
152.5465877608
 21
134.3738129733
 31
0.0
  0
LINE
  5
31B
  8
0
  6
CONTINUOUS
 62
     7
 10
152.5465877608
 20
147.5785868613
 30
0.0
 11
152.5465877608
 21
153.5051344333
 31
0.0
  0
LINE
  5
31C
  8
0
  6
CONTINUOUS
 62
     7
 10
152.5465877608
 20
176.6406696195
 30
0.0
 11
151.5465877133
 21
176.623214539
 31
0.0
  0
LINE
  5
31D
  8
0
  6
CONTINUOUS
 62
     7
 10
152.5465877608
 20
173.8902507721
 30
0.0
 11
152.5465877608
 21
176.6406696195
 31
0.0
  0
LINE
  5
31E
  8
0
  6
CONTINUOUS
 62
     8
 10
159.1465877251
 20
147.940251082
 30
0.0
 11
159.1465877251
 21
143.7402507661
 31
0.0
  0
POLYLINE
  5
31F
  8
0
  6
CONTINUOUS
 62
     8
 66
     1
 10
0.0
 20
0.0
 30
0.0
  0
VERTEX
  5
9BD
  8
0
  6
CONTINUOUS
 62
     8
 10
112.146302487
 20
170.4234315919
 30
0.0
  0
VERTEX
  5
9BE
  8
0
  6
CONTINUOUS
 62
     8
 10
112.1474014477
 20
170.4329625143
 30
0.0
  0
VERTEX
  5
9BF
  8
0
  6
CONTINUOUS
 62
     8
 10
112.069960113
 20
170.6429596895
 30
0.0
  0
VERTEX
  5
9C0
  8
0
  6
CONTINUOUS
 62
     8
 10
111.9905071215
 20
170.9206635503
 30
0.0
  0
VERTEX
  5
9C1
  8
0
  6
CONTINUOUS
 62
     8
 10
111.9628766433
 20
171.2438557668
 30
0.0
  0
VERTEX
  5
9C2
  8
0
  6
CONTINUOUS
 62
     8
 10
111.963193293
 20
171.2177861853
 30
0.0
  0
SEQEND
  5
B31
  8
0
  6
CONTINUOUS
 62
     8
  0
LINE
  5
320
  8
0
  6
CONTINUOUS
 62
     8
 10
150.0465878167
 20
135.4071898757
 30
0.0
 11
152.5465877608
 21
135.4087135194
 31
0.0
  0
DIMENSION
  5
321
  8
COTATION
  2
_D_4
 10
172.1465877608
 20
178.728626664
 30
0.0
 11
172.1465877608
 21
162.284438718
 31
0.0
 70
   160
  1
(<>)
  3
SLDDIMSTYLE1
 13
161.1465877608
 23
145.8402507721
 33
0.0
 14
151.5465877608
 24
178.728626664
 34
0.0
 50
90.0
  0
DIMENSION
  5
32D
  8
COTATION
  2
_D_5
 10
172.1465877608
 20
145.8402507721
 30
0.0
 11
172.1465877608
 21
133.3708992321
 31
0.0
 70
   160
  1
<>
  3
SLDDIMSTYLE1
 13
151.5465877608
 23
120.9015476921
 33
0.0
 14
161.1465877608
 24
145.8402507721
 34
0.0
 50
90.0
  0
DIMENSION
  5
337
  8
COTATION
  2
_D_6
 10
102.4691444818
 20
186.2359541247
 30
0.0
 11
127.5078661213
 21
186.2359541247
 31
0.0
 70
   160
  1
<>
  3
SLDDIMSTYLE1
 13
152.5465877608
 23
173.8902507721
 33
0.0
 14
102.4691444818
 24
149.4779230969
 34
0.0
 50
0.0
  0
LINE
  5
341
  8
COTATION
  6
CENTERX2
 10
161.1465877608
 20
145.8402507721
 30
0.0
 11
147.5465877608
 21
145.8402507721
 31
0.0
  0
POLYLINE
  5
342
  8
0
  6
CONTINUOUS
 62
     7
 66
     1
 10
0.0
 20
0.0
 30
0.0
  0
VERTEX
  5
9C3
  8
0
  6
CONTINUOUS
 62
     7
 10
78.2502366686
 20
109.9960930571
 30
0.0
  0
VERTEX
  5
9C4
  8
0
  6
CONTINUOUS
 62
     7
 10
75.5173028215
 20
110.7499911758
 30
0.0
  0
VERTEX
  5
9C5
  8
0
  6
CONTINUOUS
 62
     7
 10
72.4061749217
 20
111.6039360208
 30
0.0
  0
VERTEX
  5
9C6
  8
0
  6
CONTINUOUS
 62
     7
 10
69.484573876
 20
112.3916581653
 30
0.0
  0
VERTEX
  5
9C7
  8
0
  6
CONTINUOUS
 62
     7
 10
67.2866870341
 20
112.9734857408
 30
0.0
  0
SEQEND
  5
B30
  8
0
  6
CONTINUOUS
 62
     7
  0
ARC
  5
343
  8
0
  6
CONTINUOUS
 62
     7
 10
8.0083418862
 20
33.6891854927
 30
0.0
 40
193.9983643770454
 50
3.7740228136
 51
12.6198659069
  0
ARC
  5
344
  8
0
  6
CONTINUOUS
 62
     7
 10
195.4999869911
 20
75.7650668575
 30
0.0
 40
1.848976587649854
 50
9.7967039753
 51
74.6782088695
  0
LINE
  5
345
  8
0
  6
CONTINUOUS
 62
     7
 10
195.9779125598
 20
77.5767274843
 30
0.0
 11
175.4816797241
 21
83.1471643879
 31
0.0
  0
POLYLINE
  5
346
  8
0
  6
CONTINUOUS
 62
     7
 66
     1
 10
0.0
 20
0.0
 30
0.0
  0
VERTEX
  5
9C8
  8
0
  6
CONTINUOUS
 62
     7
 10
58.3498524332
 20
115.2928450817
 30
0.0
  0
VERTEX
  5
9C9
  8
0
  6
CONTINUOUS
 62
     7
 10
54.9679725983
 20
116.175135092
 30
0.0
  0
VERTEX
  5
9CA
  8
0
  6
CONTINUOUS
 62
     7
 10
45.9566789774
 20
118.4942874906
 30
0.0
  0
SEQEND
  5
B2F
  8
0
  6
CONTINUOUS
 62
     7
  0
POLYLINE
  5
347
  8
0
  6
CONTINUOUS
 62
     7
 66
     1
 10
0.0
 20
0.0
 30
0.0
  0
VERTEX
  5
9CB
  8
0
  6
CONTINUOUS
 62
     7
 10
175.487151704
 20
83.1464487033
 30
0.0
  0
VERTEX
  5
9CC
  8
0
  6
CONTINUOUS
 62
     7
 10
146.6604660347
 20
90.9835700088
 30
0.0
  0
VERTEX
  5
9CD
  8
0
  6
CONTINUOUS
 62
     7
 10
115.4299750265
 20
99.5627242512
 30
0.0
  0
VERTEX
  5
9CE
  8
0
  6
CONTINUOUS
 62
     7
 10
91.2052228043
 20
106.368555845
 30
0.0
  0
VERTEX
  5
9CF
  8
0
  6
CONTINUOUS
 62
     7
 10
89.2711118261
 20
106.9102219456
 30
0.0
  0
SEQEND
  5
B2E
  8
0
  6
CONTINUOUS
 62
     7
  0
POLYLINE
  5
348
  8
0
  6
CONTINUOUS
 62
     7
 66
     1
 10
0.0
 20
0.0
 30
0.0
  0
VERTEX
  5
9D0
  8
0
  6
CONTINUOUS
 62
     7
 10
21.3877160439
 20
82.0898957793
 30
0.0
  0
VERTEX
  5
9D1
  8
0
  6
CONTINUOUS
 62
     7
 10
21.3126132809
 20
80.9083073244
 30
0.0
  0
VERTEX
  5
9D2
  8
0
  6
CONTINUOUS
 62
     7
 10
21.1359207333
 20
77.6346787808
 30
0.0
  0
VERTEX
  5
9D3
  8
0
  6
CONTINUOUS
 62
     7
 10
20.6518744947
 20
68.8146423582
 30
0.0
  0
VERTEX
  5
9D4
  8
0
  6
CONTINUOUS
 62
     7
 10
20.3135995934
 20
62.6508026919
 30
0.0
  0
SEQEND
  5
B2D
  8
0
  6
CONTINUOUS
 62
     7
  0
ARC
  5
349
  8
0
  6
CONTINUOUS
 62
     7
 10
62.4174037596
 20
69.4116632644
 30
0.0
 40
52.27153209851783
 50
122.8739350642
 51
129.1615663901
  0
ARC
  5
34A
  8
0
  6
CONTINUOUS
 62
     7
 10
55.2118330829
 20
82.5290291019
 30
0.0
 40
37.35040919358326
 50
105.8540684068
 51
124.524694013
  0
ARC
  5
34B
  8
0
  6
CONTINUOUS
 62
     7
 10
45.480595423
 20
117.3565313049
 30
0.0
 40
1.204817491037137
 50
67.1749187395
 51
112.0775407686
  0
LINE
  5
34C
  8
0
  6
CONTINUOUS
 62
     7
 10
156.378105201
 20
44.3898447059
 30
0.0
 11
156.4969837988
 21
44.3594003174
 31
0.0
  0
POLYLINE
  5
34D
  8
0
  6
CONTINUOUS
 62
     7
 66
     1
 10
0.0
 20
0.0
 30
0.0
  0
VERTEX
  5
9D5
  8
0
  6
CONTINUOUS
 62
     7
 10
156.378105201
 20
44.3898447059
 30
0.0
  0
VERTEX
  5
9D6
  8
0
  6
CONTINUOUS
 62
     7
 10
156.8031075672
 20
47.6434520663
 30
0.0
  0
VERTEX
  5
9D7
  8
0
  6
CONTINUOUS
 62
     7
 10
157.4934858138
 20
51.122164429
 30
0.0
  0
VERTEX
  5
9D8
  8
0
  6
CONTINUOUS
 62
     7
 10
158.4925296904
 20
54.7341143555
 30
0.0
  0
VERTEX
  5
9D9
  8
0
  6
CONTINUOUS
 62
     7
 10
159.229590715
 20
56.8523860506
 30
0.0
  0
VERTEX
  5
9DA
  8
0
  6
CONTINUOUS
 62
     7
 10
160.0898082662
 20
58.9501214381
 30
0.0
  0
VERTEX
  5
9DB
  8
0
  6
CONTINUOUS
 62
     7
 10
160.8425901841
 20
60.5236339353
 30
0.0
  0
VERTEX
  5
9DC
  8
0
  6
CONTINUOUS
 62
     7
 10
161.671901126
 20
62.0062907674
 30
0.0
  0
VERTEX
  5
9DD
  8
0
  6
CONTINUOUS
 62
     7
 10
163.0647820031
 20
63.9399082116
 30
0.0
  0
VERTEX
  5
9DE
  8
0
  6
CONTINUOUS
 62
     7
 10
163.835165257
 20
64.6935851858
 30
0.0
  0
SEQEND
  5
B2C
  8
0
  6
CONTINUOUS
 62
     7
  0
LINE
  5
34E
  8
0
  6
CONTINUOUS
 62
     7
 10
156.377609706
 20
44.3445974837
 30
0.0
 11
156.378105201
 21
44.3898447059
 31
0.0
  0
POLYLINE
  5
34F
  8
0
  6
CONTINUOUS
 62
     7
 66
     1
 10
0.0
 20
0.0
 30
0.0
  0
VERTEX
  5
9DF
  8
0
  6
CONTINUOUS
 62
     7
 10
160.0491099951
 20
65.9278269975
 30
0.0
  0
VERTEX
  5
9E0
  8
0
  6
CONTINUOUS
 62
     7
 10
159.4801228143
 20
65.2819030323
 30
0.0
  0
VERTEX
  5
9E1
  8
0
  6
CONTINUOUS
 62
     7
 10
158.7978917599
 20
64.2515020083
 30
0.0
  0
VERTEX
  5
9E2
  8
0
  6
CONTINUOUS
 62
     7
 10
158.1656708386
 20
63.0382427697
 30
0.0
  0
VERTEX
  5
9E3
  8
0
  6
CONTINUOUS
 62
     7
 10
157.5961916409
 20
61.7007509137
 30
0.0
  0
VERTEX
  5
9E4
  8
0
  6
CONTINUOUS
 62
     7
 10
156.6496535998
 20
58.8319212643
 30
0.0
  0
VERTEX
  5
9E5
  8
0
  6
CONTINUOUS
 62
     7
 10
155.9365193605
 20
55.877613127
 30
0.0
  0
VERTEX
  5
9E6
  8
0
  6
CONTINUOUS
 62
     7
 10
155.4342309019
 20
52.9441597363
 30
0.0
  0
VERTEX
  5
9E7
  8
0
  6
CONTINUOUS
 62
     7
 10
155.1169894976
 20
50.0881808726
 30
0.0
  0
VERTEX
  5
9E8
  8
0
  6
CONTINUOUS
 62
     7
 10
154.96013345
 20
47.3386737044
 30
0.0
  0
VERTEX
  5
9E9
  8
0
  6
CONTINUOUS
 62
     7
 10
154.9370103918
 20
44.7035955309
 30
0.0
  0
SEQEND
  5
B2B
  8
0
  6
CONTINUOUS
 62
     7
  0
LINE
  5
350
  8
0
  6
CONTINUOUS
 62
     7
 10
153.5479720193
 20
45.1590142623
 30
0.0
 11
153.5485440116
 21
45.1134769199
 31
0.0
  0
POLYLINE
  5
351
  8
0
  6
CONTINUOUS
 62
     7
 66
     1
 10
0.0
 20
0.0
 30
0.0
  0
VERTEX
  5
9EA
  8
0
  6
CONTINUOUS
 62
     7
 10
153.5479720193
 20
45.1590142623
 30
0.0
  0
VERTEX
  5
9EB
  8
0
  6
CONTINUOUS
 62
     7
 10
153.2227199767
 20
49.1325891207
 30
0.0
  0
VERTEX
  5
9EC
  8
0
  6
CONTINUOUS
 62
     7
 10
153.1486595258
 20
53.3115361517
 30
0.0
  0
VERTEX
  5
9ED
  8
0
  6
CONTINUOUS
 62
     7
 10
153.2873247266
 20
56.0917237812
 30
0.0
  0
VERTEX
  5
9EE
  8
0
  6
CONTINUOUS
 62
     7
 10
153.5934113947
 20
58.8970479288
 30
0.0
  0
VERTEX
  5
9EF
  8
0
  6
CONTINUOUS
 62
     7
 10
153.9256059198
 20
60.8664917768
 30
0.0
  0
VERTEX
  5
9F0
  8
0
  6
CONTINUOUS
 62
     7
 10
154.3671523421
 20
62.7661300635
 30
0.0
  0
VERTEX
  5
9F1
  8
0
  6
CONTINUOUS
 62
     7
 10
154.7608085474
 20
64.0477450604
 30
0.0
  0
VERTEX
  5
9F2
  8
0
  6
CONTINUOUS
 62
     7
 10
155.2203093815
 20
65.2099935598
 30
0.0
  0
VERTEX
  5
9F3
  8
0
  6
CONTINUOUS
 62
     7
 10
155.7495261662
 20
66.2144809806
 30
0.0
  0
VERTEX
  5
9F4
  8
0
  6
CONTINUOUS
 62
     7
 10
156.3241484938
 20
67.0038470916
 30
0.0
  0
SEQEND
  5
B2A
  8
0
  6
CONTINUOUS
 62
     7
  0
LINE
  5
352
  8
0
  6
CONTINUOUS
 62
     7
 10
155.6212812187
 20
42.9634032138
 30
0.0
 11
155.4503753168
 21
42.9981483053
 31
0.0
  0
LINE
  5
353
  8
0
  6
CONTINUOUS
 62
     7
 10
154.9370103918
 20
43.1296112375
 30
0.0
 11
155.4503753168
 21
42.9981483053
 31
0.0
  0
ARC
  5
354
  8
0
  6
CONTINUOUS
 62
     7
 10
155.2342267301
 20
44.238750812
 30
0.0
 40
1.148271809060071
 50
254.9988777278
 51
5.2889820594
  0
LINE
  5
355
  8
0
  6
CONTINUOUS
 62
     7
 10
154.9370103918
 20
44.7035955309
 30
0.0
 11
154.9370103918
 21
43.1296112375
 31
0.0
  0
ARC
  5
356
  8
0
  6
CONTINUOUS
 62
     7
 10
155.6720063053
 20
45.1218318389
 30
0.0
 40
2.123478730157005
 50
180.2254333057
 51
249.749318259
  0
LINE
  5
357
  8
0
  6
CONTINUOUS
 62
     7
 10
155.4503753168
 20
42.9471465623
 30
0.0
 11
155.4503753168
 21
42.9981483053
 31
0.0
  0
POLYLINE
  5
358
  8
0
  6
CONTINUOUS
 62
     7
 66
     1
 10
0.0
 20
0.0
 30
0.0
  0
VERTEX
  5
9F5
  8
0
  6
CONTINUOUS
 62
     7
 10
178.641627884
 20
59.6962249332
 30
0.0
  0
VERTEX
  5
9F6
  8
0
  6
CONTINUOUS
 62
     7
 10
178.242113758
 20
59.2125535143
 30
0.0
  0
VERTEX
  5
9F7
  8
0
  6
CONTINUOUS
 62
     7
 10
177.0331325427
 20
57.1925494787
 30
0.0
  0
VERTEX
  5
9F8
  8
0
  6
CONTINUOUS
 62
     7
 10
176.2933668192
 20
55.392531868
 30
0.0
  0
VERTEX
  5
9F9
  8
0
  6
CONTINUOUS
 62
     7
 10
175.7023896375
 20
53.4711068236
 30
0.0
  0
VERTEX
  5
9FA
  8
0
  6
CONTINUOUS
 62
     7
 10
175.254963818
 20
51.5326422248
 30
0.0
  0
VERTEX
  5
9FB
  8
0
  6
CONTINUOUS
 62
     7
 10
174.9236714764
 20
49.590446406
 30
0.0
  0
VERTEX
  5
9FC
  8
0
  6
CONTINUOUS
 62
     7
 10
174.5923919359
 20
46.4865591284
 30
0.0
  0
VERTEX
  5
9FD
  8
0
  6
CONTINUOUS
 62
     7
 10
174.4782468835
 20
43.4689247282
 30
0.0
  0
VERTEX
  5
9FE
  8
0
  6
CONTINUOUS
 62
     7
 10
174.5473490615
 20
40.583552545
 30
0.0
  0
SEQEND
  5
B29
  8
0
  6
CONTINUOUS
 62
     7
  0
ARC
  5
359
  8
0
  6
CONTINUOUS
 62
     7
 10
174.0823862482
 20
41.2732748607
 30
0.0
 40
0.8318096480222673
 50
256.288170739
 51
303.9851091778
  0
POLYLINE
  5
35A
  8
0
  6
CONTINUOUS
 62
     7
 66
     1
 10
0.0
 20
0.0
 30
0.0
  0
VERTEX
  5
9FF
  8
0
  6
CONTINUOUS
 62
     7
 10
173.8852151484
 20
40.4651716198
 30
0.0
  0
VERTEX
  5
A00
  8
0
  6
CONTINUOUS
 62
     7
 10
173.8852151484
 20
40.4652227109
 30
0.0
  0
VERTEX
  5
A01
  8
0
  6
CONTINUOUS
 62
     7
 10
173.817466612
 20
43.4043212349
 30
0.0
  0
VERTEX
  5
A02
  8
0
  6
CONTINUOUS
 62
     7
 10
173.9367849362
 20
46.4783366671
 30
0.0
  0
VERTEX
  5
A03
  8
0
  6
CONTINUOUS
 62
     7
 10
174.2769048349
 20
49.6400137568
 30
0.0
  0
VERTEX
  5
A04
  8
0
  6
CONTINUOUS
 62
     7
 10
174.6199822305
 20
51.6419063516
 30
0.0
  0
VERTEX
  5
A05
  8
0
  6
CONTINUOUS
 62
     7
 10
175.0825291951
 20
53.6400011771
 30
0.0
  0
VERTEX
  5
A06
  8
0
  6
CONTINUOUS
 62
     7
 10
175.7025120458
 20
55.6519268703
 30
0.0
  0
VERTEX
  5
A07
  8
0
  6
CONTINUOUS
 62
     7
 10
176.477124774
 20
57.5370350841
 30
0.0
  0
VERTEX
  5
A08
  8
0
  6
CONTINUOUS
 62
     7
 10
177.7574053479
 20
59.6834478702
 30
0.0
  0
VERTEX
  5
A09
  8
0
  6
CONTINUOUS
 62
     7
 10
178.2022513812
 20
60.2227547072
 30
0.0
  0
SEQEND
  5
B28
  8
0
  6
CONTINUOUS
 62
     7
  0
ARC
  5
35B
  8
0
  6
CONTINUOUS
 62
     7
 10
178.0343522172
 20
59.6360573925
 30
0.0
 40
0.6102490216493645
 50
5.6582737008
 51
74.030106631
  0
LINE
  5
35C
  8
0
  6
CONTINUOUS
 62
     7
 10
163.5215516126
 20
64.212654335
 30
0.0
 11
178.2022513812
 21
60.2227547072
 31
0.0
  0
POLYLINE
  5
35D
  8
0
  6
CONTINUOUS
 62
     7
 66
     1
 10
0.0
 20
0.0
 30
0.0
  0
VERTEX
  5
A0A
  8
0
  6
CONTINUOUS
 62
     7
 10
156.587365706
 20
45.1663564502
 30
0.0
  0
VERTEX
  5
A0B
  8
0
  6
CONTINUOUS
 62
     7
 10
156.9811326275
 20
47.9865690265
 30
0.0
  0
VERTEX
  5
A0C
  8
0
  6
CONTINUOUS
 62
     7
 10
157.5638423999
 20
50.9386984964
 30
0.0
  0
VERTEX
  5
A0D
  8
0
  6
CONTINUOUS
 62
     7
 10
158.3580987978
 20
53.9781407811
 30
0.0
  0
VERTEX
  5
A0E
  8
0
  6
CONTINUOUS
 62
     7
 10
158.9951590363
 20
55.9616606327
 30
0.0
  0
VERTEX
  5
A0F
  8
0
  6
CONTINUOUS
 62
     7
 10
159.745395113
 20
57.9427659512
 30
0.0
  0
VERTEX
  5
A10
  8
0
  6
CONTINUOUS
 62
     7
 10
160.6330211159
 20
59.9070025954
 30
0.0
  0
VERTEX
  5
A11
  8
0
  6
CONTINUOUS
 62
     7
 10
161.643680036
 20
61.7446444683
 30
0.0
  0
VERTEX
  5
A12
  8
0
  6
CONTINUOUS
 62
     7
 10
163.1367539485
 20
63.7989328039
 30
0.0
  0
VERTEX
  5
A13
  8
0
  6
CONTINUOUS
 62
     7
 10
163.5215516126
 20
64.212654335
 30
0.0
  0
SEQEND
  5
B27
  8
0
  6
CONTINUOUS
 62
     7
  0
LINE
  5
35E
  8
0
  6
CONTINUOUS
 62
     7
 10
174.5473490615
 20
40.583552545
 30
0.0
 11
175.6146190268
 21
20.5562447024
 31
0.0
  0
LINE
  5
35F
  8
0
  6
CONTINUOUS
 62
     7
 10
178.641627884
 20
59.6962249332
 30
0.0
 11
178.7572778361
 21
59.7960539629
 31
0.0
  0
LINE
  5
360
  8
0
  6
CONTINUOUS
 62
     7
 10
178.7587536106
 20
59.7663082765
 30
0.0
 11
178.756826257
 21
59.795662542
 31
0.0
  0
LINE
  5
361
  8
0
  6
CONTINUOUS
 62
     7
 10
180.6181321862
 20
24.8750666248
 30
0.0
 11
178.7587536106
 21
59.7663082765
 31
0.0
  0
LINE
  5
362
  8
0
  6
CONTINUOUS
 62
     7
 10
175.6146190268
 20
20.5562447024
 30
0.0
 11
180.6181321862
 21
24.8750666248
 31
0.0
  0
LINE
  5
363
  8
0
  6
CONTINUOUS
 62
     7
 10
182.0945411318
 20
24.3426737568
 30
0.0
 11
180.2171009327
 21
59.5727367842
 31
0.0
  0
LINE
  5
364
  8
0
  6
CONTINUOUS
 62
     7
 10
180.1936293884
 20
60.0131575396
 30
0.0
 11
180.2171009327
 21
59.5727367842
 31
0.0
  0
POLYLINE
  5
365
  8
0
  6
CONTINUOUS
 62
     7
 66
     1
 10
0.0
 20
0.0
 30
0.0
  0
VERTEX
  5
A14
  8
0
  6
CONTINUOUS
 62
     7
 10
196.7177890459
 20
75.8253060372
 30
0.0
  0
VERTEX
  5
A15
  8
0
  6
CONTINUOUS
 62
     7
 10
194.7703579639
 20
74.3963181661
 30
0.0
  0
VERTEX
  5
A16
  8
0
  6
CONTINUOUS
 62
     7
 10
192.8128883171
 20
72.743897353
 30
0.0
  0
VERTEX
  5
A17
  8
0
  6
CONTINUOUS
 62
     7
 10
189.6561077205
 20
69.815474028
 30
0.0
  0
VERTEX
  5
A18
  8
0
  6
CONTINUOUS
 62
     7
 10
186.5027690899
 20
66.6749122334
 30
0.0
  0
VERTEX
  5
A19
  8
0
  6
CONTINUOUS
 62
     7
 10
180.1936293884
 20
60.0131575396
 30
0.0
  0
SEQEND
  5
B26
  8
0
  6
CONTINUOUS
 62
     7
  0
POLYLINE
  5
366
  8
0
  6
CONTINUOUS
 62
     7
 66
     1
 10
0.0
 20
0.0
 30
0.0
  0
VERTEX
  5
A1A
  8
0
  6
CONTINUOUS
 62
     7
 10
197.2277491815
 20
75.4651625984
 30
0.0
  0
VERTEX
  5
A1B
  8
0
  6
CONTINUOUS
 62
     7
 10
197.174579321
 20
75.6283300765
 30
0.0
  0
VERTEX
  5
A1C
  8
0
  6
CONTINUOUS
 62
     7
 10
197.1054778974
 20
75.7540634248
 30
0.0
  0
VERTEX
  5
A1D
  8
0
  6
CONTINUOUS
 62
     7
 10
197.0225585055
 20
75.8385334915
 30
0.0
  0
VERTEX
  5
A1E
  8
0
  6
CONTINUOUS
 62
     7
 10
196.9283446881
 20
75.8791612735
 30
0.0
  0
VERTEX
  5
A1F
  8
0
  6
CONTINUOUS
 62
     7
 10
196.825712881
 20
75.8747068016
 30
0.0
  0
VERTEX
  5
A20
  8
0
  6
CONTINUOUS
 62
     7
 10
196.7177890459
 20
75.8253060372
 30
0.0
  0
SEQEND
  5
B25
  8
0
  6
CONTINUOUS
 62
     7
  0
ARC
  5
367
  8
0
  6
CONTINUOUS
 62
     7
 10
-4.0533092701
 20
31.4842369717
 30
0.0
 40
206.0300616667616
 50
4.070398867
 51
12.3256923271
  0
LINE
  5
368
  8
0
  6
CONTINUOUS
 62
     7
 10
187.7264772161
 20
30.6737158499
 30
0.0
 11
201.4570597082
 21
46.1086874845
 31
0.0
  0
LINE
  5
369
  8
0
  6
CONTINUOUS
 62
     7
 10
187.6241590816
 20
31.9414956794
 30
0.0
 11
187.7264772161
 21
30.6737158499
 31
0.0
  0
LINE
  5
36A
  8
0
  6
CONTINUOUS
 62
     7
 10
183.517940871
 20
27.3255676182
 30
0.0
 11
187.6241590816
 21
31.9414956794
 31
0.0
  0
LINE
  5
36B
  8
0
  6
CONTINUOUS
 62
     7
 10
183.5546728567
 20
25.9840548796
 30
0.0
 11
183.517940871
 21
27.3255676182
 31
0.0
  0
LINE
  5
36C
  8
0
  6
CONTINUOUS
 62
     7
 10
182.0945411318
 20
24.3426737568
 30
0.0
 11
183.5546728567
 21
25.9840548796
 31
0.0
  0
ARC
  5
36D
  8
0
  6
CONTINUOUS
 62
     7
 10
178.3741319852
 20
59.8302261717
 30
0.0
 40
1.828670195978605
 50
5.7411967951
 51
74.3287747367
  0
POLYLINE
  5
36E
  8
0
  6
CONTINUOUS
 62
     7
 66
     1
 10
0.0
 20
0.0
 30
0.0
  0
VERTEX
  5
A21
  8
0
  6
CONTINUOUS
 62
     7
 10
178.8680867731
 20
61.5909201693
 30
0.0
  0
VERTEX
  5
A22
  8
0
  6
CONTINUOUS
 62
     7
 10
185.183810711
 20
68.2556433212
 30
0.0
  0
VERTEX
  5
A23
  8
0
  6
CONTINUOUS
 62
     7
 10
188.3536312335
 20
71.4099060717
 30
0.0
  0
VERTEX
  5
A24
  8
0
  6
CONTINUOUS
 62
     7
 10
191.527858526
 20
74.3510047219
 30
0.0
  0
VERTEX
  5
A25
  8
0
  6
CONTINUOUS
 62
     7
 10
193.5156521913
 20
76.0259959898
 30
0.0
  0
VERTEX
  5
A26
  8
0
  6
CONTINUOUS
 62
     7
 10
195.5053500104
 20
77.4814099684
 30
0.0
  0
SEQEND
  5
B24
  8
0
  6
CONTINUOUS
 62
     7
  0
ARC
  5
36F
  8
0
  6
CONTINUOUS
 62
     7
 10
195.0569549391
 20
75.8812712569
 30
0.0
 40
1.661776770832207
 50
358.0700311835
 51
74.345926043
  0
LINE
  5
370
  8
0
  6
CONTINUOUS
 62
     7
 10
195.5053500104
 20
77.4814099684
 30
0.0
 11
174.9992000848
 21
83.0545421245
 31
0.0
  0
LINE
  5
371
  8
0
  6
CONTINUOUS
 62
     7
 10
156.5589308327
 20
67.6540707265
 30
0.0
 11
178.8680867731
 21
61.5909201693
 31
0.0
  0
LINE
  5
372
  8
0
  6
CONTINUOUS
 62
     7
 10
181.6523311748
 20
24.4628569477
 30
0.0
 11
182.0945411318
 21
24.3426737568
 31
0.0
  0
LINE
  5
373
  8
0
  6
CONTINUOUS
 62
     7
 10
181.6523311748
 20
24.4628569477
 30
0.0
 11
179.7913711364
 21
59.3837493532
 31
0.0
  0
ARC
  5
374
  8
0
  6
CONTINUOUS
 62
     7
 10
177.4914278716
 20
59.0239425318
 30
0.0
 40
2.327917517836608
 50
8.8913754979
 51
70.8020440441
  0
LINE
  5
375
  8
0
  6
CONTINUOUS
 62
     7
 10
156.6136099104
 20
67.1045891122
 30
0.0
 11
178.2569238695
 21
61.2224001382
 31
0.0
  0
LINE
  5
376
  8
0
  6
CONTINUOUS
 62
     7
 10
156.6136099104
 20
67.1045891122
 30
0.0
 11
156.5589308327
 21
67.1194624867
 31
0.0
  0
LINE
  5
377
  8
0
  6
CONTINUOUS
 62
     7
 10
156.5589308327
 20
67.6540707265
 30
0.0
 11
156.5589308327
 21
67.1194624867
 31
0.0
  0
LINE
  5
378
  8
0
  6
CONTINUOUS
 62
     7
 10
179.4692898599
 20
59.7711574774
 30
0.0
 11
179.7913711364
 21
59.3837493532
 31
0.0
  0
POLYLINE
  5
379
  8
0
  6
CONTINUOUS
 62
     7
 66
     1
 10
0.0
 20
0.0
 30
0.0
  0
VERTEX
  5
A27
  8
0
  6
CONTINUOUS
 62
     7
 10
179.4676693555
 20
59.8046513907
 30
0.0
  0
VERTEX
  5
A28
  8
0
  6
CONTINUOUS
 62
     7
 10
179.4692832705
 20
59.7712103594
 30
0.0
  0
VERTEX
  5
A29
  8
0
  6
CONTINUOUS
 62
     7
 10
179.4692898599
 20
59.7711574774
 30
0.0
  0
SEQEND
  5
B23
  8
0
  6
CONTINUOUS
 62
     7
  0
ARC
  5
37A
  8
0
  6
CONTINUOUS
 62
     7
 10
178.0271848153
 20
59.6381200523
 30
0.0
 40
1.450078755534513
 50
6.5945673821
 51
73.1502837534
  0
LINE
  5
37B
  8
0
  6
CONTINUOUS
 62
     7
 10
178.447508074
 20
61.0259445209
 30
0.0
 11
178.2569238695
 21
61.2224001382
 31
0.0
  0
LINE
  5
37C
  8
0
  6
CONTINUOUS
 62
     7
 10
181.3302498983
 20
24.8502650719
 30
0.0
 11
181.6523311748
 21
24.4628569477
 31
0.0
  0
LINE
  5
37D
  8
0
  6
CONTINUOUS
 62
     7
 10
179.4692898599
 20
59.7711574774
 30
0.0
 11
181.3302498983
 21
24.8502650719
 31
0.0
  0
LINE
  5
37E
  8
0
  6
CONTINUOUS
 62
     7
 10
20.5805731149
 20
62.4152403491
 30
0.0
 11
151.8919761785
 21
26.7276146595
 31
0.0
  0
POLYLINE
  5
37F
  8
0
  6
CONTINUOUS
 62
     7
 66
     1
 10
0.0
 20
0.0
 30
0.0
  0
VERTEX
  5
A2A
  8
0
  6
CONTINUOUS
 62
     7
 10
21.6457739997
 20
81.8247721259
 30
0.0
  0
VERTEX
  5
A2B
  8
0
  6
CONTINUOUS
 62
     7
 10
21.5994898539
 20
80.9813588203
 30
0.0
  0
VERTEX
  5
A2C
  8
0
  6
CONTINUOUS
 62
     7
 10
21.414340092
 20
77.6077075829
 30
0.0
  0
VERTEX
  5
A2D
  8
0
  6
CONTINUOUS
 62
     7
 10
20.6737542233
 20
64.1131020453
 30
0.0
  0
VERTEX
  5
A2E
  8
0
  6
CONTINUOUS
 62
     7
 10
20.5805731149
 20
62.4152403491
 30
0.0
  0
SEQEND
  5
B22
  8
0
  6
CONTINUOUS
 62
     7
  0
POLYLINE
  5
380
  8
0
  6
CONTINUOUS
 62
     7
 66
     1
 10
0.0
 20
0.0
 30
0.0
  0
VERTEX
  5
A2F
  8
0
  6
CONTINUOUS
 62
     7
 10
30.8544287273
 20
108.585455057
 30
0.0
  0
VERTEX
  5
A30
  8
0
  6
CONTINUOUS
 62
     7
 10
29.4501906062
 20
106.7925186818
 30
0.0
  0
VERTEX
  5
A31
  8
0
  6
CONTINUOUS
 62
     7
 10
28.042635922
 20
104.7133947096
 30
0.0
  0
VERTEX
  5
A32
  8
0
  6
CONTINUOUS
 62
     7
 10
26.7185408599
 20
102.420316818
 30
0.0
  0
VERTEX
  5
A33
  8
0
  6
CONTINUOUS
 62
     7
 10
25.4633435633
 20
99.8112087001
 30
0.0
  0
VERTEX
  5
A34
  8
0
  6
CONTINUOUS
 62
     7
 10
24.5679599122
 20
97.5437504344
 30
0.0
  0
VERTEX
  5
A35
  8
0
  6
CONTINUOUS
 62
     7
 10
23.7880105661
 20
95.1525813018
 30
0.0
  0
VERTEX
  5
A36
  8
0
  6
CONTINUOUS
 62
     7
 10
23.1478718787
 20
92.7319666344
 30
0.0
  0
VERTEX
  5
A37
  8
0
  6
CONTINUOUS
 62
     7
 10
22.6365329825
 20
90.3214780295
 30
0.0
  0
VERTEX
  5
A38
  8
0
  6
CONTINUOUS
 62
     7
 10
22.046476387
 20
86.4751204792
 30
0.0
  0
VERTEX
  5
A39
  8
0
  6
CONTINUOUS
 62
     7
 10
21.7063054856
 20
82.8238557859
 30
0.0
  0
VERTEX
  5
A3A
  8
0
  6
CONTINUOUS
 62
     7
 10
21.6457739997
 20
81.8247721259
 30
0.0
  0
SEQEND
  5
B21
  8
0
  6
CONTINUOUS
 62
     7
  0
POLYLINE
  5
381
  8
0
  6
CONTINUOUS
 62
     7
 66
     1
 10
0.0
 20
0.0
 30
0.0
  0
VERTEX
  5
A3B
  8
0
  6
CONTINUOUS
 62
     7
 10
30.8544287273
 20
108.585455057
 30
0.0
  0
VERTEX
  5
A3C
  8
0
  6
CONTINUOUS
 62
     7
 10
30.9991505459
 20
108.6080818165
 30
0.0
  0
VERTEX
  5
A3D
  8
0
  6
CONTINUOUS
 62
     7
 10
31.3871798046
 20
108.6689537165
 30
0.0
  0
SEQEND
  5
B20
  8
0
  6
CONTINUOUS
 62
     7
  0
POLYLINE
  5
382
  8
0
  6
CONTINUOUS
 62
     7
 66
     1
 10
0.0
 20
0.0
 30
0.0
  0
VERTEX
  5
A3E
  8
0
  6
CONTINUOUS
 62
     7
 10
31.3990929068
 20
108.6708032441
 30
0.0
  0
VERTEX
  5
A3F
  8
0
  6
CONTINUOUS
 62
     7
 10
31.393137225
 20
108.6698777322
 30
0.0
  0
VERTEX
  5
A40
  8
0
  6
CONTINUOUS
 62
     7
 10
31.3871798046
 20
108.6689537165
 30
0.0
  0
SEQEND
  5
B1F
  8
0
  6
CONTINUOUS
 62
     7
  0
LINE
  5
383
  8
0
  6
CONTINUOUS
 62
     7
 10
31.399063072
 20
108.6709762532
 30
0.0
 11
31.3934532088
 21
108.7181940742
 31
0.0
  0
POLYLINE
  5
384
  8
0
  6
CONTINUOUS
 62
     7
 66
     1
 10
0.0
 20
0.0
 30
0.0
  0
VERTEX
  5
A41
  8
0
  6
CONTINUOUS
 62
     7
 10
155.6876779253
 20
66.3439619903
 30
0.0
  0
VERTEX
  5
A42
  8
0
  6
CONTINUOUS
 62
     7
 10
145.0019344693
 20
69.6438575411
 30
0.0
  0
VERTEX
  5
A43
  8
0
  6
CONTINUOUS
 62
     7
 10
134.765988365
 20
73.4579728764
 30
0.0
  0
VERTEX
  5
A44
  8
0
  6
CONTINUOUS
 62
     7
 10
124.9167361163
 20
77.7388500689
 30
0.0
  0
VERTEX
  5
A45
  8
0
  6
CONTINUOUS
 62
     7
 10
115.3846994359
 20
82.4248595904
 30
0.0
  0
VERTEX
  5
A46
  8
0
  6
CONTINUOUS
 62
     7
 10
106.0772907137
 20
87.4029538244
 30
0.0
  0
VERTEX
  5
A47
  8
0
  6
CONTINUOUS
 62
     7
 10
96.884664615
 20
92.5456025815
 30
0.0
  0
VERTEX
  5
A48
  8
0
  6
CONTINUOUS
 62
     7
 10
89.8613480589
 20
96.4596271664
 30
0.0
  0
VERTEX
  5
A49
  8
0
  6
CONTINUOUS
 62
     7
 10
82.7378976337
 20
100.2344346264
 30
0.0
  0
VERTEX
  5
A4A
  8
0
  6
CONTINUOUS
 62
     7
 10
75.3904152513
 20
103.7028627872
 30
0.0
  0
VERTEX
  5
A4B
  8
0
  6
CONTINUOUS
 62
     7
 10
67.6597148313
 20
106.675383395
 30
0.0
  0
VERTEX
  5
A4C
  8
0
  6
CONTINUOUS
 62
     7
 10
62.172704297
 20
108.2508878984
 30
0.0
  0
VERTEX
  5
A4D
  8
0
  6
CONTINUOUS
 62
     7
 10
56.359314447
 20
109.368589077
 30
0.0
  0
VERTEX
  5
A4E
  8
0
  6
CONTINUOUS
 62
     7
 10
50.2967273161
 20
109.94057403
 30
0.0
  0
VERTEX
  5
A4F
  8
0
  6
CONTINUOUS
 62
     7
 10
44.1423223269
 20
109.9844733956
 30
0.0
  0
VERTEX
  5
A50
  8
0
  6
CONTINUOUS
 62
     7
 10
37.7982561721
 20
109.5546959065
 30
0.0
  0
VERTEX
  5
A51
  8
0
  6
CONTINUOUS
 62
     7
 10
31.3934532088
 20
108.7181940742
 30
0.0
  0
SEQEND
  5
B1E
  8
0
  6
CONTINUOUS
 62
     7
  0
ARC
  5
385
  8
0
  6
CONTINUOUS
 62
     7
 10
171.7214810178
 20
57.2810436886
 30
0.0
 40
18.41813603504716
 50
150.5234441011
 51
174.976881291
  0
ARC
  5
386
  8
0
  6
CONTINUOUS
 62
     7
 10
155.2019026628
 20
66.8629949497
 30
0.0
 40
0.6914242292699573
 50
325.9974876155
 51
25.7045422666
  0
LINE
  5
387
  8
0
  6
CONTINUOUS
 62
     7
 10
155.8249053751
 20
67.1628867391
 30
0.0
 11
155.9636209681
 21
67.0381754217
 31
0.0
  0
LINE
  5
388
  8
0
  6
CONTINUOUS
 62
     7
 10
153.2866550776
 20
46.0634188733
 30
0.0
 11
153.4190432855
 21
44.8094207304
 31
0.0
  0
ARC
  5
389
  8
0
  6
CONTINUOUS
 62
     7
 10
207.1465896527
 20
52.1118660094
 30
0.0
 40
54.19848951031628
 50
172.8117687087
 51
186.4074458351
  0
LINE
  5
38A
  8
0
  6
CONTINUOUS
 62
     7
 10
155.6858146444
 20
66.3415543077
 30
0.0
 11
155.775102373
 21
66.4763302926
 31
0.0
  0
ARC
  5
38B
  8
0
  6
CONTINUOUS
 62
     7
 10
179.1174249414
 20
59.2700731307
 30
0.0
 40
0.6122862430858363
 50
54.9232021214
 51
125.8588394191
  0
ARC
  5
38C
  8
0
  6
CONTINUOUS
 62
     7
 10
180.9575492959
 20
24.3848376088
 30
0.0
 40
0.5962620753432318
 50
51.3132818233
 51
124.6973491777
  0
ARC
  5
38D
  8
0
  6
CONTINUOUS
 62
     7
 10
178.1487277706
 20
59.7615423203
 30
0.0
 40
0.6102561276295201
 50
4.3927656605
 51
72.8708632137
  0
ARC
  5
38E
  8
0
  6
CONTINUOUS
 62
     7
 10
177.7751584929
 20
60.7924299996
 30
0.0
 40
0.7117464371695477
 50
321.0223794454
 51
19.1526854614
  0
ARC
  5
38F
  8
0
  6
CONTINUOUS
 62
     7
 10
179.1100910956
 20
59.3489281798
 30
0.0
 40
0.5792632018222372
 50
51.8808818389
 51
127.5332672962
  0
LINE
  5
390
  8
0
  6
CONTINUOUS
 62
     7
 10
178.4171803477
 20
61.03429403
 30
0.0
 11
178.447508074
 21
61.0259445209
 31
0.0
  0
LINE
  5
391
  8
0
  6
CONTINUOUS
 62
     7
 10
163.8301295369
 20
64.9987418777
 30
0.0
 11
178.4171803477
 21
61.03429403
 31
0.0
  0
LINE
  5
392
  8
0
  6
CONTINUOUS
 62
     7
 10
155.9636209681
 20
67.0381754217
 30
0.0
 11
163.8658678939
 21
64.890514032
 31
0.0
  0
POLYLINE
  5
393
  8
0
  6
CONTINUOUS
 62
     7
 66
     1
 10
0.0
 20
0.0
 30
0.0
  0
VERTEX
  5
A52
  8
0
  6
CONTINUOUS
 62
     7
 10
156.7744264033
 20
66.915994442
 30
0.0
  0
VERTEX
  5
A53
  8
0
  6
CONTINUOUS
 62
     7
 10
156.7275231719
 20
66.9282056623
 30
0.0
  0
VERTEX
  5
A54
  8
0
  6
CONTINUOUS
 62
     7
 10
156.4542183102
 20
66.9993309332
 30
0.0
  0
VERTEX
  5
A55
  8
0
  6
CONTINUOUS
 62
     7
 10
155.8249053751
 20
67.1628867391
 30
0.0
  0
SEQEND
  5
B1D
  8
0
  6
CONTINUOUS
 62
     7
  0
ARC
  5
394
  8
0
  6
CONTINUOUS
 62
     7
 10
156.7630839187
 20
66.9044768366
 30
0.0
 40
0.016164998914919
 50
45.438908409
 51
47.8710075607
  0
LINE
  5
395
  8
0
  6
CONTINUOUS
 62
     7
 10
156.7739274321
 20
66.9164653898
 30
0.0
 11
156.8040525606
 21
66.9082790492
 31
0.0
  0
LINE
  5
396
  8
0
  6
CONTINUOUS
 62
     7
 10
156.8040525606
 20
66.9082790492
 30
0.0
 11
156.6136099104
 21
67.1045891122
 31
0.0
  0
LINE
  5
397
  8
0
  6
CONTINUOUS
 62
     7
 10
178.7572795746
 20
59.7960812054
 30
0.0
 11
178.7571912288
 21
59.8082837512
 31
0.0
  0
LINE
  5
398
  8
0
  6
CONTINUOUS
 62
     7
 10
178.2022513812
 20
60.2227547072
 30
0.0
 11
178.3070972049
 21
60.3501677039
 31
0.0
  0
POLYLINE
  5
399
  8
0
  6
CONTINUOUS
 62
     7
 66
     1
 10
0.0
 20
0.0
 30
0.0
  0
VERTEX
  5
A56
  8
0
  6
CONTINUOUS
 62
     7
 10
178.3284642739
 20
60.3447295378
 30
0.0
  0
VERTEX
  5
A57
  8
0
  6
CONTINUOUS
 62
     7
 10
178.3071499203
 20
60.350153377
 30
0.0
  0
VERTEX
  5
A58
  8
0
  6
CONTINUOUS
 62
     7
 10
178.3070972049
 20
60.3501677039
 30
0.0
  0
SEQEND
  5
B1C
  8
0
  6
CONTINUOUS
 62
     7
  0
ARC
  5
39A
  8
0
  6
CONTINUOUS
 62
     7
 10
177.7941355534
 20
60.7836285775
 30
0.0
 40
0.671578725675056
 50
319.8016506488
 51
21.9160732029
  0
LINE
  5
39B
  8
0
  6
CONTINUOUS
 62
     7
 10
178.3070972049
 20
60.3501677039
 30
0.0
 11
163.6426206092
 21
64.3356582209
 31
0.0
  0
ARC
  5
39C
  8
0
  6
CONTINUOUS
 62
     7
 10
163.1964180557
 20
64.8198908301
 30
0.0
 40
0.6584663534148547
 50
312.6594290822
 51
15.7605458994
  0
ARC
  5
39D
  8
0
  6
CONTINUOUS
 62
     7
 10
179.1178929491
 20
59.3512236537
 30
0.0
 40
0.5726606736651013
 50
52.3532274065
 51
129.0291450412
  0
LINE
  5
39E
  8
0
  6
CONTINUOUS
 62
     7
 10
163.5215516126
 20
64.212654335
 30
0.0
 11
163.6426206092
 21
64.3356582209
 31
0.0
  0
LINE
  5
39F
  8
0
  6
CONTINUOUS
 62
     7
 10
174.9512726589
 20
20.460591977
 30
0.0
 11
173.8852151484
 21
40.4651716198
 31
0.0
  0
ARC
  5
3A0
  8
0
  6
CONTINUOUS
 62
     7
 10
175.180696105
 20
21.2175146246
 30
0.0
 40
0.7909279436484928
 50
253.1379305328
 51
303.2727400928
  0
ARC
  5
3A1
  8
0
  6
CONTINUOUS
 62
     7
 10
155.4050859426
 20
44.9752209636
 30
0.0
 40
1.992951367509512
 50
184.7721415002
 51
250.3565434597
  0
LINE
  5
3A2
  8
0
  6
CONTINUOUS
 62
     7
 10
155.138897302
 20
42.9885168018
 30
0.0
 11
154.7351234815
 21
43.0982538744
 31
0.0
  0
ARC
  5
3A3
  8
0
  6
CONTINUOUS
 62
     7
 10
155.4127622552
 20
43.9941545801
 30
0.0
 40
1.042261653212641
 50
254.7660899663
 51
359.4592975689
  0
LINE
  5
3A4
  8
0
  6
CONTINUOUS
 62
     7
 10
151.8919761785
 20
26.7276146595
 30
0.0
 11
174.9512726589
 21
20.460591977
 31
0.0
  0
LINE
  5
3A5
  8
0
  6
CONTINUOUS
 62
     7
 10
156.454977498
 20
43.9843188636
 30
0.0
 11
156.587365706
 21
45.1663564502
 31
0.0
  0
POLYLINE
  5
3A6
  8
0
  6
CONTINUOUS
 62
     7
 66
     1
 10
0.0
 20
0.0
 30
0.0
  0
VERTEX
  5
A59
  8
0
  6
CONTINUOUS
 62
     7
 10
156.5589308327
 20
67.1194624867
 30
0.0
  0
VERTEX
  5
A5A
  8
0
  6
CONTINUOUS
 62
     7
 10
152.8990900431
 20
68.1551745097
 30
0.0
  0
VERTEX
  5
A5B
  8
0
  6
CONTINUOUS
 62
     7
 10
145.7131746026
 20
70.42491368
 30
0.0
  0
VERTEX
  5
A5C
  8
0
  6
CONTINUOUS
 62
     7
 10
138.7172206633
 20
72.9423429932
 30
0.0
  0
VERTEX
  5
A5D
  8
0
  6
CONTINUOUS
 62
     7
 10
131.9146104335
 20
75.6848799314
 30
0.0
  0
VERTEX
  5
A5E
  8
0
  6
CONTINUOUS
 62
     7
 10
125.287639361
 20
78.6346420909
 30
0.0
  0
VERTEX
  5
A5F
  8
0
  6
CONTINUOUS
 62
     7
 10
112.4750446941
 20
85.0524665952
 30
0.0
  0
VERTEX
  5
A60
  8
0
  6
CONTINUOUS
 62
     7
 10
100.0234414728
 20
91.9169093203
 30
0.0
  0
VERTEX
  5
A61
  8
0
  6
CONTINUOUS
 62
     7
 10
87.5452358033
 20
98.8633642918
 30
0.0
  0
VERTEX
  5
A62
  8
0
  6
CONTINUOUS
 62
     7
 10
81.1241325486
 20
102.1766119788
 30
0.0
  0
VERTEX
  5
A63
  8
0
  6
CONTINUOUS
 62
     7
 10
74.4659811661
 20
105.2225072225
 30
0.0
  0
VERTEX
  5
A64
  8
0
  6
CONTINUOUS
 62
     7
 10
67.4902076114
 20
107.8440537025
 30
0.0
  0
VERTEX
  5
A65
  8
0
  6
CONTINUOUS
 62
     7
 10
60.1295458389
 20
109.826464471
 30
0.0
  0
VERTEX
  5
A66
  8
0
  6
CONTINUOUS
 62
     7
 10
56.2988097851
 20
110.5040191752
 30
0.0
  0
VERTEX
  5
A67
  8
0
  6
CONTINUOUS
 62
     7
 10
52.3790958282
 20
110.9534651225
 30
0.0
  0
VERTEX
  5
A68
  8
0
  6
CONTINUOUS
 62
     7
 10
48.3795953445
 20
111.1787345028
 30
0.0
  0
VERTEX
  5
A69
  8
0
  6
CONTINUOUS
 62
     7
 10
44.317825392
 20
111.1893921797
 30
0.0
  0
VERTEX
  5
A6A
  8
0
  6
CONTINUOUS
 62
     7
 10
37.6003472773
 20
110.7836517446
 30
0.0
  0
VERTEX
  5
A6B
  8
0
  6
CONTINUOUS
 62
     7
 10
31.2494931032
 20
109.9893855544
 30
0.0
  0
SEQEND
  5
B1B
  8
0
  6
CONTINUOUS
 62
     7
  0
POLYLINE
  5
3A7
  8
0
  6
CONTINUOUS
 62
     7
 66
     1
 10
0.0
 20
0.0
 30
0.0
  0
VERTEX
  5
A6C
  8
0
  6
CONTINUOUS
 62
     7
 10
31.2996202466
 20
109.5333674297
 30
0.0
  0
VERTEX
  5
A6D
  8
0
  6
CONTINUOUS
 62
     7
 10
37.5540712992
 20
110.3561612028
 30
0.0
  0
VERTEX
  5
A6E
  8
0
  6
CONTINUOUS
 62
     7
 10
41.5898245792
 20
110.6895307548
 30
0.0
  0
VERTEX
  5
A6F
  8
0
  6
CONTINUOUS
 62
     7
 10
45.6073864896
 20
110.844767112
 30
0.0
  0
VERTEX
  5
A70
  8
0
  6
CONTINUOUS
 62
     7
 10
49.5775757524
 20
110.8019509715
 30
0.0
  0
VERTEX
  5
A71
  8
0
  6
CONTINUOUS
 62
     7
 10
53.4840014947
 20
110.5461806072
 30
0.0
  0
VERTEX
  5
A72
  8
0
  6
CONTINUOUS
 62
     7
 10
57.3147642604
 20
110.0699507085
 30
0.0
  0
VERTEX
  5
A73
  8
0
  6
CONTINUOUS
 62
     7
 10
61.0553216194
 20
109.3675926611
 30
0.0
  0
VERTEX
  5
A74
  8
0
  6
CONTINUOUS
 62
     7
 10
64.7043215825
 20
108.4551678906
 30
0.0
  0
VERTEX
  5
A75
  8
0
  6
CONTINUOUS
 62
     7
 10
71.7067106883
 20
106.1192258357
 30
0.0
  0
VERTEX
  5
A76
  8
0
  6
CONTINUOUS
 62
     7
 10
78.3639683988
 20
103.2897464608
 30
0.0
  0
VERTEX
  5
A77
  8
0
  6
CONTINUOUS
 62
     7
 10
84.7515407558
 20
100.1456007891
 30
0.0
  0
VERTEX
  5
A78
  8
0
  6
CONTINUOUS
 62
     7
 10
87.8678479532
 20
98.4978504996
 30
0.0
  0
VERTEX
  5
A79
  8
0
  6
CONTINUOUS
 62
     7
 10
92.5335728313
 20
95.9430666633
 30
0.0
  0
VERTEX
  5
A7A
  8
0
  6
CONTINUOUS
 62
     7
 10
97.1494856845
 20
93.3590699313
 30
0.0
  0
VERTEX
  5
A7B
  8
0
  6
CONTINUOUS
 62
     7
 10
98.6626616833
 20
92.5071491868
 30
0.0
  0
VERTEX
  5
A7C
  8
0
  6
CONTINUOUS
 62
     7
 10
104.7091565492
 20
89.1180399948
 30
0.0
  0
VERTEX
  5
A7D
  8
0
  6
CONTINUOUS
 62
     7
 10
110.7861111875
 20
85.7952335174
 30
0.0
  0
VERTEX
  5
A7E
  8
0
  6
CONTINUOUS
 62
     7
 10
116.9340284992
 20
82.5719174886
 30
0.0
  0
VERTEX
  5
A7F
  8
0
  6
CONTINUOUS
 62
     7
 10
123.1888382934
 20
79.4795991468
 30
0.0
  0
VERTEX
  5
A80
  8
0
  6
CONTINUOUS
 62
     7
 10
129.5838299214
 20
76.5510559896
 30
0.0
  0
VERTEX
  5
A81
  8
0
  6
CONTINUOUS
 62
     7
 10
136.1407285579
 20
73.8103850443
 30
0.0
  0
VERTEX
  5
A82
  8
0
  6
CONTINUOUS
 62
     7
 10
142.8706494081
 20
71.274955877
 30
0.0
  0
VERTEX
  5
A83
  8
0
  6
CONTINUOUS
 62
     7
 10
146.3022332667
 20
70.0900253745
 30
0.0
  0
VERTEX
  5
A84
  8
0
  6
CONTINUOUS
 62
     7
 10
149.7795336184
 20
68.9630408487
 30
0.0
  0
VERTEX
  5
A85
  8
0
  6
CONTINUOUS
 62
     7
 10
156.7739274321
 20
66.9164653898
 30
0.0
  0
SEQEND
  5
B1A
  8
0
  6
CONTINUOUS
 62
     7
  0
POLYLINE
  5
3A8
  8
0
  6
CONTINUOUS
 62
     7
 66
     1
 10
0.0
 20
0.0
 30
0.0
  0
VERTEX
  5
A86
  8
0
  6
CONTINUOUS
 62
     7
 10
31.299618508
 20
109.5333657328
 30
0.0
  0
VERTEX
  5
A87
  8
0
  6
CONTINUOUS
 62
     7
 10
31.2753581419
 20
109.754010961
 30
0.0
  0
VERTEX
  5
A88
  8
0
  6
CONTINUOUS
 62
     7
 10
31.2494764472
 20
109.9893857423
 30
0.0
  0
SEQEND
  5
B19
  8
0
  6
CONTINUOUS
 62
     7
  0
ARC
  5
3A9
  8
0
  6
CONTINUOUS
 62
     7
 10
54.6360837283
 20
84.4189507182
 30
0.0
 40
35.23191486615452
 50
104.7975556027
 51
124.457853465
  0
POLYLINE
  5
3AA
  8
0
  6
CONTINUOUS
 62
     7
 66
     1
 10
0.0
 20
0.0
 30
0.0
  0
VERTEX
  5
A89
  8
0
  6
CONTINUOUS
 62
     7
 10
89.1536513287
 20
106.9076602817
 30
0.0
  0
VERTEX
  5
A8A
  8
0
  6
CONTINUOUS
 62
     7
 10
79.6139438084
 20
109.617781292
 30
0.0
  0
VERTEX
  5
A8B
  8
0
  6
CONTINUOUS
 62
     7
 10
78.2475192317
 20
109.986232313
 30
0.0
  0
SEQEND
  5
B18
  8
0
  6
CONTINUOUS
 62
     7
  0
POLYLINE
  5
3AB
  8
0
  6
CONTINUOUS
 62
     7
 66
     1
 10
0.0
 20
0.0
 30
0.0
  0
VERTEX
  5
A8C
  8
0
  6
CONTINUOUS
 62
     7
 10
67.2786111122
 20
112.9439525207
 30
0.0
  0
VERTEX
  5
A8D
  8
0
  6
CONTINUOUS
 62
     7
 10
62.7209019489
 20
114.1729217673
 30
0.0
  0
VERTEX
  5
A8E
  8
0
  6
CONTINUOUS
 62
     7
 10
58.2436694162
 20
115.3023580712
 30
0.0
  0
SEQEND
  5
B17
  8
0
  6
CONTINUOUS
 62
     7
  0
POLYLINE
  5
3AC
  8
0
  6
CONTINUOUS
 62
     7
 66
     1
 10
0.0
 20
0.0
 30
0.0
  0
VERTEX
  5
A8F
  8
0
  6
CONTINUOUS
 62
     7
 10
156.5589308327
 20
67.6540707265
 30
0.0
  0
VERTEX
  5
A90
  8
0
  6
CONTINUOUS
 62
     7
 10
146.1067667194
 20
70.8197708136
 30
0.0
  0
VERTEX
  5
A91
  8
0
  6
CONTINUOUS
 62
     7
 10
136.087621536
 20
74.4779066802
 30
0.0
  0
VERTEX
  5
A92
  8
0
  6
CONTINUOUS
 62
     7
 10
126.4429889041
 20
78.5844927849
 30
0.0
  0
VERTEX
  5
A93
  8
0
  6
CONTINUOUS
 62
     7
 10
117.1108471166
 20
83.0877072618
 30
0.0
  0
VERTEX
  5
A94
  8
0
  6
CONTINUOUS
 62
     7
 10
108.0084394237
 20
87.8896043972
 30
0.0
  0
VERTEX
  5
A95
  8
0
  6
CONTINUOUS
 62
     7
 10
99.0415959554
 20
92.874488283
 30
0.0
  0
VERTEX
  5
A96
  8
0
  6
CONTINUOUS
 62
     7
 10
90.0517200507
 20
97.8980786649
 30
0.0
  0
VERTEX
  5
A97
  8
0
  6
CONTINUOUS
 62
     7
 10
84.4434816975
 20
100.9036084759
 30
0.0
  0
VERTEX
  5
A98
  8
0
  6
CONTINUOUS
 62
     7
 10
78.7172185903
 20
103.7438279786
 30
0.0
  0
VERTEX
  5
A99
  8
0
  6
CONTINUOUS
 62
     7
 10
72.8003700083
 20
106.3324979146
 30
0.0
  0
VERTEX
  5
A9A
  8
0
  6
CONTINUOUS
 62
     7
 10
66.6031448664
 20
108.5608244217
 30
0.0
  0
VERTEX
  5
A9B
  8
0
  6
CONTINUOUS
 62
     7
 10
59.9851097368
 20
110.2831412991
 30
0.0
  0
VERTEX
  5
A9C
  8
0
  6
CONTINUOUS
 62
     7
 10
53.0855762493
 20
111.287635045
 30
0.0
  0
VERTEX
  5
A9D
  8
0
  6
CONTINUOUS
 62
     7
 10
45.8492488598
 20
111.560210912
 30
0.0
  0
VERTEX
  5
A9E
  8
0
  6
CONTINUOUS
 62
     7
 10
38.3108133246
 20
111.1441027156
 30
0.0
  0
VERTEX
  5
A9F
  8
0
  6
CONTINUOUS
 62
     7
 10
30.6696721955
 20
110.1439029467
 30
0.0
  0
SEQEND
  5
B16
  8
0
  6
CONTINUOUS
 62
     7
  0
LINE
  5
3AD
  8
0
  6
CONTINUOUS
 62
     7
 10
30.5377518169
 20
110.129113016
 30
0.0
 11
30.6696721955
 21
110.1439029467
 31
0.0
  0
LINE
  5
3AE
  8
0
  6
CONTINUOUS
 62
     7
 10
34.7018712305
 20
113.469165816
 30
0.0
 11
30.5377518169
 21
110.129113016
 31
0.0
  0
POLYLINE
  5
3AF
  8
0
  6
CONTINUOUS
 62
     7
 66
     1
 10
0.0
 20
0.0
 30
0.0
  0
VERTEX
  5
AA0
  8
0
  6
CONTINUOUS
 62
     7
 10
30.9666514284
 20
109.9467924154
 30
0.0
  0
VERTEX
  5
AA1
  8
0
  6
CONTINUOUS
 62
     7
 10
30.9197392465
 20
109.9400629207
 30
0.0
  0
VERTEX
  5
AA2
  8
0
  6
CONTINUOUS
 62
     7
 10
30.6697753296
 20
109.9055656717
 30
0.0
  0
SEQEND
  5
B15
  8
0
  6
CONTINUOUS
 62
     7
  0
POLYLINE
  5
3B0
  8
0
  6
CONTINUOUS
 62
     7
 66
     1
 10
0.0
 20
0.0
 30
0.0
  0
VERTEX
  5
AA3
  8
0
  6
CONTINUOUS
 62
     7
 10
30.6696721955
 20
110.1439029467
 30
0.0
  0
VERTEX
  5
AA4
  8
0
  6
CONTINUOUS
 62
     7
 10
30.6696721955
 20
110.1438518556
 30
0.0
  0
VERTEX
  5
AA5
  8
0
  6
CONTINUOUS
 62
     7
 10
30.6697753296
 20
109.9055656717
 30
0.0
  0
SEQEND
  5
B14
  8
0
  6
CONTINUOUS
 62
     7
  0
LINE
  5
3B1
  8
0
  6
CONTINUOUS
 62
     7
 10
30.9666514284
 20
109.9467924154
 30
0.0
 11
31.2494764472
 21
109.9893857423
 31
0.0
  0
POLYLINE
  5
3B2
  8
0
  6
CONTINUOUS
 62
     7
 66
     1
 10
0.0
 20
0.0
 30
0.0
  0
VERTEX
  5
AA6
  8
0
  6
CONTINUOUS
 62
     7
 10
155.775102373
 20
66.4763302926
 30
0.0
  0
VERTEX
  5
AA7
  8
0
  6
CONTINUOUS
 62
     7
 10
149.6526002241
 20
68.2833657517
 30
0.0
  0
VERTEX
  5
AA8
  8
0
  6
CONTINUOUS
 62
     7
 10
146.1664932204
 20
69.4125679942
 30
0.0
  0
VERTEX
  5
AA9
  8
0
  6
CONTINUOUS
 62
     7
 10
142.7259283159
 20
70.5997621006
 30
0.0
  0
VERTEX
  5
AAA
  8
0
  6
CONTINUOUS
 62
     7
 10
135.9778076938
 20
73.1398158365
 30
0.0
  0
VERTEX
  5
AAB
  8
0
  6
CONTINUOUS
 62
     7
 10
129.4027173135
 20
75.8853014456
 30
0.0
  0
VERTEX
  5
AAC
  8
0
  6
CONTINUOUS
 62
     7
 10
122.9901083328
 20
78.818846319
 30
0.0
  0
VERTEX
  5
AAD
  8
0
  6
CONTINUOUS
 62
     7
 10
116.7196992734
 20
81.9158010857
 30
0.0
  0
VERTEX
  5
AAE
  8
0
  6
CONTINUOUS
 62
     7
 10
110.5587952731
 20
85.1431010947
 30
0.0
  0
VERTEX
  5
AAF
  8
0
  6
CONTINUOUS
 62
     7
 10
104.4717144779
 20
88.4690378719
 30
0.0
  0
VERTEX
  5
AB0
  8
0
  6
CONTINUOUS
 62
     7
 10
98.419070023
 20
91.8597939432
 30
0.0
  0
VERTEX
  5
AB1
  8
0
  6
CONTINUOUS
 62
     7
 10
96.9052055906
 20
92.7117731136
 30
0.0
  0
VERTEX
  5
AB2
  8
0
  6
CONTINUOUS
 62
     7
 10
92.2895106077
 20
95.2949590457
 30
0.0
  0
VERTEX
  5
AB3
  8
0
  6
CONTINUOUS
 62
     7
 10
87.6279083496
 20
97.8472817326
 30
0.0
  0
VERTEX
  5
AB4
  8
0
  6
CONTINUOUS
 62
     7
 10
84.5173878144
 20
99.4920984118
 30
0.0
  0
VERTEX
  5
AB5
  8
0
  6
CONTINUOUS
 62
     7
 10
78.1491650315
 20
102.6273778563
 30
0.0
  0
VERTEX
  5
AB6
  8
0
  6
CONTINUOUS
 62
     7
 10
71.5225021518
 20
105.4446494068
 30
0.0
  0
VERTEX
  5
AB7
  8
0
  6
CONTINUOUS
 62
     7
 10
64.5661922553
 20
107.7657068531
 30
0.0
  0
VERTEX
  5
AB8
  8
0
  6
CONTINUOUS
 62
     7
 10
60.9484446745
 20
108.6702908682
 30
0.0
  0
VERTEX
  5
AB9
  8
0
  6
CONTINUOUS
 62
     7
 10
57.2394156698
 20
109.3665081091
 30
0.0
  0
VERTEX
  5
ABA
  8
0
  6
CONTINUOUS
 62
     7
 10
53.4410449987
 20
109.8382824532
 30
0.0
  0
VERTEX
  5
ABB
  8
0
  6
CONTINUOUS
 62
     7
 10
49.5675425501
 20
110.0914626168
 30
0.0
  0
VERTEX
  5
ABC
  8
0
  6
CONTINUOUS
 62
     7
 10
45.6268740312
 20
110.1335552746
 30
0.0
  0
VERTEX
  5
ABD
  8
0
  6
CONTINUOUS
 62
     7
 10
41.6394565726
 20
109.979167452
 30
0.0
  0
VERTEX
  5
ABE
  8
0
  6
CONTINUOUS
 62
     7
 10
37.629816602
 20
109.6477564404
 30
0.0
  0
VERTEX
  5
ABF
  8
0
  6
CONTINUOUS
 62
     7
 10
31.3808116078
 20
108.8246353149
 30
0.0
  0
SEQEND
  5
B13
  8
0
  6
CONTINUOUS
 62
     7
  0
ARC
  5
3B3
  8
0
  6
CONTINUOUS
 62
     7
 10
153.871804668
 20
123.2163824741
 30
0.0
 40
123.3335549118122
 50
186.3696885875
 51
186.7010900544
  0
POLYLINE
  5
3B4
  8
0
  6
CONTINUOUS
 62
     7
 66
     1
 10
0.0
 20
0.0
 30
0.0
  0
VERTEX
  5
AC0
  8
0
  6
CONTINUOUS
 62
     7
 10
31.3934532088
 20
108.7181940742
 30
0.0
  0
VERTEX
  5
AC1
  8
0
  6
CONTINUOUS
 62
     7
 10
31.3894942006
 20
108.7515479397
 30
0.0
  0
VERTEX
  5
AC2
  8
0
  6
CONTINUOUS
 62
     7
 10
31.3808116078
 20
108.8246353149
 30
0.0
  0
SEQEND
  5
B12
  8
0
  6
CONTINUOUS
 62
     7
  0
LINE
  5
3B5
  8
0
  6
CONTINUOUS
 62
     7
 10
155.2484884065
 20
42.9666775837
 30
0.0
 11
154.7351234815
 21
43.0982538744
 31
0.0
  0
POLYLINE
  5
3B6
  8
0
  6
CONTINUOUS
 62
     7
 66
     1
 10
0.0
 20
0.0
 30
0.0
  0
VERTEX
  5
AC3
  8
0
  6
CONTINUOUS
 62
     7
 10
154.8159780883
 20
43.1688235861
 30
0.0
  0
VERTEX
  5
AC4
  8
0
  6
CONTINUOUS
 62
     7
 10
155.0102344403
 20
43.0566050719
 30
0.0
  0
VERTEX
  5
AC5
  8
0
  6
CONTINUOUS
 62
     7
 10
155.2484884065
 20
42.9666775837
 30
0.0
  0
SEQEND
  5
B11
  8
0
  6
CONTINUOUS
 62
     7
  0
LINE
  5
3B7
  8
0
  6
CONTINUOUS
 62
     7
 10
155.2731131008
 20
42.9599851194
 30
0.0
 11
155.2484884065
 21
42.9666775837
 31
0.0
  0
POLYLINE
  5
3B8
  8
0
  6
CONTINUOUS
 62
     7
 66
     1
 10
0.0
 20
0.0
 30
0.0
  0
VERTEX
  5
AC6
  8
0
  6
CONTINUOUS
 62
     7
 10
201.5842561096
 20
46.4584316801
 30
0.0
  0
VERTEX
  5
AC7
  8
0
  6
CONTINUOUS
 62
     7
 10
201.5416278709
 20
46.2292323041
 30
0.0
  0
VERTEX
  5
AC8
  8
0
  6
CONTINUOUS
 62
     7
 10
201.4570597082
 20
46.1086874845
 30
0.0
  0
SEQEND
  5
B10
  8
0
  6
CONTINUOUS
 62
     7
  0
LINE
  5
3B9
  8
0
  6
CONTINUOUS
 62
     7
 10
186.7358686619
 20
30.9429420288
 30
0.0
 11
187.7264772161
 21
30.6737158499
 31
0.0
  0
POLYLINE
  5
3BA
  8
0
  6
CONTINUOUS
 62
     7
 66
     1
 10
0.0
 20
0.0
 30
0.0
  0
VERTEX
  5
AC9
  8
0
  6
CONTINUOUS
 62
     7
 10
21.6457739997
 20
81.8247721259
 30
0.0
  0
VERTEX
  5
ACA
  8
0
  6
CONTINUOUS
 62
     7
 10
21.5666555615
 20
81.8557378545
 30
0.0
  0
VERTEX
  5
ACB
  8
0
  6
CONTINUOUS
 62
     7
 10
21.4987508137
 20
81.8937704909
 30
0.0
  0
VERTEX
  5
ACC
  8
0
  6
CONTINUOUS
 62
     7
 10
21.4445109171
 20
81.9375075411
 30
0.0
  0
VERTEX
  5
ACD
  8
0
  6
CONTINUOUS
 62
     7
 10
21.4058809779
 20
81.9853751002
 30
0.0
  0
VERTEX
  5
ACE
  8
0
  6
CONTINUOUS
 62
     7
 10
21.3842495213
 20
82.0356536497
 30
0.0
  0
VERTEX
  5
ACF
  8
0
  6
CONTINUOUS
 62
     7
 10
21.3803954971
 20
82.0865361779
 30
0.0
  0
VERTEX
  5
AD0
  8
0
  6
CONTINUOUS
 62
     7
 10
21.3807841612
 20
82.0899969134
 30
0.0
  0
VERTEX
  5
AD1
  8
0
  6
CONTINUOUS
 62
     7
 10
21.3944495588
 20
82.1362020673
 30
0.0
  0
VERTEX
  5
AD2
  8
0
  6
CONTINUOUS
 62
     7
 10
21.4259129085
 20
82.182861991
 30
0.0
  0
SEQEND
  5
B0F
  8
0
  6
CONTINUOUS
 62
     7
  0
POLYLINE
  5
3BB
  8
0
  6
CONTINUOUS
 62
     7
 66
     1
 10
0.0
 20
0.0
 30
0.0
  0
VERTEX
  5
AD3
  8
0
  6
CONTINUOUS
 62
     7
 10
21.4259129085
 20
82.182861991
 30
0.0
  0
VERTEX
  5
AD4
  8
0
  6
CONTINUOUS
 62
     7
 10
21.4863043853
 20
83.1698026559
 30
0.0
  0
VERTEX
  5
AD5
  8
0
  6
CONTINUOUS
 62
     7
 10
21.8178546726
 20
86.7112440086
 30
0.0
  0
VERTEX
  5
AD6
  8
0
  6
CONTINUOUS
 62
     7
 10
22.4065822966
 20
90.5267666707
 30
0.0
  0
VERTEX
  5
AD7
  8
0
  6
CONTINUOUS
 62
     7
 10
22.9009992111
 20
92.8380963969
 30
0.0
  0
VERTEX
  5
AD8
  8
0
  6
CONTINUOUS
 62
     7
 10
23.535711793
 20
95.2116098897
 30
0.0
  0
VERTEX
  5
AD9
  8
0
  6
CONTINUOUS
 62
     7
 10
24.2819102008
 20
97.4855387284
 30
0.0
  0
VERTEX
  5
ADA
  8
0
  6
CONTINUOUS
 62
     7
 10
25.1647748907
 20
99.7082557248
 30
0.0
  0
VERTEX
  5
ADB
  8
0
  6
CONTINUOUS
 62
     7
 10
26.3694873241
 20
102.2128272963
 30
0.0
  0
VERTEX
  5
ADC
  8
0
  6
CONTINUOUS
 62
     7
 10
27.6815346225
 20
104.4782001915
 30
0.0
  0
VERTEX
  5
ADD
  8
0
  6
CONTINUOUS
 62
     7
 10
29.0321552283
 20
106.4599608565
 30
0.0
  0
VERTEX
  5
ADE
  8
0
  6
CONTINUOUS
 62
     7
 10
30.4032503845
 20
108.1966921533
 30
0.0
  0
SEQEND
  5
B0E
  8
0
  6
CONTINUOUS
 62
     7
  0
ARC
  5
3BC
  8
0
  6
CONTINUOUS
 62
     7
 10
30.8817722891
 20
108.0975328112
 30
0.0
 40
0.4886878229631135
 50
93.2075473202
 51
168.2928566818
  0
POLYLINE
  5
3BD
  8
0
  6
CONTINUOUS
 62
     7
 66
     1
 10
0.0
 20
0.0
 30
0.0
  0
VERTEX
  5
ADF
  8
0
  6
CONTINUOUS
 62
     7
 10
20.5805731149
 20
62.4152403491
 30
0.0
  0
VERTEX
  5
AE0
  8
0
  6
CONTINUOUS
 62
     7
 10
20.4470281923
 20
62.4679834713
 30
0.0
  0
VERTEX
  5
AE1
  8
0
  6
CONTINUOUS
 62
     7
 10
20.3549205145
 20
62.5405242945
 30
0.0
  0
VERTEX
  5
AE2
  8
0
  6
CONTINUOUS
 62
     7
 10
20.3146983683
 20
62.6246343816
 30
0.0
  0
VERTEX
  5
AE3
  8
0
  6
CONTINUOUS
 62
     7
 10
20.319506102
 20
62.6502609794
 30
0.0
  0
SEQEND
  5
B0D
  8
0
  6
CONTINUOUS
 62
     7
  0
POLYLINE
  5
3BE
  8
0
  6
CONTINUOUS
 62
     7
 66
     1
 10
0.0
 20
0.0
 30
0.0
  0
VERTEX
  5
AE4
  8
0
  6
CONTINUOUS
 62
     7
 10
31.3871798046
 20
108.6689537165
 30
0.0
  0
VERTEX
  5
AE5
  8
0
  6
CONTINUOUS
 62
     7
 10
30.9487819848
 20
108.5932687711
 30
0.0
  0
VERTEX
  5
AE6
  8
0
  6
CONTINUOUS
 62
     7
 10
30.7148338423
 20
108.5337553694
 30
0.0
  0
VERTEX
  5
AE7
  8
0
  6
CONTINUOUS
 62
     7
 10
30.6069929458
 20
108.4783612155
 30
0.0
  0
VERTEX
  5
AE8
  8
0
  6
CONTINUOUS
 62
     7
 10
30.5161925819
 20
108.4029316697
 30
0.0
  0
VERTEX
  5
AE9
  8
0
  6
CONTINUOUS
 62
     7
 10
30.4505981031
 20
108.3057027719
 30
0.0
  0
VERTEX
  5
AEA
  8
0
  6
CONTINUOUS
 62
     7
 10
30.4342581919
 20
108.2443971873
 30
0.0
  0
SEQEND
  5
B0C
  8
0
  6
CONTINUOUS
 62
     7
  0
LINE
  5
3BF
  8
0
  6
CONTINUOUS
 62
     7
 10
29.4295477172
 20
107.7466396177
 30
0.0
 11
29.988582496
 21
107.8035464565
 31
0.0
  0
LINE
  5
3C0
  8
0
  6
CONTINUOUS
 62
     7
 10
29.4295477172
 20
107.7466396177
 30
0.0
 11
29.4303863981
 21
107.7770189834
 31
0.0
  0
POLYLINE
  5
3C1
  8
0
  6
CONTINUOUS
 62
     7
 66
     1
 10
0.0
 20
0.0
 30
0.0
  0
VERTEX
  5
AEB
  8
0
  6
CONTINUOUS
 62
     7
 10
30.4018987885
 20
109.8146615039
 30
0.0
  0
VERTEX
  5
AEC
  8
0
  6
CONTINUOUS
 62
     7
 10
29.9944612457
 20
109.5488141856
 30
0.0
  0
VERTEX
  5
AED
  8
0
  6
CONTINUOUS
 62
     7
 10
29.5979555647
 20
109.2270430352
 30
0.0
  0
VERTEX
  5
AEE
  8
0
  6
CONTINUOUS
 62
     7
 10
29.460664822
 20
108.9838589038
 30
0.0
  0
VERTEX
  5
AEF
  8
0
  6
CONTINUOUS
 62
     7
 10
29.4055640209
 20
108.3133600941
 30
0.0
  0
VERTEX
  5
AF0
  8
0
  6
CONTINUOUS
 62
     7
 10
29.4303863981
 20
107.7770189834
 30
0.0
  0
SEQEND
  5
B0B
  8
0
  6
CONTINUOUS
 62
     7
  0
POLYLINE
  5
3C2
  8
0
  6
CONTINUOUS
 62
     7
 66
     1
 10
0.0
 20
0.0
 30
0.0
  0
VERTEX
  5
AF1
  8
0
  6
CONTINUOUS
 62
     7
 10
30.5606046573
 20
109.884094963
 30
0.0
  0
VERTEX
  5
AF2
  8
0
  6
CONTINUOUS
 62
     7
 10
30.4264512131
 20
109.828755818
 30
0.0
  0
VERTEX
  5
AF3
  8
0
  6
CONTINUOUS
 62
     7
 10
30.4018987885
 20
109.8146615039
 30
0.0
  0
SEQEND
  5
B0A
  8
0
  6
CONTINUOUS
 62
     7
  0
LINE
  5
3C3
  8
0
  6
CONTINUOUS
 62
     7
 10
30.5606046573
 20
109.884094963
 30
0.0
 11
30.9666514284
 21
109.9467924154
 31
0.0
  0
LINE
  5
3C4
  8
0
  6
CONTINUOUS
 62
     7
 10
29.4295477172
 20
107.7466396177
 30
0.0
 11
29.3494227714
 21
106.8618404384
 31
0.0
  0
ARC
  5
3C5
  8
0
  6
CONTINUOUS
 62
     7
 10
62.773126338
 20
69.8196432028
 30
0.0
 40
51.89678398192999
 50
122.7453004251
 51
129.0023989708
  0
LINE
  5
3C6
  8
0
  6
CONTINUOUS
 62
     7
 10
30.4020239876
 20
110.1293617494
 30
0.0
 11
30.5377518169
 21
110.129113016
 31
0.0
  0
LINE
  5
3C7
  8
0
  6
CONTINUOUS
 62
     7
 10
30.4020239876
 20
110.1293617494
 30
0.0
 11
30.1117333046
 21
110.1496517918
 31
0.0
  0
LINE
  5
3C8
  8
0
  6
CONTINUOUS
 62
     7
 10
29.4295477172
 20
107.7466396177
 30
0.0
 11
28.9873377602
 21
107.8668228086
 31
0.0
  0
LINE
  5
3C9
  8
0
  6
CONTINUOUS
 62
     7
 10
28.9873377602
 20
107.8668228086
 30
0.0
 11
28.8335548406
 21
106.1685584431
 31
0.0
  0
LINE
  5
3CA
  8
0
  6
CONTINUOUS
 62
     7
 10
30.4018987885
 20
109.8146615039
 30
0.0
 11
30.4020239876
 21
110.1293617494
 31
0.0
  0
POLYLINE
  5
3CB
  8
0
  6
CONTINUOUS
 62
     7
 66
     1
 10
0.0
 20
0.0
 30
0.0
  0
VERTEX
  5
AF4
  8
0
  6
CONTINUOUS
 62
     7
 10
30.6697753296
 20
109.9055656717
 30
0.0
  0
VERTEX
  5
AF5
  8
0
  6
CONTINUOUS
 62
     7
 10
30.5918831198
 20
109.891572695
 30
0.0
  0
VERTEX
  5
AF6
  8
0
  6
CONTINUOUS
 62
     7
 10
30.5606046573
 20
109.884094963
 30
0.0
  0
SEQEND
  5
B09
  8
0
  6
CONTINUOUS
 62
     7
  0
ARC
  5
3CC
  8
0
  6
CONTINUOUS
 62
     7
 10
29.994545754
 20
109.2205137107
 30
0.0
 40
0.936499063378736
 50
82.8115257513
 51
178.6993973524
  0
LINE
  5
3CD
  8
0
  6
CONTINUOUS
 62
     7
 10
28.9894745585
 20
107.8968493738
 30
0.0
 11
29.4303863981
 21
107.7770189834
 31
0.0
  0
LINE
  5
3CE
  8
0
  6
CONTINUOUS
 62
     7
 10
29.0582879603
 20
109.2417702251
 30
0.0
 11
28.9894745585
 21
107.8968493738
 31
0.0
  0
ARC
  5
3CF
  8
0
  6
CONTINUOUS
 62
     7
 10
28.2166717554
 20
107.9367554844
 30
0.0
 40
0.7738324561316116
 50
354.814999915
 51
357.043977225
  0
ARC
  5
3D0
  8
0
  6
CONTINUOUS
 62
     7
 10
45.3323916627
 20
117.3507613242
 30
0.0
 40
1.172073606183776
 50
74.9014358097
 51
106.3659896078
  0
LINE
  5
3D1
  8
0
  6
CONTINUOUS
 62
     7
 10
185.3121499723
 20
29.3424950061
 30
0.0
 11
186.3381099887
 21
30.4345888409
 31
0.0
  0
LINE
  5
3D2
  8
0
  6
CONTINUOUS
 62
     7
 10
186.3611679623
 20
29.5813196113
 30
0.0
 11
186.3381099887
 21
30.4345888409
 31
0.0
  0
LINE
  5
3D3
  8
0
  6
CONTINUOUS
 62
     7
 10
186.3611679623
 20
29.5813196113
 30
0.0
 11
183.5384458061
 21
26.5766503826
 31
0.0
  0
LINE
  5
3D4
  8
0
  6
CONTINUOUS
 62
     7
 10
186.3381099887
 20
30.4345888409
 30
0.0
 11
186.2942507526
 21
30.4465088415
 31
0.0
  0
LINE
  5
3D5
  8
0
  6
CONTINUOUS
 62
     8
 10
153.4190432855
 20
44.8094207304
 30
0.0
 11
153.5856927307
 21
44.7667100206
 31
0.0
  0
POLYLINE
  5
3D6
  8
0
  6
CONTINUOUS
 62
     8
 66
     1
 10
0.0
 20
0.0
 30
0.0
  0
VERTEX
  5
AF7
  8
0
  6
CONTINUOUS
 62
     8
 10
174.9992000848
 20
83.0545421245
 30
0.0
  0
VERTEX
  5
AF8
  8
0
  6
CONTINUOUS
 62
     8
 10
148.67757977
 20
90.2173751623
 30
0.0
  0
VERTEX
  5
AF9
  8
0
  6
CONTINUOUS
 62
     8
 10
114.0624550328
 20
99.8136957191
 30
0.0
  0
VERTEX
  5
AFA
  8
0
  6
CONTINUOUS
 62
     8
 10
96.8274647408
 20
104.727621244
 30
0.0
  0
VERTEX
  5
AFB
  8
0
  6
CONTINUOUS
 62
     8
 10
89.1536513287
 20
106.9076602817
 30
0.0
  0
SEQEND
  5
B08
  8
0
  6
CONTINUOUS
 62
     8
  0
LINE
  5
3D7
  8
0
  6
CONTINUOUS
 62
     8
 10
58.2436694162
 20
115.3023580712
 30
0.0
 11
45.6376937639
 21
118.4823739634
 31
0.0
  0
ARC
  5
3D8
  8
0
  6
CONTINUOUS
 62
     8
 10
196.5046541955
 20
75.8906492427
 30
0.0
 40
0.8389906098047579
 50
329.5264113548
 51
12.7017690603
  0
ARC
  5
3D9
  8
0
  6
CONTINUOUS
 62
     8
 10
195.8443173094
 20
77.0189588407
 30
0.0
 40
0.573375858687876
 50
75.988551685
 51
126.2406603818
  0
POLYLINE
  5
3DA
  8
0
  6
CONTINUOUS
 62
     8
 66
     1
 10
0.0
 20
0.0
 30
0.0
  0
VERTEX
  5
AFC
  8
0
  6
CONTINUOUS
 62
     8
 10
175.4804191778
 20
83.1210344957
 30
0.0
  0
VERTEX
  5
AFD
  8
0
  6
CONTINUOUS
 62
     8
 10
175.3436070619
 20
83.1625335784
 30
0.0
  0
VERTEX
  5
AFE
  8
0
  6
CONTINUOUS
 62
     8
 10
174.9992000848
 20
83.0545421245
 30
0.0
  0
SEQEND
  5
B07
  8
0
  6
CONTINUOUS
 62
     8
  0
POLYLINE
  5
3DB
  8
0
  6
CONTINUOUS
 62
     8
 66
     1
 10
0.0
 20
0.0
 30
0.0
  0
VERTEX
  5
AFF
  8
0
  6
CONTINUOUS
 62
     8
 10
45.9527667448
 20
118.4783186014
 30
0.0
  0
VERTEX
  5
B00
  8
0
  6
CONTINUOUS
 62
     8
 10
45.7890825164
 20
118.5088173448
 30
0.0
  0
VERTEX
  5
B01
  8
0
  6
CONTINUOUS
 62
     8
 10
45.6376937639
 20
118.4823739634
 30
0.0
  0
SEQEND
  5
B06
  8
0
  6
CONTINUOUS
 62
     8
  0
LINE
  5
3DC
  8
0
  6
CONTINUOUS
 62
     8
 10
29.9760104123
 20
107.6555189539
 30
0.0
 11
29.988582496
 21
107.8035464565
 31
0.0
  0
POLYLINE
  5
3DD
  8
0
  6
CONTINUOUS
 62
     8
 66
     1
 10
0.0
 20
0.0
 30
0.0
  0
VERTEX
  5
B02
  8
0
  6
CONTINUOUS
 62
     8
 10
34.7018712305
 20
113.469165816
 30
0.0
  0
VERTEX
  5
B03
  8
0
  6
CONTINUOUS
 62
     8
 10
34.295176232
 20
113.4296655345
 30
0.0
  0
VERTEX
  5
B04
  8
0
  6
CONTINUOUS
 62
     8
 10
34.053153801
 20
113.2983068728
 30
0.0
  0
SEQEND
  5
B05
  8
0
  6
CONTINUOUS
 62
     8
  0
ENDSEC
  0
EOF
