  0
SECTION
  2
HEADER
  9
$ACADVER
  1
AC1009
  9
$DWGCODEPAGE
  3
ansi_1252
  9
$INSBASE
 10
0.0
 20
0.0
 30
0.0
  9
$EXTMIN
 10
0.0
 20
0.0
 30
0.0
  9
$EXTMAX
 10
594.0
 20
420.0
 30
0.0
  9
$LIMMIN
 10
0.0
 20
0.0
  9
$LIMMAX
 10
594.0
 20
420.0
  9
$ORTHOMODE
 70
     0
  9
$REGENMODE
 70
     1
  9
$FILLMODE
 70
     1
  9
$QTEXTMODE
 70
     0
  9
$MIRRTEXT
 70
     1
  9
$DRAGMODE
 70
     2
  9
$LTSCALE
 40
1.0
  9
$OSMODE
 70
    37
  9
$ATTMODE
 70
     1
  9
$TEXTSIZE
 40
3.5
  9
$TRACEWID
 40
1.0
  9
$TEXTSTYLE
  7
STANDARD
  9
$CLAYER
  8
0
  9
$CELTYPE
  6
BYLAYER
  9
$CECOLOR
 62
   256
  9
$DIMSCALE
 40
1.0
  9
$DIMASZ
 40
3.81
  9
$DIMEXO
 40
0.0
  9
$DIMDLI
 40
3.75
  9
$DIMRND
 40
0.0
  9
$DIMDLE
 40
0.0
  9
$DIMEXE
 40
1.0
  9
$DIMTP
 40
0.0
  9
$DIMTM
 40
0.0
  9
$DIMTXT
 40
3.2
  9
$DIMCEN
 40
2.5
  9
$DIMTSZ
 40
0.0
  9
$DIMTOL
 70
     0
  9
$DIMLIM
 70
     0
  9
$DIMTIH
 70
     1
  9
$DIMTOH
 70
     1
  9
$DIMSE1
 70
     0
  9
$DIMSE2
 70
     0
  9
$DIMTAD
 70
     1
  9
$DIMZIN
 70
     0
  9
$DIMBLK
  1

  9
$DIMASO
 70
     1
  9
$DIMSHO
 70
     1
  9
$DIMPOST
  1

  9
$DIMAPOST
  1

  9
$DIMALT
 70
     0
  9
$DIMALTD
 70
     3
  9
$DIMALTF
 40
0.0393700787
  9
$DIMLFAC
 40
1.0
  9
$DIMTOFL
 70
     1
  9
$DIMTVP
 40
0.0
  9
$DIMTIX
 70
     0
  9
$DIMSOXD
 70
     0
  9
$DIMSAH
 70
     0
  9
$DIMBLK1
  1

  9
$DIMBLK2
  1

  9
$DIMSTYLE
  2
ISO-25
  9
$DIMCLRD
 70
     0
  9
$DIMCLRE
 70
     0
  9
$DIMCLRT
 70
     0
  9
$DIMTFAC
 40
1.0
  9
$DIMGAP
 40
1.524
  9
$LUNITS
 70
     2
  9
$LUPREC
 70
     5
  9
$SKETCHINC
 40
1.0
  9
$FILLETRAD
 40
10.0
  9
$AUNITS
 70
     0
  9
$AUPREC
 70
     0
  9
$MENU
  1
.
  9
$ELEVATION
 40
0.0
  9
$PELEVATION
 40
0.0
  9
$THICKNESS
 40
0.0
  9
$LIMCHECK
 70
     0
  9
$CHAMFERA
 40
10.0
  9
$CHAMFERB
 40
10.0
  9
$SKPOLY
 70
     0
  9
$TDCREATE
 40
2456423.395072766
  9
$TDUPDATE
 40
2456423.395078241
  9
$TDINDWG
 40
0.0000000116
  9
$TDUSRTIMER
 40
0.0000000116
  9
$USRTIMER
 70
     1
  9
$ANGBASE
 50
0.0
  9
$ANGDIR
 70
     0
  9
$PDMODE
 70
     0
  9
$PDSIZE
 40
-1.0
  9
$PLINEWID
 40
0.0
  9
$COORDS
 70
     1
  9
$SPLFRAME
 70
     0
  9
$SPLINETYPE
 70
     6
  9
$SPLINESEGS
 70
     8
  9
$ATTDIA
 70
     0
  9
$ATTREQ
 70
     1
  9
$HANDLING
 70
     1
  9
$HANDSEED
  5
BF7
  9
$SURFTAB1
 70
     6
  9
$SURFTAB2
 70
     6
  9
$SURFTYPE
 70
     6
  9
$SURFU
 70
     6
  9
$SURFV
 70
     6
  9
$UCSNAME
  2

  9
$UCSORG
 10
0.0
 20
0.0
 30
0.0
  9
$UCSXDIR
 10
1.0
 20
0.0
 30
0.0
  9
$UCSYDIR
 10
0.0
 20
1.0
 30
0.0
  9
$PUCSNAME
  2

  9
$PUCSORG
 10
0.0
 20
0.0
 30
0.0
  9
$PUCSXDIR
 10
1.0
 20
0.0
 30
0.0
  9
$PUCSYDIR
 10
0.0
 20
1.0
 30
0.0
  9
$USERI1
 70
     0
  9
$USERI2
 70
     0
  9
$USERI3
 70
     0
  9
$USERI4
 70
     0
  9
$USERI5
 70
     0
  9
$USERR1
 40
0.0
  9
$USERR2
 40
0.0
  9
$USERR3
 40
0.0
  9
$USERR4
 40
0.0
  9
$USERR5
 40
0.0
  9
$WORLDVIEW
 70
     1
  9
$SHADEDGE
 70
     3
  9
$SHADEDIF
 70
    70
  9
$TILEMODE
 70
     1
  9
$MAXACTVP
 70
    64
  9
$PLIMCHECK
 70
     0
  9
$PEXTMIN
 10
1.0000000000E+20
 20
1.0000000000E+20
 30
1.0000000000E+20
  9
$PEXTMAX
 10
-1.0000000000E+20
 20
-1.0000000000E+20
 30
-1.0000000000E+20
  9
$PLIMMIN
 10
0.0
 20
0.0
  9
$PLIMMAX
 10
420.0
 20
297.0
  9
$UNITMODE
 70
     0
  9
$VISRETAIN
 70
     1
  9
$PLINEGEN
 70
     0
  9
$PSLTSCALE
 70
     1
  0
ENDSEC
  0
SECTION
  2
TABLES
  0
TABLE
  2
VPORT
 70
     1
  0
VPORT
  2
*ACTIVE
 70
     0
 10
0.0
 20
0.0
 11
1.0
 21
1.0
 12
297.0
 22
210.0
 13
0.0
 23
0.0
 14
10.0
 24
10.0
 15
10.0
 25
10.0
 16
0.0
 26
0.0
 36
1.0
 17
0.0
 27
0.0
 37
0.0
 40
420.0
 41
1.4142857143
 42
50.0
 43
0.0
 44
0.0
 50
0.0
 51
0.0
 71
     0
 72
  2000
 73
     1
 74
     3
 75
     0
 76
     0
 77
     0
 78
     0
  0
ENDTAB
  0
TABLE
  2
LTYPE
 70
     6
  0
LTYPE
  2
CONTINUOUS
 70
     0
  3
Solid line
 72
    65
 73
     0
 40
0.0
  0
LTYPE
  2
HIDDEN
 70
     0
  3
Hidden __ __ __ __ __ __ __ __ __ __ __ __ __ __
 72
    65
 73
     2
 40
1.905
 49
1.27
 49
-0.635
  0
LTYPE
  2
PHANTOM
 70
     0
  3
Phantom ______  __  __  ______  __  __  ______
 72
    65
 73
     6
 40
12.7
 49
6.35
 49
-1.27
 49
1.27
 49
-1.27
 49
1.27
 49
-1.27
  0
LTYPE
  2
CENTER
 70
     0
  3
Center ____ _ ____ _ ____ _ ____ _ ____ _ ____
 72
    65
 73
     4
 40
10.16
 49
6.35
 49
-1.27
 49
1.27
 49
-1.27
  0
LTYPE
  2
CENTERX2
 70
     0
  3
Center (2x) ________  __  ________  __  _____
 72
    65
 73
     4
 40
20.32
 49
12.7
 49
-2.54
 49
2.54
 49
-2.54
  0
LTYPE
  2
DOT2
 70
     0
  3
Dot (.5x) ........................................
 72
    65
 73
     2
 40
0.635
 49
0.0
 49
-0.635
  0
ENDTAB
  0
TABLE
  2
LAYER
 70
    10
  0
LAYER
  2
0
 70
     0
 62
     7
  6
CONTINUOUS
  0
LAYER
  2
SLD-0
 70
     0
 62
     7
  6
CONTINUOUS
  0
LAYER
  2
PV
 70
     0
 62
     7
  6
CONTINUOUS
  0
LAYER
  2
COTATION
 70
     0
 62
     1
  6
CONTINUOUS
  0
LAYER
  2
NOTES
 70
     0
 62
     5
  6
CONTINUOUS
  0
LAYER
  2
COTATION2
 70
     0
 62
    96
  6
CONTINUOUS
  0
LAYER
  2
COTATION3
 70
     0
 62
    30
  6
CONTINUOUS
  0
LAYER
  2
LOGO1
 70
     0
 62
   156
  6
CONTINUOUS
  0
LAYER
  2
LOGO2
 70
     0
 62
   161
  6
CONTINUOUS
  0
LAYER
  2
NOTE
 70
     0
 62
     5
  6
CONTINUOUS
  0
ENDTAB
  0
TABLE
  2
STYLE
 70
     1
  0
STYLE
  2
STANDARD
 70
     0
 40
0.0
 41
1.0
 50
0.0
 71
     0
 42
3.5
  3
txt
  4

  0
ENDTAB
  0
TABLE
  2
VIEW
 70
     0
  0
ENDTAB
  0
TABLE
  2
UCS
 70
     0
  0
ENDTAB
  0
TABLE
  2
APPID
 70
     1
  0
APPID
  2
ACAD
 70
     0
  0
ENDTAB
  0
TABLE
  2
DIMSTYLE
 70
     5
  0
DIMSTYLE
  2
ISO-25
 70
     0
  3

  4

  5

  6

  7

 40
1.0
 41
2.5
 42
0.625
 43
3.75
 44
1.25
 45
0.0
 46
0.0
 47
0.0
 48
0.0
140
2.5
141
2.5
142
0.0
143
0.0393700787
144
1.0
145
0.0
146
1.0
147
0.625
 71
     0
 72
     0
 73
     0
 74
     0
 75
     0
 76
     0
 77
     1
 78
     8
170
     0
171
     3
172
     1
173
     0
174
     0
175
     0
176
     0
177
     0
178
     0
  0
DIMSTYLE
  2
SLDDIMSTYLE0
 70
     0
  3

  4

  5

  6

  7

 40
1.0
 41
3.81
 42
0.0625
 43
0.38
 44
0.0
 45
0.000000001
 46
0.0
 47
0.0
 48
0.0
140
3.2
141
0.09
142
0.0
143
25.4
144
1.0
145
0.0
146
1.0
147
0.8
 71
     0
 72
     0
 73
     0
 74
     0
 75
     0
 76
     0
 77
     1
 78
    12
170
     0
171
     2
172
     0
173
     1
174
     0
175
     0
176
     0
177
     0
178
     0
  0
DIMSTYLE
  2
SLDDIMSTYLE1
 70
     0
  3

  4

  5

  6

  7

 40
1.0
 41
3.81
 42
0.0625
 43
0.38
 44
0.0
 45
0.000000001
 46
0.0
 47
0.0
 48
0.0
140
3.2
141
0.09
142
0.0
143
25.4
144
1.0
145
0.0
146
1.0
147
0.8
 71
     0
 72
     0
 73
     0
 74
     0
 75
     0
 76
     0
 77
     1
 78
    12
170
     0
171
     2
172
     0
173
     1
174
     0
175
     0
176
     0
177
     0
178
     0
  0
DIMSTYLE
  2
SLDDIMSTYLE2
 70
     0
  3

  4

  5

  6

  7

 40
1.0
 41
3.81
 42
0.0625
 43
0.38
 44
0.0
 45
0.000000001
 46
0.0
 47
0.0
 48
0.0
140
3.2
141
0.09
142
0.0
143
25.4
144
1.0
145
0.0
146
1.0
147
0.8
 71
     0
 72
     0
 73
     0
 74
     0
 75
     0
 76
     0
 77
     1
 78
    12
170
     0
171
     2
172
     0
173
     1
174
     0
175
     0
176
     0
177
     0
178
     0
  0
DIMSTYLE
  2
SLDDIMSTYLE3
 70
     0
  3

  4

  5

  6

  7

 40
1.0
 41
3.81
 42
0.0625
 43
0.38
 44
0.0
 45
0.000000001
 46
0.0
 47
7.0
 48
8.0
140
3.2
141
0.09
142
0.0
143
25.4
144
1.0
145
0.0
146
1.0
147
0.8
 71
     1
 72
     0
 73
     0
 74
     0
 75
     0
 76
     0
 77
     1
 78
    12
170
     0
171
     2
172
     0
173
     1
174
     0
175
     0
176
     0
177
     0
178
     0
  0
ENDTAB
  0
ENDSEC
  0
SECTION
  2
BLOCKS
  0
BLOCK
  8
0
  2
$MODEL_SPACE
 70
     0
 10
0.0
 20
0.0
 30
0.0
  3
$MODEL_SPACE
  1

  0
ENDBLK
  5
21
  8
0
  0
BLOCK
 67
     1
  8
0
  2
$PAPER_SPACE
 70
     0
 10
0.0
 20
0.0
 30
0.0
  3
$PAPER_SPACE
  1

  0
ENDBLK
  5
1D
 67
     1
  8
0
  0
BLOCK
  8
0
  2
BLOC2
 70
     0
 10
0.0
 20
0.0
 30
0.0
  3
BLOC2
  1

  0
CIRCLE
  5
50
  8
PV
  6
CONTINUOUS
 10
8.0102707617
 20
1.7
 30
0.0
 40
0.6400000000000101
  0
CIRCLE
  5
51
  8
PV
  6
CONTINUOUS
 10
8.0102707617
 20
1.7
 30
0.0
 40
1.199999999999928
  0
LINE
  5
52
  8
PV
  6
CENTER
 10
8.0102707617
 20
0.0
 30
0.0
 11
8.0102707617
 21
3.4
 31
0.0
  0
LINE
  5
53
  8
PV
  6
CONTINUOUS
 10
4.0102707617
 20
2.9
 30
0.0
 11
4.0102707617
 21
0.5
 31
0.0
  0
LINE
  5
54
  8
PV
  6
CONTINUOUS
 10
0.8102707617
 20
1.06
 30
0.0
 11
4.0102707617
 21
0.5
 31
0.0
  0
LINE
  5
55
  8
PV
  6
CONTINUOUS
 10
0.8102707617
 20
2.339999
 30
0.0
 11
0.8102707617
 21
1.06
 31
0.0
  0
LINE
  5
56
  8
PV
  6
CENTER
 10
9.7436336225
 20
1.7471354655
 30
0.0
 11
0.0
 21
1.7000647717
 31
0.0
  0
LINE
  5
57
  8
PV
  6
CONTINUOUS
 10
0.8102707617
 20
2.339999
 30
0.0
 11
4.0102707617
 21
2.9
 31
0.0
  0
ENDBLK
  5
4F
  8
0
  0
BLOCK
  8
0
  2
SW_NOTE_0
 70
     0
 10
0.0
 20
0.0
 30
0.0
  3
SW_NOTE_0
  1

  0
TEXT
  5
131
  8
PV
 62
     0
 10
-0.7065201238
 20
0.0
 30
0.0
 40
2.0
  1
PDM Project :
 50
90.0
 41
0.6461538462
 11
0.0
 21
0.0
 31
0.0
 73
     1
  0
TEXT
  5
132
  8
PV
 62
     0
 10
-0.7065201238
 20
16.8881937861
 30
0.0
 40
2.0
  1
 E279 IXIO LIGHT BASED A8 -
 50
90.0
 41
0.6222222222
 11
0.0
 21
16.8881937861
 31
0.0
 73
     1
  0
TEXT
  5
133
  8
PV
 62
     0
 10
-0.7065201238
 20
51.3048581779
 30
0.0
 40
2.0
  1
  File Name :
 50
90.0
 41
0.5923076923
 11
0.0
 21
51.3048581779
 31
0.0
 73
     1
  0
TEXT
  5
134
  8
PV
 62
     0
 10
-0.7065201238
 20
66.7357593775
 30
0.0
 40
2.0
  1
 E279 - ASSY -DIM _NA NIO - 41.8634 
 50
90.0
 41
0.6125
 11
0.0
 21
66.7357593775
 31
0.0
 73
     1
  0
ENDBLK
  5
130
  8
0
  0
BLOCK
  8
0
  2
SW_NOTE_1
 70
     0
 10
0.0
 20
0.0
 30
0.0
  3
SW_NOTE_1
  1

  0
TEXT
  5
16E
  8
SLD-0
 62
     0
 10
0.0
 20
0.9346672472
 30
0.0
 40
2.6458333333
  1
A
 41
0.7
 11
0.0
 21
0.0
 31
0.0
 73
     1
  0
TEXT
  5
16F
  8
SLD-0
 62
     0
 10
2.9447143897
 20
0.9346672472
 30
0.0
 40
2.6458333333
  1
HALMA
 41
0.7
 11
2.9447143897
 21
0.0
 31
0.0
 73
     1
  0
TEXT
  5
170
  8
SLD-0
 62
     0
 10
15.2233410627
 20
0.9346672472
 30
0.0
 40
2.6458333333
  1
COMPANY
 41
0.7
 11
15.2233410627
 21
0.0
 31
0.0
 73
     1
  0
ENDBLK
  5
16D
  8
0
  0
BLOCK
  8
0
  2
_D
 70
     0
 10
0.0
 20
0.0
 30
0.0
  3
_D
  1

  0
SOLID
  5
1D6
  8
COTATION
 10
219.764469263
 20
180.2623664682
 30
0.0
 11
223.574469263
 21
179.6908664682
 31
0.0
 12
223.574469263
 22
180.8338664682
 32
0.0
 13
223.574469263
 23
180.8338664682
 33
0.0
  0
SOLID
  5
1D7
  8
COTATION
 10
488.9482324455
 20
180.2623664682
 30
0.0
 11
485.1382324455
 21
180.8338664682
 31
0.0
 12
485.1382324455
 22
179.6908664682
 32
0.0
 13
485.1382324455
 23
179.6908664682
 33
0.0
  0
LINE
  5
1D8
  8
COTATION
 10
219.764469263
 20
216.7289679722
 30
0.0
 11
219.764469263
 21
179.2623664682
 31
0.0
  0
LINE
  5
1D9
  8
COTATION
 10
488.9482324455
 20
211.1045679722
 30
0.0
 11
488.9482324455
 21
179.2623664682
 31
0.0
  0
LINE
  5
1DA
  8
COTATION
 10
219.764469263
 20
180.2623664682
 30
0.0
 11
488.9482324455
 21
180.2623664682
 31
0.0
  0
TEXT
  5
1DB
  8
COTATION
 10
346.5541284645
 20
181.3927984918
 30
-18.3898253635
 40
3.2
  1
269,18
 41
0.7
 11
346.5541284645
 21
180.2623662936
 31
-18.3898253635
 73
     1
  0
ENDBLK
  5
1D5
  8
0
  0
BLOCK
  8
0
  2
_D_1
 70
     0
 10
0.0
 20
0.0
 30
0.0
  3
_D_1
  1

  0
SOLID
  5
1E1
  8
COTATION
 10
499.0641006505
 20
258.9804828174
 30
0.0
 11
498.4926006505
 21
255.1704828174
 31
0.0
 12
499.6356006505
 22
255.1704828174
 32
0.0
 13
499.6356006505
 23
255.1704828174
 33
0.0
  0
SOLID
  5
1E2
  8
COTATION
 10
499.0641006505
 20
201.1045679722
 30
0.0
 11
499.6356006505
 21
204.9145679722
 31
0.0
 12
498.4926006505
 22
204.9145679722
 32
0.0
 13
498.4926006505
 23
204.9145679722
 33
0.0
  0
LINE
  5
1E3
  8
COTATION
 10
484.8520469775
 20
258.9804828174
 30
0.0
 11
500.0641006505
 21
258.9804828174
 31
0.0
  0
LINE
  5
1E4
  8
COTATION
 10
485.7390565826
 20
201.1045679722
 30
0.0
 11
500.0641006505
 21
201.1045679722
 31
0.0
  0
LINE
  5
1E5
  8
COTATION
 10
499.0641006505
 20
258.9804828174
 30
0.0
 11
499.0641006505
 21
201.1045679722
 31
0.0
  0
TEXT
  5
1E6
  8
COTATION
 10
497.933668627
 20
224.6047475515
 30
-18.3898253635
 40
3.2
  1
57,9
 50
90.0
 41
0.7
 11
499.0641008251
 21
224.6047475515
 31
-18.3898253635
 73
     1
  0
ENDBLK
  5
1E0
  8
0
  0
BLOCK
  8
0
  2
_D_2
 70
     0
 10
0.0
 20
0.0
 30
0.0
  3
_D_2
  1

  0
SOLID
  5
256
  8
COTATION
 10
70.0818305987
 20
190.2623664682
 30
0.0
 11
73.8918305987
 21
189.6908664682
 31
0.0
 12
73.8918305987
 22
190.8338664682
 32
0.0
 13
73.8918305987
 23
190.8338664682
 33
0.0
  0
SOLID
  5
257
  8
COTATION
 10
118.6309931053
 20
190.2623664682
 30
0.0
 11
114.8209931053
 21
190.8338664682
 31
0.0
 12
114.8209931053
 22
189.6908664682
 32
0.0
 13
114.8209931053
 23
189.6908664682
 33
0.0
  0
LINE
  5
258
  8
COTATION
 10
70.0818305987
 20
216.2414805543
 30
0.0
 11
70.0818305987
 21
189.2623664682
 31
0.0
  0
LINE
  5
259
  8
COTATION
 10
118.6309931053
 20
224.326933167
 30
0.0
 11
118.6309931053
 21
189.2623664682
 31
0.0
  0
LINE
  5
25A
  8
COTATION
 10
70.0818305987
 20
190.2623664682
 30
0.0
 11
118.6309931053
 21
190.2623664682
 31
0.0
  0
TEXT
  5
25B
  8
COTATION
 10
88.9186340087
 20
191.3927984918
 30
0.1
 40
3.2
  1
48,5
 41
0.7
 11
88.9186340087
 21
190.2623662936
 31
0.1
 73
     1
  0
ENDBLK
  5
255
  8
0
  0
BLOCK
  8
0
  2
_D_3
 70
     0
 10
0.0
 20
0.0
 30
0.0
  3
_D_3
  1

  0
SOLID
  5
260
  8
COTATION
 10
161.6204092768
 20
258.9804828174
 30
0.0
 11
161.0489092768
 21
255.1704828174
 31
0.0
 12
162.1919092768
 22
255.1704828174
 32
0.0
 13
162.1919092768
 23
255.1704828174
 33
0.0
  0
SOLID
  5
261
  8
COTATION
 10
161.6204092768
 20
225.8132710535
 30
0.0
 11
162.1919092768
 21
229.6232710535
 31
0.0
 12
161.0489092768
 22
229.6232710535
 32
0.0
 13
161.0489092768
 23
229.6232710535
 33
0.0
  0
LINE
  5
262
  8
COTATION
 10
118.4309931053
 20
258.9804828174
 30
0.0
 11
162.6204092768
 21
258.9804828174
 31
0.0
  0
LINE
  5
263
  8
COTATION
 10
127.2309931053
 20
225.8132710535
 30
0.0
 11
162.6204092768
 21
225.8132710535
 31
0.0
  0
LINE
  5
264
  8
COTATION
 10
161.6204092768
 20
258.9804828174
 30
0.0
 11
161.6204092768
 21
225.8132710535
 31
0.0
  0
TEXT
  5
265
  8
COTATION
 10
160.4899772533
 20
235.776876819
 30
-82.9785297675
 40
3.2
  1
33,17
 50
90.0
 41
0.7
 11
161.6204094515
 21
235.776876819
 31
-82.9785297675
 73
     1
  0
ENDBLK
  5
25F
  8
0
  0
BLOCK
  8
0
  2
_D_4
 70
     0
 10
0.0
 20
0.0
 30
0.0
  3
_D_4
  1

  0
SOLID
  5
26A
  8
COTATION
 10
161.6204092768
 20
201.1045679722
 30
0.0
 11
162.1919092768
 21
204.9145679722
 31
0.0
 12
161.0489092768
 22
204.9145679722
 32
0.0
 13
161.0489092768
 23
204.9145679722
 33
0.0
  0
SOLID
  5
26B
  8
COTATION
 10
161.6204092768
 20
225.8132710535
 30
0.0
 11
161.0489092768
 21
222.0032710535
 31
0.0
 12
162.1919092768
 22
222.0032710535
 32
0.0
 13
162.1919092768
 23
222.0032710535
 33
0.0
  0
LINE
  5
26C
  8
COTATION
 10
118.4309931053
 20
201.1045679722
 30
0.0
 11
162.6204092768
 21
201.1045679722
 31
0.0
  0
LINE
  5
26D
  8
COTATION
 10
127.2309931053
 20
225.8132710535
 30
0.0
 11
162.6204092768
 21
225.8132710535
 31
0.0
  0
LINE
  5
26E
  8
COTATION
 10
161.6204092768
 20
201.1045679722
 30
0.0
 11
161.6204092768
 21
225.8132710535
 31
0.0
  0
TEXT
  5
26F
  8
COTATION
 10
160.4899772533
 20
206.8389193963
 30
-82.9785297675
 40
3.2
  1
24,71
 50
90.0
 41
0.7
 11
161.6204094515
 21
206.8389193963
 31
-82.9785297675
 73
     1
  0
ENDBLK
  5
269
  8
0
  0
BLOCK
  8
0
  2
_D_5
 70
     0
 10
0.0
 20
0.0
 30
0.0
  3
_D_5
  1

  0
SOLID
  5
39F
  8
COTATION
 10
207.8141780042
 20
372.163692277
 30
0.0
 11
207.2426780042
 21
368.353692277
 31
0.0
 12
208.3856780042
 22
368.353692277
 32
0.0
 13
208.3856780042
 23
368.353692277
 33
0.0
  0
SOLID
  5
3A0
  8
COTATION
 10
207.8141780042
 20
323.6145295302
 30
0.0
 11
208.3856780042
 21
327.4245295302
 31
0.0
 12
207.2426780042
 22
327.4245295302
 32
0.0
 13
207.2426780042
 23
327.4245295302
 33
0.0
  0
LINE
  5
3A1
  8
COTATION
 10
225.3567049871
 20
372.163692277
 30
0.0
 11
206.8141780042
 21
372.163692277
 31
0.0
  0
LINE
  5
3A2
  8
COTATION
 10
252.9955303294
 20
323.6145295302
 30
0.0
 11
206.8141780042
 21
323.6145295302
 31
0.0
  0
LINE
  5
3A3
  8
COTATION
 10
207.8141780042
 20
372.163692277
 30
0.0
 11
207.8141780042
 21
323.6145295302
 31
0.0
  0
TEXT
  5
3A4
  8
COTATION
 10
206.6837459807
 20
342.4513330603
 30
0.1
 40
3.2
  1
48,5
 50
90.0
 41
0.7
 11
207.8141781789
 21
342.4513330603
 31
0.1
 73
     1
  0
ENDBLK
  5
39E
  8
0
  0
BLOCK
  8
0
  2
_D_6
 70
     0
 10
0.0
 20
0.0
 30
0.0
  3
_D_6
  1

  0
SOLID
  5
3AA
  8
COTATION
 10
242.8585677641
 20
304.0145295302
 30
0.0
 11
246.6685677641
 21
303.4430295302
 31
0.0
 12
246.6685677641
 22
304.5860295302
 32
0.0
 13
246.6685677641
 23
304.5860295302
 33
0.0
  0
SOLID
  5
3AB
  8
COTATION
 10
476.9585677641
 20
304.0145295302
 30
0.0
 11
473.1485677641
 21
304.5860295302
 31
0.0
 12
473.1485677641
 22
303.4430295302
 32
0.0
 13
473.1485677641
 23
303.4430295302
 33
0.0
  0
LINE
  5
3AC
  8
COTATION
 10
242.8585677641
 20
315.0145295302
 30
0.0
 11
242.8585677641
 21
303.0145295302
 31
0.0
  0
LINE
  5
3AD
  8
COTATION
 10
476.9585677641
 20
315.0145295302
 30
0.0
 11
476.9585677641
 21
303.0145295302
 31
0.0
  0
LINE
  5
3AE
  8
COTATION
 10
242.8585677641
 20
304.0145295302
 30
0.0
 11
476.9585677641
 21
304.0145295302
 31
0.0
  0
TEXT
  5
3AF
  8
COTATION
 10
340.6241238343
 20
305.1449615537
 30
28.2950071187
 40
3.2
  1
234
 41
0.7
 11
340.6241238343
 21
304.0145293556
 31
28.2950071187
 73
     1
  0
TEXT
  5
3B0
  8
COTATION
 10
350.3174577135
 20
305.1449615537
 30
28.2950071187
 40
3.2
  1
 (RETROFIT A8)
 41
0.65
 11
350.3174577135
 21
304.0145293556
 31
28.2950071187
 73
     1
  0
ENDBLK
  5
3A9
  8
0
  0
BLOCK
  8
0
  2
_D_7
 70
     0
 10
0.0
 20
0.0
 30
0.0
  3
_D_7
  1

  0
SOLID
  5
3B6
  8
COTATION
 10
234.8585677641
 20
289.0094065024
 30
0.0
 11
238.6685677641
 21
288.4379065024
 31
0.0
 12
238.6685677641
 22
289.5809065024
 32
0.0
 13
238.6685677641
 23
289.5809065024
 33
0.0
  0
SOLID
  5
3B7
  8
COTATION
 10
476.9585677641
 20
289.0094065024
 30
0.0
 11
473.1485677641
 21
289.5809065024
 31
0.0
 12
473.1485677641
 22
288.4379065024
 32
0.0
 13
473.1485677641
 23
288.4379065024
 33
0.0
  0
LINE
  5
3B8
  8
COTATION
 10
234.8585677641
 20
315.0145295302
 30
0.0
 11
234.8585677641
 21
288.0094065024
 31
0.0
  0
LINE
  5
3B9
  8
COTATION
 10
476.9585677641
 20
315.0145295302
 30
0.0
 11
476.9585677641
 21
288.0094065024
 31
0.0
  0
LINE
  5
3BA
  8
COTATION
 10
234.8585677641
 20
289.0094065024
 30
0.0
 11
476.9585677641
 21
289.0094065024
 31
0.0
  0
TEXT
  5
3BB
  8
COTATION
 10
348.6141229312
 20
290.1398385259
 30
28.2950071187
 40
3.2
  1
242
 41
0.7
 11
348.6141229312
 21
289.0094063278
 31
28.2950071187
 73
     1
  0
TEXT
  5
3BC
  8
COTATION
 10
358.3074568103
 20
290.1398385259
 30
28.2950071187
 40
3.2
  1
 
 41
0.7
 11
358.3074568103
 21
289.0094063278
 31
28.2950071187
 73
     1
  0
TEXT
  5
3BD
  8
COTATION
 10
359.4896786178
 20
293.1461190817
 30
28.2950071187
 40
2.4
  1
+
 41
0.7
 11
359.4896786178
 21
292.2982949331
 31
28.2950071187
 73
     1
  0
TEXT
  5
3BE
  8
COTATION
 10
359.9280119322
 20
290.0427857892
 30
28.2950071187
 40
2.4
  1
-
 41
0.7
 11
359.9280119322
 21
289.1949616405
 31
28.2950071187
 73
     1
  0
TEXT
  5
3BF
  8
COTATION
 10
361.4296784888
 20
293.1461190817
 30
28.2950071187
 40
2.4
  1
7
 41
0.7
 11
361.4296784888
 21
292.2982949331
 31
28.2950071187
 73
     1
  0
TEXT
  5
3C0
  8
COTATION
 10
361.4296784888
 20
290.0427857892
 30
28.2950071187
 40
2.4
  1
8
 41
0.7
 11
361.4296784888
 21
289.1949616405
 31
28.2950071187
 73
     1
  0
ENDBLK
  5
3B5
  8
0
  0
BLOCK
  8
0
  2
_D_8
 70
     0
 10
0.0
 20
0.0
 30
0.0
  3
_D_8
  1

  0
SOLID
  5
3C5
  8
COTATION
 10
499.0641006505
 20
323.6145295302
 30
0.0
 11
499.6356006505
 21
327.4245295302
 31
0.0
 12
498.4926006505
 22
327.4245295302
 32
0.0
 13
498.4926006505
 23
327.4245295302
 33
0.0
  0
SOLID
  5
3C6
  8
COTATION
 10
499.0641006505
 20
363.7645400568
 30
0.0
 11
498.4926006505
 21
359.9545400568
 31
0.0
 12
499.6356006505
 22
359.9545400568
 32
0.0
 13
499.6356006505
 23
359.9545400568
 33
0.0
  0
LINE
  5
3C7
  8
COTATION
 10
487.926337539
 20
323.6145295302
 30
0.0
 11
500.0641006505
 21
323.6145295302
 31
0.0
  0
LINE
  5
3C8
  8
COTATION
 10
484.7635295599
 20
363.7645400568
 30
0.0
 11
500.0641006505
 21
363.7645400568
 31
0.0
  0
LINE
  5
3C9
  8
COTATION
 10
499.0641006505
 20
323.6145295302
 30
0.0
 11
499.0641006505
 21
363.7645400568
 31
0.0
  0
TEXT
  5
3CA
  8
COTATION
 10
497.933668627
 20
338.2517569502
 30
28.2950071187
 40
3.2
  1
40,2
 50
90.0
 41
0.7
 11
499.0641008251
 21
338.2517569502
 31
28.2950071187
 73
     1
  0
ENDBLK
  5
3C4
  8
0
  0
ENDSEC
  0
SECTION
  2
ENTITIES
  0
LINE
  5
58
  8
0
  6
CONTINUOUS
 62
     7
 10
293.5906613835
 20
10.8093412992
 30
0.0
 11
293.5906613835
 21
4.8093412992
 31
0.0
  0
LINE
  5
59
  8
SLD-0
 62
     9
 10
500.1426088032
 20
20.8499946885
 30
0.0
 11
500.1426088032
 21
10.8093412992
 31
0.0
  0
LINE
  5
5A
  8
LOGO1
 10
403.5338770577
 20
35.1649944438
 30
0.0
 11
407.8678555933
 21
35.1675367056
 31
0.0
  0
LINE
  5
5B
  8
LOGO2
 10
424.2584258818
 20
33.8043571944
 30
0.0
 11
420.6387664774
 21
25.3734542276
 31
0.0
  0
LINE
  5
5C
  8
LOGO1
 10
402.3860359355
 20
34.0162482557
 30
0.0
 11
402.3870279236
 21
29.095546115
 31
0.0
  0
LINE
  5
5D
  8
LOGO1
 10
404.8868857113
 20
33.3065980925
 30
0.0
 11
404.8868857113
 21
29.0957980943
 31
0.0
  0
LINE
  5
5E
  8
LOGO1
 10
406.8916179699
 20
33.3065980925
 30
0.0
 11
404.8868857113
 21
33.3065980925
 31
0.0
  0
LINE
  5
5F
  8
LOGO1
 10
407.5452377717
 20
25.4012555216
 30
0.0
 11
402.3733605461
 21
25.4012555216
 31
0.0
  0
LINE
  5
60
  8
LOGO1
 10
402.3733605461
 20
24.6702258189
 30
0.0
 11
402.3733605461
 21
25.4012555216
 31
0.0
  0
LINE
  5
61
  8
LOGO1
 62
   228
 10
408.3875585634
 20
30.4564436382
 30
0.0
 11
408.3875585634
 21
30.450471361
 31
0.0
  0
LINE
  5
62
  8
LOGO1
 62
   228
 10
403.5225799104
 20
23.521711184
 30
0.0
 11
407.6413684647
 21
23.5242377006
 31
0.0
  0
LINE
  5
63
  8
LOGO1
 10
412.5822793537
 20
27.1101307684
 30
0.0
 11
412.5937645022
 21
26.8264476002
 31
0.0
  0
LINE
  5
64
  8
LOGO1
 62
   228
 10
415.7691783622
 20
30.5151327471
 30
0.0
 11
415.7619427187
 21
33.2806416568
 31
0.0
  0
LINE
  5
65
  8
LOGO1
 62
   228
 10
415.7619427187
 20
33.2806416568
 30
0.0
 11
420.3192496444
 21
33.2806416568
 31
0.0
  0
LINE
  5
66
  8
LOGO1
 10
426.6990199416
 20
27.9947169066
 30
0.0
 11
427.2267625158
 21
27.9947169066
 31
0.0
  0
LINE
  5
67
  8
LOGO1
 62
   228
 10
420.3194523383
 20
35.1675374763
 30
0.0
 11
414.4198053121
 21
35.1688049786
 31
0.0
  0
LINE
  5
68
  8
LOGO1
 10
413.2710437098
 20
24.6678139377
 30
0.0
 11
413.2710437098
 21
34.0202901541
 31
0.0
  0
LINE
  5
69
  8
LOGO1
 62
   228
 10
431.7500553377
 20
25.1297184686
 30
0.0
 11
427.8713090486
 21
33.9360918478
 31
0.0
  0
LINE
  5
6A
  8
LOGO1
 62
   228
 10
427.5713169711
 20
27.6501624513
 30
0.0
 11
427.5713169711
 21
26.5040594815
 31
0.0
  0
LINE
  5
6B
  8
LOGO1
 62
   228
 10
427.5713169711
 20
26.5040594815
 30
0.0
 11
428.2673169708
 21
26.5040594815
 31
0.0
  0
LINE
  5
6C
  8
LOGO1
 62
   228
 10
428.6118714261
 20
26.1595050262
 30
0.0
 11
428.6118714261
 21
25.0122535415
 31
0.0
  0
LINE
  5
6D
  8
LOGO1
 62
   228
 10
428.6118714261
 20
25.0122535415
 30
0.0
 11
429.1605169704
 21
25.0122535415
 31
0.0
  0
LINE
  5
6E
  8
LOGO1
 62
   228
 10
429.5050714257
 20
24.6676990862
 30
0.0
 11
429.5050714257
 21
23.5182581888
 31
0.0
  0
LINE
  5
6F
  8
LOGO1
 62
   228
 10
429.5050714257
 20
23.5182581888
 30
0.0
 11
430.6989759435
 21
23.5182581888
 31
0.0
  0
LINE
  5
70
  8
PV
  6
CONTINUOUS
 62
     7
 10
584.5906613835
 20
10.8093412992
 30
0.0
 11
584.5906613835
 21
408.8093412992
 31
0.0
  0
LINE
  5
71
  8
PV
  6
CONTINUOUS
 62
     7
 10
12.5906613835
 20
10.8093412992
 30
0.0
 11
584.5906613835
 21
10.8093412992
 31
0.0
  0
LINE
  5
72
  8
LOGO1
 10
415.7691783622
 20
30.5151327471
 30
0.0
 11
417.4708345742
 21
30.5142152268
 31
0.0
  0
LINE
  5
73
  8
PV
  6
CONTINUOUS
 62
     7
 10
441.5906613835
 20
10.8093412992
 30
0.0
 11
441.5906613835
 21
4.8093412992
 31
0.0
  0
LINE
  5
74
  8
PV
  6
CONTINUOUS
 62
     7
 10
14.5240612644
 20
301.8093412992
 30
0.0
 11
6.5240612644
 21
301.8093412992
 31
0.0
  0
LINE
  5
75
  8
PV
  6
CONTINUOUS
 62
     7
 10
6.5240612644
 20
301.8093412992
 30
0.0
 11
13.5240612644
 21
299.8093412992
 31
0.0
  0
LINE
  5
76
  8
PV
  6
CONTINUOUS
 62
     7
 10
515.5906613835
 20
10.8093412992
 30
0.0
 11
515.5906613835
 21
4.8093412992
 31
0.0
  0
LINE
  5
77
  8
PV
  6
CONTINUOUS
 62
     7
 10
6.5240612644
 20
301.8093412992
 30
0.0
 11
13.5240612644
 21
302.8093412992
 31
0.0
  0
LINE
  5
78
  8
PV
  6
CONTINUOUS
 62
     7
 10
13.5240612644
 20
302.8093412992
 30
0.0
 11
13.5240612644
 21
299.8093412992
 31
0.0
  0
LINE
  5
79
  8
PV
  6
CONTINUOUS
 62
     7
 10
12.5906613835
 20
408.8093412992
 30
0.0
 11
584.5906613835
 21
408.8093412992
 31
0.0
  0
LINE
  5
7A
  8
PV
  6
CONTINUOUS
 62
     7
 10
590.734339184
 20
414.8955730658
 30
0.0
 11
590.734339184
 21
408.8955730658
 31
0.0
  0
LINE
  5
7B
  8
PV
  6
CONTINUOUS
 62
     7
 10
6.5240612644
 20
4.8093412992
 30
0.0
 11
12.5240612644
 21
4.8093412992
 31
0.0
  0
LINE
  5
7C
  8
PV
  6
CONTINUOUS
 62
     7
 10
378.5906613835
 20
11.8093412992
 30
0.0
 11
381.5906613835
 21
11.8093412992
 31
0.0
  0
LINE
  5
7D
  8
PV
  6
CONTINUOUS
 62
     7
 10
6.6677390649
 20
414.8955730658
 30
0.0
 11
6.6677390649
 21
408.8955730658
 31
0.0
  0
LINE
  5
7E
  8
PV
  6
CONTINUOUS
 62
     7
 10
380.5906613835
 20
4.8093412992
 30
0.0
 11
381.5906613835
 21
11.8093412992
 31
0.0
  0
LINE
  5
7F
  8
PV
  6
CONTINUOUS
 62
     7
 10
380.5906613835
 20
12.8093412992
 30
0.0
 11
380.5906613835
 21
4.8093412992
 31
0.0
  0
LINE
  5
80
  8
PV
  6
CONTINUOUS
 62
     7
 10
380.5906613835
 20
4.8093412992
 30
0.0
 11
378.5906613835
 21
11.8093412992
 31
0.0
  0
LINE
  5
81
  8
PV
  6
CONTINUOUS
 62
     7
 10
6.5240612644
 20
10.8093412992
 30
0.0
 11
6.5240612644
 21
4.8093412992
 31
0.0
  0
LINE
  5
82
  8
PV
  6
CONTINUOUS
 62
     7
 10
12.5906613835
 20
408.8093412992
 30
0.0
 11
12.5906613835
 21
10.8093412992
 31
0.0
  0
LINE
  5
83
  8
PV
  6
CONTINUOUS
 62
     7
 10
584.734339184
 20
414.8955730658
 30
0.0
 11
590.734339184
 21
414.8955730658
 31
0.0
  0
LINE
  5
84
  8
PV
  6
CONTINUOUS
 62
     7
 10
584.5906613835
 20
4.8093412992
 30
0.0
 11
590.5906613835
 21
4.8093412992
 31
0.0
  0
LINE
  5
85
  8
PV
  6
CONTINUOUS
 62
     7
 10
6.5240612644
 20
10.8093412992
 30
0.0
 11
6.5240612644
 21
4.8093412992
 31
0.0
  0
LINE
  5
86
  8
PV
  6
CONTINUOUS
 62
     7
 10
590.5906613835
 20
10.8093412992
 30
0.0
 11
590.5906613835
 21
4.8093412992
 31
0.0
  0
LINE
  5
87
  8
PV
  6
CONTINUOUS
 62
     7
 10
6.6677390649
 20
414.8955730658
 30
0.0
 11
12.6677390649
 21
414.8955730658
 31
0.0
  0
LINE
  5
88
  8
PV
  6
CONTINUOUS
 62
     7
 10
590.5906613835
 20
109.8093412992
 30
0.0
 11
584.5906613835
 21
109.8093412992
 31
0.0
  0
LINE
  5
89
  8
LOGO1
 10
415.7691783607
 20
25.3734542276
 30
0.0
 11
420.6387664774
 21
25.3734542276
 31
0.0
  0
LINE
  5
8A
  8
PV
  6
CONTINUOUS
 62
     7
 10
590.5906613835
 20
161.8093412992
 30
0.0
 11
584.5906613835
 21
161.8093412992
 31
0.0
  0
LINE
  5
8B
  8
PV
  6
CONTINUOUS
 62
     7
 10
590.5906613835
 20
301.8093412992
 30
0.0
 11
584.5906613835
 21
301.8093412992
 31
0.0
  0
LINE
  5
8C
  8
PV
  6
CONTINUOUS
 62
     7
 10
590.5906613835
 20
266.8093412992
 30
0.0
 11
584.5906613835
 21
266.8093412992
 31
0.0
  0
LINE
  5
8D
  8
PV
  6
CONTINUOUS
 62
     7
 10
590.5906613835
 20
319.8093412992
 30
0.0
 11
584.5906613835
 21
319.8093412992
 31
0.0
  0
LINE
  5
8E
  8
PV
  6
CONTINUOUS
 62
     7
 10
590.5906613835
 20
371.8093412992
 30
0.0
 11
584.5906613835
 21
371.8093412992
 31
0.0
  0
LINE
  5
8F
  8
LOGO1
 10
415.7691783607
 20
28.5355453154
 30
0.0
 11
417.4703011322
 21
28.5355453154
 31
0.0
  0
LINE
  5
90
  8
PV
  6
CONTINUOUS
 62
     7
 10
367.5906613835
 20
10.8093412992
 30
0.0
 11
367.5906613835
 21
4.8093412992
 31
0.0
  0
LINE
  5
91
  8
PV
  6
CONTINUOUS
 62
     7
 10
219.5906613835
 20
10.8093412992
 30
0.0
 11
219.5906613835
 21
4.8093412992
 31
0.0
  0
LINE
  5
92
  8
PV
  6
CONTINUOUS
 62
     7
 10
144.5906613835
 20
10.8093412992
 30
0.0
 11
144.5906613835
 21
4.8093412992
 31
0.0
  0
LINE
  5
93
  8
LOGO1
 10
415.7691783607
 20
25.3734542276
 30
0.0
 11
415.7691783607
 21
28.5355453154
 31
0.0
  0
LINE
  5
94
  8
SLD-0
 10
549.3382196402
 20
16.8499946885
 30
0.0
 11
584.5906613835
 21
16.8499946885
 31
0.0
  0
LINE
  5
95
  8
PV
  6
CONTINUOUS
 62
     7
 10
70.5906613835
 20
10.8093412992
 30
0.0
 11
70.5906613835
 21
4.8093412992
 31
0.0
  0
LINE
  5
96
  8
LOGO1
 10
426.6990199416
 20
27.9947169066
 30
0.0
 11
426.6990199416
 21
32.6189822514
 31
0.0
  0
LINE
  5
97
  8
LOGO1
 10
425.5637130114
 20
27.9947169066
 30
0.0
 11
425.5637130114
 21
32.6189822514
 31
0.0
  0
LINE
  5
98
  8
LOGO1
 10
424.6914159822
 20
26.5040594815
 30
0.0
 11
424.6914159822
 21
27.6501624513
 31
0.0
  0
LINE
  5
99
  8
LOGO1
 10
423.6509763787
 20
25.0122535415
 30
0.0
 11
423.6509763787
 21
26.1595050262
 31
0.0
  0
LINE
  5
9A
  8
PV
  6
CONTINUOUS
 62
     7
 10
515.734339184
 20
414.8955730658
 30
0.0
 11
515.734339184
 21
408.8955730658
 31
0.0
  0
LINE
  5
9B
  8
PV
  6
CONTINUOUS
 62
     7
 10
441.734339184
 20
414.8955730658
 30
0.0
 11
441.734339184
 21
408.8955730658
 31
0.0
  0
LINE
  5
9C
  8
PV
  6
CONTINUOUS
 62
     7
 10
70.734339184
 20
414.8955730658
 30
0.0
 11
70.734339184
 21
408.8955730658
 31
0.0
  0
LINE
  5
9D
  8
PV
  6
CONTINUOUS
 62
     7
 10
144.734339184
 20
414.8955730658
 30
0.0
 11
144.734339184
 21
408.8955730658
 31
0.0
  0
LINE
  5
9E
  8
PV
  6
CONTINUOUS
 62
     7
 10
219.734339184
 20
414.8955730658
 30
0.0
 11
219.734339184
 21
408.8955730658
 31
0.0
  0
LINE
  5
9F
  8
PV
  6
CONTINUOUS
 62
     7
 10
293.734339184
 20
414.8955730658
 30
0.0
 11
293.734339184
 21
408.8955730658
 31
0.0
  0
LINE
  5
A0
  8
PV
  6
CONTINUOUS
 62
     7
 10
367.734339184
 20
414.8955730658
 30
0.0
 11
367.734339184
 21
408.8955730658
 31
0.0
  0
LINE
  5
A1
  8
PV
  6
CONTINUOUS
 62
     7
 10
12.5240612644
 20
56.8093412992
 30
0.0
 11
6.5240612644
 21
56.8093412992
 31
0.0
  0
LINE
  5
A2
  8
PV
  6
CONTINUOUS
 62
     7
 10
12.5240612644
 20
371.8093412992
 30
0.0
 11
6.5240612644
 21
371.8093412992
 31
0.0
  0
LINE
  5
A3
  8
PV
  6
CONTINUOUS
 62
     7
 10
12.5240612644
 20
319.8093412992
 30
0.0
 11
6.5240612644
 21
319.8093412992
 31
0.0
  0
LINE
  5
A4
  8
PV
  6
CONTINUOUS
 62
     7
 10
12.5240612644
 20
266.8093412992
 30
0.0
 11
6.5240612644
 21
266.8093412992
 31
0.0
  0
LINE
  5
A5
  8
PV
  6
CONTINUOUS
 62
     7
 10
12.5240612644
 20
301.8093412992
 30
0.0
 11
6.5240612644
 21
301.8093412992
 31
0.0
  0
LINE
  5
A6
  8
PV
  6
CONTINUOUS
 62
     7
 10
12.5240612644
 20
161.8093412992
 30
0.0
 11
6.5240612644
 21
161.8093412992
 31
0.0
  0
LINE
  5
A7
  8
PV
  6
CONTINUOUS
 62
     7
 10
12.5240612644
 20
109.8093412992
 30
0.0
 11
6.5240612644
 21
109.8093412992
 31
0.0
  0
LINE
  5
A8
  8
PV
  6
CONTINUOUS
 62
     7
 10
9.5240612644
 20
301.8093412992
 30
0.0
 11
12.5240612644
 21
301.8093412992
 31
0.0
  0
LINE
  5
A9
  8
PV
  6
CONTINUOUS
 62
     7
 10
168.5906613835
 20
11.8093412992
 30
0.0
 11
171.5906613835
 21
11.8093412992
 31
0.0
  0
LINE
  5
AA
  8
PV
  6
CONTINUOUS
 62
     7
 10
170.5906613835
 20
4.8093412992
 30
0.0
 11
171.5906613835
 21
11.8093412992
 31
0.0
  0
LINE
  5
AB
  8
PV
  6
CONTINUOUS
 62
     7
 10
170.5906613835
 20
12.8093412992
 30
0.0
 11
170.5906613835
 21
4.8093412992
 31
0.0
  0
LINE
  5
AC
  8
PV
  6
CONTINUOUS
 62
     7
 10
170.5906613835
 20
4.8093412992
 30
0.0
 11
168.5906613835
 21
11.8093412992
 31
0.0
  0
LINE
  5
AD
  8
PV
  6
CONTINUOUS
 62
     7
 10
378.734339184
 20
407.8955730658
 30
0.0
 11
381.734339184
 21
407.8955730658
 31
0.0
  0
LINE
  5
AE
  8
PV
  6
CONTINUOUS
 62
     7
 10
380.734339184
 20
414.8955730658
 30
0.0
 11
381.734339184
 21
407.8955730658
 31
0.0
  0
LINE
  5
AF
  8
PV
  6
CONTINUOUS
 62
     7
 10
380.734339184
 20
405.8955730658
 30
0.0
 11
380.734339184
 21
414.8955730658
 31
0.0
  0
LINE
  5
B0
  8
PV
  6
CONTINUOUS
 62
     7
 10
380.734339184
 20
414.8955730658
 30
0.0
 11
378.734339184
 21
407.8955730658
 31
0.0
  0
LINE
  5
B1
  8
PV
  6
CONTINUOUS
 62
     7
 10
168.734339184
 20
407.8955730658
 30
0.0
 11
171.734339184
 21
407.8955730658
 31
0.0
  0
LINE
  5
B2
  8
PV
  6
CONTINUOUS
 62
     7
 10
170.734339184
 20
414.8955730658
 30
0.0
 11
171.734339184
 21
407.8955730658
 31
0.0
  0
LINE
  5
B3
  8
PV
  6
CONTINUOUS
 62
     7
 10
170.734339184
 20
405.8955730658
 30
0.0
 11
170.734339184
 21
414.8955730658
 31
0.0
  0
LINE
  5
B4
  8
PV
  6
CONTINUOUS
 62
     7
 10
170.734339184
 20
414.8955730658
 30
0.0
 11
168.734339184
 21
407.8955730658
 31
0.0
  0
LINE
  5
B5
  8
PV
  6
CONTINUOUS
 62
     7
 10
583.5906613835
 20
302.8093412992
 30
0.0
 11
583.5906613835
 21
299.8093412992
 31
0.0
  0
LINE
  5
B6
  8
PV
  6
CONTINUOUS
 62
     7
 10
590.5906613835
 20
301.8093412992
 30
0.0
 11
583.5906613835
 21
302.8093412992
 31
0.0
  0
LINE
  5
B7
  8
PV
  6
CONTINUOUS
 62
     7
 10
590.5906613835
 20
301.8093412992
 30
0.0
 11
583.5906613835
 21
299.8093412992
 31
0.0
  0
LINE
  5
B8
  8
PV
  6
CONTINUOUS
 62
     7
 10
581.5906613835
 20
301.8093412992
 30
0.0
 11
590.5906613835
 21
301.8093412992
 31
0.0
  0
LINE
  5
B9
  8
PV
  6
CONTINUOUS
 62
     7
 10
584.5906613835
 20
301.8093412992
 30
0.0
 11
590.5906613835
 21
301.8093412992
 31
0.0
  0
LINE
  5
BA
  8
SLD-0
 62
     9
 10
529.3382196402
 20
10.8093412992
 30
0.0
 11
529.3382196402
 21
20.8499946885
 31
0.0
  0
LINE
  5
BB
  8
SLD-0
 62
     9
 10
514.7426088032
 20
20.8499946885
 30
0.0
 11
514.7426088032
 21
10.8093412992
 31
0.0
  0
LINE
  5
BC
  8
0
  6
CONTINUOUS
 62
     9
 10
396.5906613835
 20
74.8499946885
 30
0.0
 11
584.5906613835
 21
74.8499946885
 31
0.0
  0
LINE
  5
BD
  8
SLD-0
 10
549.3382196402
 20
28.8499946885
 30
0.0
 11
584.5906613835
 21
28.8499946885
 31
0.0
  0
LINE
  5
BE
  8
PV
 62
     9
 10
396.5906613835
 20
69.8499946885
 30
0.0
 11
396.5906613835
 21
74.8499946885
 31
0.0
  0
LINE
  5
BF
  8
LOGO1
 10
422.7574318246
 20
23.5192990867
 30
0.0
 11
422.7574318246
 21
24.6676990862
 31
0.0
  0
LINE
  5
C0
  8
SLD-0
 62
     9
 10
549.3382196402
 20
24.8499946885
 30
0.0
 11
584.5906613835
 21
24.8499946885
 31
0.0
  0
LINE
  5
C1
  8
SLD-0
 62
     9
 10
529.3382196402
 20
17.4545662738
 30
0.0
 11
437.3382196402
 21
17.4545662738
 31
0.0
  0
LINE
  5
C2
  8
PV
 10
437.3382196402
 20
20.8499946885
 30
0.0
 11
549.3382196402
 21
20.8499946885
 31
0.0
  0
LINE
  5
C3
  8
PV
 10
549.3382196402
 20
10.8093412992
 30
0.0
 11
549.3382196402
 21
36.8499946885
 31
0.0
  0
LINE
  5
C4
  8
PV
 10
437.3382196402
 20
10.8093412992
 30
0.0
 11
437.3382196402
 21
36.8499946885
 31
0.0
  0
LINE
  5
C5
  8
PV
 62
     9
 10
437.3382196402
 20
24.8499946885
 30
0.0
 11
549.3382196402
 21
24.8499946885
 31
0.0
  0
LINE
  5
C6
  8
PV
 62
     9
 10
437.3382196402
 20
28.8499946885
 30
0.0
 11
549.3382196402
 21
28.8499946885
 31
0.0
  0
LINE
  5
C7
  8
PV
 62
     9
 10
564.2962645591
 20
16.8499946885
 30
0.0
 11
564.2962645591
 21
28.8499946885
 31
0.0
  0
LINE
  5
C8
  8
PV
 62
     9
 10
437.3382196402
 20
32.8499946885
 30
0.0
 11
584.5906613835
 21
32.8499946885
 31
0.0
  0
LINE
  5
C9
  8
PV
 62
     9
 10
491.5798242983
 20
24.8499946885
 30
0.0
 11
491.5798242983
 21
20.8499946885
 31
0.0
  0
LINE
  5
CA
  8
PV
 10
396.5906613835
 20
36.8499946885
 30
0.0
 11
584.5906613835
 21
36.8499946885
 31
0.0
  0
LINE
  5
CB
  8
PV
 62
     9
 10
396.5906613835
 20
40.8499946885
 30
0.0
 11
584.5906613835
 21
40.8499946885
 31
0.0
  0
LINE
  5
CC
  8
PV
 62
     9
 10
396.5906613835
 20
44.8499946885
 30
0.0
 11
584.5906613835
 21
44.8499946885
 31
0.0
  0
LINE
  5
CD
  8
PV
 62
     9
 10
396.5906613835
 20
48.8499946885
 30
0.0
 11
584.5906613835
 21
48.8499946885
 31
0.0
  0
LINE
  5
CE
  8
PV
 62
     9
 10
396.5906613835
 20
52.8499946885
 30
0.0
 11
584.5906613835
 21
52.8499946885
 31
0.0
  0
LINE
  5
CF
  8
PV
 62
     9
 10
396.5906613835
 20
56.8499946885
 30
0.0
 11
584.5906613835
 21
56.8499946885
 31
0.0
  0
LINE
  5
D0
  8
PV
 62
     9
 10
396.5906613835
 20
60.8499946885
 30
0.0
 11
584.5906613835
 21
60.8499946885
 31
0.0
  0
LINE
  5
D1
  8
PV
 10
396.5906613835
 20
69.8499946885
 30
0.0
 11
396.5906613835
 21
10.8297420728
 31
0.0
  0
LINE
  5
D2
  8
PV
 10
396.5906613835
 20
65.3499946885
 30
0.0
 11
584.5906613835
 21
65.3499946885
 31
0.0
  0
LINE
  5
D3
  8
PV
 10
396.5906613835
 20
69.8499946885
 30
0.0
 11
584.5906613835
 21
69.8499946885
 31
0.0
  0
LINE
  5
D4
  8
PV
 62
     9
 10
413.2384120988
 20
60.8499946885
 30
0.0
 11
413.2384120988
 21
36.8499946885
 31
0.0
  0
LINE
  5
D5
  8
PV
 62
     9
 10
423.201328272
 20
60.8499946885
 30
0.0
 11
423.201328272
 21
36.8499946885
 31
0.0
  0
LINE
  5
D6
  8
PV
 62
     9
 10
573.2462128811
 20
60.8499946885
 30
0.0
 11
573.2462128811
 21
36.8499946885
 31
0.0
  0
LINE
  5
D7
  8
PV
 62
     9
 10
562.2462128811
 20
60.8499946885
 30
0.0
 11
562.2462128811
 21
36.8499946885
 31
0.0
  0
LINE
  5
D8
  8
LOGO1
 10
414.4195585608
 20
23.5192990867
 30
0.0
 11
422.7574318246
 21
23.5192990867
 31
0.0
  0
LINE
  5
D9
  8
LOGO1
 10
425.0359704375
 20
27.9947169066
 30
0.0
 11
425.5637130114
 21
27.9947169066
 31
0.0
  0
LINE
  5
DA
  8
LOGO1
 10
423.995530834
 20
26.5040594815
 30
0.0
 11
424.6914159822
 21
26.5040594815
 31
0.0
  0
LINE
  5
DB
  8
LOGO1
 10
423.1019862799
 20
25.0122535415
 30
0.0
 11
423.6509763787
 21
25.0122535415
 31
0.0
  0
LINE
  5
DC
  8
LOGO1
 62
   151
 10
426.8455704368
 20
27.8987010651
 30
0.0
 11
426.9010437041
 21
27.9947169066
 31
0.0
  0
ARC
  5
DD
  8
LOGO1
 10
403.6369568048
 20
29.0957980943
 30
0.0
 40
1.249928906540163
 50
180.0115505333
 51
0.0
  0
ARC
  5
DE
  8
LOGO1
 10
429.1605169704
 20
24.6676990862
 30
0.0
 40
0.3445544553000559
 50
0.0
 51
90.0
  0
ARC
  5
DF
  8
LOGO1
 10
428.2673169708
 20
26.1595050262
 30
0.0
 40
0.3445544552999991
 50
0.0
 51
90.0
  0
ARC
  5
E0
  8
LOGO1
 10
427.2267625158
 20
27.6501624513
 30
0.0
 40
0.3445544552999991
 50
0.0
 51
90.0
  0
ARC
  5
E1
  8
LOGO1
 10
425.0359704375
 20
27.6501624513
 30
0.0
 40
0.3445544552999991
 50
90.0
 51
180.0
  0
ARC
  5
E2
  8
LOGO1
 10
423.995530834
 20
26.1595050262
 30
0.0
 40
0.3445544552999991
 50
90.0
 51
180.0
  0
ARC
  5
E3
  8
LOGO1
 10
423.1019862799
 20
24.6676990862
 30
0.0
 40
0.3445544553000559
 50
90.0
 51
180.0
  0
ARC
  5
E4
  8
LOGO1
 10
426.1313664765
 20
32.6189822514
 30
0.0
 40
0.5676534651068437
 50
0.0
 51
180.0
  0
ARC
  5
E5
  8
LOGO1
 10
420.3192496444
 20
34.2240895774
 30
0.0
 40
0.943447920606971
 50
270.0
 51
89.9876903601
  0
ARC
  5
E6
  8
LOGO1
 10
417.4703011322
 20
29.524880343
 30
0.0
 40
0.9893350275721563
 50
270.0
 51
89.969106545
  0
ARC
  5
E7
  8
LOGO1
 10
403.5345507631
 20
34.0164797904
 30
0.0
 40
1.148514851000051
 50
90.0336090389
 51
180.0115505333
  0
ARC
  5
E8
  8
LOGO1
 10
403.5218753971
 20
24.6702258189
 30
0.0
 40
1.148514851000016
 50
180.0
 51
270.0351459459
  0
ARC
  5
E9
  8
LOGO1
 10
414.4195585608
 20
34.0202901541
 30
0.0
 40
1.148514850999997
 50
89.9876903601
 51
180.0
  0
ARC
  5
EA
  8
LOGO1
 10
414.4195585608
 20
24.6678139377
 30
0.0
 40
1.148514850999984
 50
180.0
 51
270.0
  0
ARC
  5
EB
  8
LOGO1
 10
430.6989759435
 20
24.6667730398
 30
0.0
 40
1.148514850999991
 50
270.0
 51
23.7709783333
  0
POLYLINE
  5
EC
  8
LOGO1
 62
   228
 66
     1
 10
0.0
 20
0.0
 30
0.0
  0
VERTEX
  5
493
  8
LOGO1
 62
   228
 10
412.0152575717
 20
28.5484159163
 30
0.0
  0
VERTEX
  5
494
  8
LOGO1
 62
   228
 10
411.963593886
 20
28.6089239806
 30
0.0
  0
VERTEX
  5
495
  8
LOGO1
 62
   228
 10
411.9097285312
 20
28.6681882691
 30
0.0
  0
VERTEX
  5
496
  8
LOGO1
 62
   228
 10
411.853659962
 20
28.7262080341
 30
0.0
  0
VERTEX
  5
497
  8
LOGO1
 62
   228
 10
411.7953866331
 20
28.7829825278
 30
0.0
  0
VERTEX
  5
498
  8
LOGO1
 62
   228
 10
411.7349069992
 20
28.8385110026
 30
0.0
  0
VERTEX
  5
499
  8
LOGO1
 62
   228
 10
411.672219515
 20
28.8927927107
 30
0.0
  0
VERTEX
  5
49A
  8
LOGO1
 62
   228
 10
411.6073226351
 20
28.9458269043
 30
0.0
  0
VERTEX
  5
49B
  8
LOGO1
 62
   228
 10
411.5402148143
 20
28.9976128358
 30
0.0
  0
VERTEX
  5
49C
  8
LOGO1
 62
   228
 10
411.4708945073
 20
29.0481497573
 30
0.0
  0
VERTEX
  5
49D
  8
LOGO1
 62
   228
 10
411.3993601687
 20
29.0974369213
 30
0.0
  0
VERTEX
  5
49E
  8
LOGO1
 62
   228
 10
411.3256102533
 20
29.1454735798
 30
0.0
  0
VERTEX
  5
49F
  8
LOGO1
 62
   228
 10
411.2496432156
 20
29.1922589853
 30
0.0
  0
VERTEX
  5
4A0
  8
LOGO1
 62
   228
 10
411.1714575105
 20
29.23779239
 30
0.0
  0
VERTEX
  5
4A1
  8
LOGO1
 62
   228
 10
411.0910515926
 20
29.282073046
 30
0.0
  0
VERTEX
  5
4A2
  8
LOGO1
 62
   228
 10
411.0084239165
 20
29.3251002059
 30
0.0
  0
VERTEX
  5
4A3
  8
LOGO1
 62
   228
 10
410.9235729371
 20
29.3668731216
 30
0.0
  0
VERTEX
  5
4A4
  8
LOGO1
 62
   228
 10
410.8364971089
 20
29.4073910457
 30
0.0
  0
VERTEX
  5
4A5
  8
LOGO1
 62
   228
 10
410.7471948866
 20
29.4466532302
 30
0.0
  0
VERTEX
  5
4A6
  8
LOGO1
 62
   228
 10
410.655664725
 20
29.4846589276
 30
0.0
  0
VERTEX
  5
4A7
  8
LOGO1
 62
   228
 10
410.5619050788
 20
29.52140739
 30
0.0
  0
VERTEX
  5
4A8
  8
LOGO1
 62
   228
 10
410.4659144025
 20
29.5568978697
 30
0.0
  0
VERTEX
  5
4A9
  8
LOGO1
 62
   228
 10
410.367691151
 20
29.5911296191
 30
0.0
  0
VERTEX
  5
4AA
  8
LOGO1
 62
   228
 10
410.2672337789
 20
29.6241018903
 30
0.0
  0
VERTEX
  5
4AB
  8
LOGO1
 62
   228
 10
410.1645407408
 20
29.6558139356
 30
0.0
  0
SEQEND
  5
BF6
  8
LOGO1
 62
   228
  0
POLYLINE
  5
ED
  8
LOGO1
 62
   228
 66
     1
 10
0.0
 20
0.0
 30
0.0
  0
VERTEX
  5
4AC
  8
LOGO1
 62
   228
 10
410.1645407408
 20
29.6558139356
 30
0.0
  0
VERTEX
  5
4AD
  8
LOGO1
 62
   228
 10
410.3154592146
 20
29.7249054369
 30
0.0
  0
VERTEX
  5
4AE
  8
LOGO1
 62
   228
 10
410.4599533828
 20
29.7972579927
 30
0.0
  0
VERTEX
  5
4AF
  8
LOGO1
 62
   228
 10
410.5980234449
 20
29.8728713535
 30
0.0
  0
VERTEX
  5
4B0
  8
LOGO1
 62
   228
 10
410.7296696002
 20
29.9517452703
 30
0.0
  0
VERTEX
  5
4B1
  8
LOGO1
 62
   228
 10
410.8548920481
 20
30.0338794937
 30
0.0
  0
VERTEX
  5
4B2
  8
LOGO1
 62
   228
 10
410.973690988
 20
30.1192737745
 30
0.0
  0
VERTEX
  5
4B3
  8
LOGO1
 62
   228
 10
411.0860666194
 20
30.2079278635
 30
0.0
  0
VERTEX
  5
4B4
  8
LOGO1
 62
   228
 10
411.1920191416
 20
30.2998415114
 30
0.0
  0
VERTEX
  5
4B5
  8
LOGO1
 62
   228
 10
411.291548754
 20
30.395014469
 30
0.0
  0
VERTEX
  5
4B6
  8
LOGO1
 62
   228
 10
411.384655656
 20
30.493446487
 30
0.0
  0
VERTEX
  5
4B7
  8
LOGO1
 62
   228
 10
411.471340047
 20
30.5951373163
 30
0.0
  0
VERTEX
  5
4B8
  8
LOGO1
 62
   228
 10
411.5516021264
 20
30.7000867074
 30
0.0
  0
VERTEX
  5
4B9
  8
LOGO1
 62
   228
 10
411.6254420936
 20
30.8082944113
 30
0.0
  0
VERTEX
  5
4BA
  8
LOGO1
 62
   228
 10
411.692860148
 20
30.9197601787
 30
0.0
  0
VERTEX
  5
4BB
  8
LOGO1
 62
   228
 10
411.7538564889
 20
31.0344837602
 30
0.0
  0
VERTEX
  5
4BC
  8
LOGO1
 62
   228
 10
411.8084313159
 20
31.1524649067
 30
0.0
  0
VERTEX
  5
4BD
  8
LOGO1
 62
   228
 10
411.8565848282
 20
31.273703369
 30
0.0
  0
VERTEX
  5
4BE
  8
LOGO1
 62
   228
 10
411.8983172253
 20
31.3981988977
 30
0.0
  0
VERTEX
  5
4BF
  8
LOGO1
 62
   228
 10
411.9336287065
 20
31.5259512437
 30
0.0
  0
VERTEX
  5
4C0
  8
LOGO1
 62
   228
 10
411.9625194713
 20
31.6569601577
 30
0.0
  0
VERTEX
  5
4C1
  8
LOGO1
 62
   228
 10
411.984989719
 20
31.7912253905
 30
0.0
  0
VERTEX
  5
4C2
  8
LOGO1
 62
   228
 10
412.0010396491
 20
31.9287466927
 30
0.0
  0
VERTEX
  5
4C3
  8
LOGO1
 62
   228
 10
412.010669461
 20
32.0695238152
 30
0.0
  0
VERTEX
  5
4C4
  8
LOGO1
 62
   228
 10
412.0138793539
 20
32.2135565088
 30
0.0
  0
SEQEND
  5
BF5
  8
LOGO1
 62
   228
  0
POLYLINE
  5
EE
  8
LOGO1
 62
   228
 66
     1
 10
0.0
 20
0.0
 30
0.0
  0
VERTEX
  5
4C5
  8
LOGO1
 62
   228
 10
412.0138793539
 20
32.2135565088
 30
0.0
  0
VERTEX
  5
4C6
  8
LOGO1
 62
   228
 10
412.0135753597
 20
32.2557936575
 30
0.0
  0
VERTEX
  5
4C7
  8
LOGO1
 62
   228
 10
412.0126629119
 20
32.2978592269
 30
0.0
  0
VERTEX
  5
4C8
  8
LOGO1
 62
   228
 10
412.0111413125
 20
32.3397527185
 30
0.0
  0
VERTEX
  5
4C9
  8
LOGO1
 62
   228
 10
412.0090098636
 20
32.3814736338
 30
0.0
  0
VERTEX
  5
4CA
  8
LOGO1
 62
   228
 10
412.0062678675
 20
32.4230214742
 30
0.0
  0
VERTEX
  5
4CB
  8
LOGO1
 62
   228
 10
412.0029146262
 20
32.4643957413
 30
0.0
  0
VERTEX
  5
4CC
  8
LOGO1
 62
   228
 10
411.9989494418
 20
32.5055959367
 30
0.0
  0
VERTEX
  5
4CD
  8
LOGO1
 62
   228
 10
411.9943716165
 20
32.5466215618
 30
0.0
  0
VERTEX
  5
4CE
  8
LOGO1
 62
   228
 10
411.9891804523
 20
32.5874721182
 30
0.0
  0
VERTEX
  5
4CF
  8
LOGO1
 62
   228
 10
411.9833752514
 20
32.6281471072
 30
0.0
  0
VERTEX
  5
4D0
  8
LOGO1
 62
   228
 10
411.976955316
 20
32.6686460306
 30
0.0
  0
VERTEX
  5
4D1
  8
LOGO1
 62
   228
 10
411.969919948
 20
32.7089683898
 30
0.0
  0
VERTEX
  5
4D2
  8
LOGO1
 62
   228
 10
411.9622684497
 20
32.7491136862
 30
0.0
  0
VERTEX
  5
4D3
  8
LOGO1
 62
   228
 10
411.9540001231
 20
32.7890814214
 30
0.0
  0
VERTEX
  5
4D4
  8
LOGO1
 62
   228
 10
411.9451142704
 20
32.828871097
 30
0.0
  0
VERTEX
  5
4D5
  8
LOGO1
 62
   228
 10
411.9356101937
 20
32.8684822144
 30
0.0
  0
VERTEX
  5
4D6
  8
LOGO1
 62
   228
 10
411.9254871951
 20
32.9079142751
 30
0.0
  0
VERTEX
  5
4D7
  8
LOGO1
 62
   228
 10
411.9147445767
 20
32.9471667807
 30
0.0
  0
VERTEX
  5
4D8
  8
LOGO1
 62
   228
 10
411.9033816407
 20
32.9862392327
 30
0.0
  0
VERTEX
  5
4D9
  8
LOGO1
 62
   228
 10
411.8913976891
 20
33.0251311326
 30
0.0
  0
VERTEX
  5
4DA
  8
LOGO1
 62
   228
 10
411.8787920242
 20
33.0638419818
 30
0.0
  0
VERTEX
  5
4DB
  8
LOGO1
 62
   228
 10
411.8655639479
 20
33.102371282
 30
0.0
  0
VERTEX
  5
4DC
  8
LOGO1
 62
   228
 10
411.8517127624
 20
33.1407185345
 30
0.0
  0
VERTEX
  5
4DD
  8
LOGO1
 62
   228
 10
411.8372377698
 20
33.178883241
 30
0.0
  0
SEQEND
  5
BF4
  8
LOGO1
 62
   228
  0
POLYLINE
  5
EF
  8
LOGO1
 62
   228
 66
     1
 10
0.0
 20
0.0
 30
0.0
  0
VERTEX
  5
4DE
  8
LOGO1
 62
   228
 10
411.8372377698
 20
33.178883241
 30
0.0
  0
VERTEX
  5
4DF
  8
LOGO1
 62
   228
 10
411.8222075953
 20
33.2167747765
 30
0.0
  0
VERTEX
  5
4E0
  8
LOGO1
 62
   228
 10
411.8066331723
 20
33.2543894521
 30
0.0
  0
VERTEX
  5
4E1
  8
LOGO1
 62
   228
 10
411.7905134041
 20
33.2917279656
 30
0.0
  0
VERTEX
  5
4E2
  8
LOGO1
 62
   228
 10
411.7738471941
 20
33.3287910151
 30
0.0
  0
VERTEX
  5
4E3
  8
LOGO1
 62
   228
 10
411.7566334456
 20
33.3655792983
 30
0.0
  0
VERTEX
  5
4E4
  8
LOGO1
 62
   228
 10
411.738871062
 20
33.4020935132
 30
0.0
  0
VERTEX
  5
4E5
  8
LOGO1
 62
   228
 10
411.7205589464
 20
33.4383343577
 30
0.0
  0
VERTEX
  5
4E6
  8
LOGO1
 62
   228
 10
411.7016960024
 20
33.4743025295
 30
0.0
  0
VERTEX
  5
4E7
  8
LOGO1
 62
   228
 10
411.6822811331
 20
33.5099987267
 30
0.0
  0
VERTEX
  5
4E8
  8
LOGO1
 62
   228
 10
411.662313242
 20
33.545423647
 30
0.0
  0
VERTEX
  5
4E9
  8
LOGO1
 62
   228
 10
411.6417912324
 20
33.5805779884
 30
0.0
  0
VERTEX
  5
4EA
  8
LOGO1
 62
   228
 10
411.6207140076
 20
33.6154624488
 30
0.0
  0
VERTEX
  5
4EB
  8
LOGO1
 62
   228
 10
411.5990804708
 20
33.650077726
 30
0.0
  0
VERTEX
  5
4EC
  8
LOGO1
 62
   228
 10
411.5768895255
 20
33.6844245179
 30
0.0
  0
VERTEX
  5
4ED
  8
LOGO1
 62
   228
 10
411.554140075
 20
33.7185035224
 30
0.0
  0
VERTEX
  5
4EE
  8
LOGO1
 62
   228
 10
411.5308310226
 20
33.7523154374
 30
0.0
  0
VERTEX
  5
4EF
  8
LOGO1
 62
   228
 10
411.5069612717
 20
33.7858609607
 30
0.0
  0
VERTEX
  5
4F0
  8
LOGO1
 62
   228
 10
411.4825297254
 20
33.8191407903
 30
0.0
  0
VERTEX
  5
4F1
  8
LOGO1
 62
   228
 10
411.4575352873
 20
33.852155624
 30
0.0
  0
VERTEX
  5
4F2
  8
LOGO1
 62
   228
 10
411.4319768606
 20
33.8849061597
 30
0.0
  0
VERTEX
  5
4F3
  8
LOGO1
 62
   228
 10
411.4058533486
 20
33.9173930953
 30
0.0
  0
VERTEX
  5
4F4
  8
LOGO1
 62
   228
 10
411.3791636547
 20
33.9496171287
 30
0.0
  0
VERTEX
  5
4F5
  8
LOGO1
 62
   228
 10
411.3519066822
 20
33.9815789577
 30
0.0
  0
VERTEX
  5
4F6
  8
LOGO1
 62
   228
 10
411.3240813344
 20
34.0132792803
 30
0.0
  0
SEQEND
  5
BF3
  8
LOGO1
 62
   228
  0
POLYLINE
  5
F0
  8
LOGO1
 62
   228
 66
     1
 10
0.0
 20
0.0
 30
0.0
  0
VERTEX
  5
4F7
  8
LOGO1
 62
   228
 10
411.3240813344
 20
34.0132792803
 30
0.0
  0
VERTEX
  5
4F8
  8
LOGO1
 62
   228
 10
411.2958565736
 20
34.0444248778
 30
0.0
  0
VERTEX
  5
4F9
  8
LOGO1
 62
   228
 10
411.2672872086
 20
34.0751236812
 30
0.0
  0
VERTEX
  5
4FA
  8
LOGO1
 62
   228
 10
411.2383731893
 20
34.105375142
 30
0.0
  0
VERTEX
  5
4FB
  8
LOGO1
 62
   228
 10
411.2091144661
 20
34.1351787119
 30
0.0
  0
VERTEX
  5
4FC
  8
LOGO1
 62
   228
 10
411.179510989
 20
34.1645338425
 30
0.0
  0
VERTEX
  5
4FD
  8
LOGO1
 62
   228
 10
411.1495627082
 20
34.1934399857
 30
0.0
  0
VERTEX
  5
4FE
  8
LOGO1
 62
   228
 10
411.1192695739
 20
34.2218965929
 30
0.0
  0
VERTEX
  5
4FF
  8
LOGO1
 62
   228
 10
411.0886315362
 20
34.2499031159
 30
0.0
  0
VERTEX
  5
500
  8
LOGO1
 62
   228
 10
411.0576485452
 20
34.2774590064
 30
0.0
  0
VERTEX
  5
501
  8
LOGO1
 62
   228
 10
411.0263205512
 20
34.3045637159
 30
0.0
  0
VERTEX
  5
502
  8
LOGO1
 62
   228
 10
410.9946475042
 20
34.3312166962
 30
0.0
  0
VERTEX
  5
503
  8
LOGO1
 62
   228
 10
410.9626293544
 20
34.357417399
 30
0.0
  0
VERTEX
  5
504
  8
LOGO1
 62
   228
 10
410.9302660519
 20
34.3831652758
 30
0.0
  0
VERTEX
  5
505
  8
LOGO1
 62
   228
 10
410.897557547
 20
34.4084597784
 30
0.0
  0
VERTEX
  5
506
  8
LOGO1
 62
   228
 10
410.8645037897
 20
34.4333003584
 30
0.0
  0
VERTEX
  5
507
  8
LOGO1
 62
   228
 10
410.8311047303
 20
34.4576864675
 30
0.0
  0
VERTEX
  5
508
  8
LOGO1
 62
   228
 10
410.7973603188
 20
34.4816175573
 30
0.0
  0
VERTEX
  5
509
  8
LOGO1
 62
   228
 10
410.7632705054
 20
34.5050930796
 30
0.0
  0
VERTEX
  5
50A
  8
LOGO1
 62
   228
 10
410.7288352403
 20
34.5281124859
 30
0.0
  0
VERTEX
  5
50B
  8
LOGO1
 62
   228
 10
410.6940544737
 20
34.550675228
 30
0.0
  0
VERTEX
  5
50C
  8
LOGO1
 62
   228
 10
410.6589281555
 20
34.5727807575
 30
0.0
  0
VERTEX
  5
50D
  8
LOGO1
 62
   228
 10
410.6234562362
 20
34.594428526
 30
0.0
  0
VERTEX
  5
50E
  8
LOGO1
 62
   228
 10
410.5876386656
 20
34.6156179853
 30
0.0
  0
VERTEX
  5
50F
  8
LOGO1
 62
   228
 10
410.5514753941
 20
34.636348587
 30
0.0
  0
SEQEND
  5
BF2
  8
LOGO1
 62
   228
  0
POLYLINE
  5
F1
  8
LOGO1
 62
   228
 66
     1
 10
0.0
 20
0.0
 30
0.0
  0
VERTEX
  5
510
  8
LOGO1
 62
   228
 10
410.5514753941
 20
34.636348587
 30
0.0
  0
VERTEX
  5
511
  8
LOGO1
 62
   228
 10
410.5085123066
 20
34.6602866473
 30
0.0
  0
VERTEX
  5
512
  8
LOGO1
 62
   228
 10
410.4651002315
 20
34.6835756772
 30
0.0
  0
VERTEX
  5
513
  8
LOGO1
 62
   228
 10
410.4212376235
 20
34.7062150783
 30
0.0
  0
VERTEX
  5
514
  8
LOGO1
 62
   228
 10
410.3769229373
 20
34.7282042525
 30
0.0
  0
VERTEX
  5
515
  8
LOGO1
 62
   228
 10
410.3321546277
 20
34.7495426016
 30
0.0
  0
VERTEX
  5
516
  8
LOGO1
 62
   228
 10
410.2869311492
 20
34.7702295275
 30
0.0
  0
VERTEX
  5
517
  8
LOGO1
 62
   228
 10
410.2412509566
 20
34.7902644319
 30
0.0
  0
VERTEX
  5
518
  8
LOGO1
 62
   228
 10
410.1951125047
 20
34.8096467167
 30
0.0
  0
VERTEX
  5
519
  8
LOGO1
 62
   228
 10
410.148514248
 20
34.8283757837
 30
0.0
  0
VERTEX
  5
51A
  8
LOGO1
 62
   228
 10
410.1014546412
 20
34.8464510346
 30
0.0
  0
VERTEX
  5
51B
  8
LOGO1
 62
   228
 10
410.0539321391
 20
34.8638718714
 30
0.0
  0
VERTEX
  5
51C
  8
LOGO1
 62
   228
 10
410.0059451964
 20
34.8806376958
 30
0.0
  0
VERTEX
  5
51D
  8
LOGO1
 62
   228
 10
409.9574922676
 20
34.8967479096
 30
0.0
  0
VERTEX
  5
51E
  8
LOGO1
 62
   228
 10
409.9085718076
 20
34.9122019147
 30
0.0
  0
VERTEX
  5
51F
  8
LOGO1
 62
   228
 10
409.859182271
 20
34.9269991128
 30
0.0
  0
VERTEX
  5
520
  8
LOGO1
 62
   228
 10
409.8093221125
 20
34.9411389059
 30
0.0
  0
VERTEX
  5
521
  8
LOGO1
 62
   228
 10
409.7589897867
 20
34.9546206956
 30
0.0
  0
VERTEX
  5
522
  8
LOGO1
 62
   228
 10
409.7081837485
 20
34.9674438839
 30
0.0
  0
VERTEX
  5
523
  8
LOGO1
 62
   228
 10
409.6569024524
 20
34.9796078724
 30
0.0
  0
VERTEX
  5
524
  8
LOGO1
 62
   228
 10
409.6051443531
 20
34.9911120632
 30
0.0
  0
VERTEX
  5
525
  8
LOGO1
 62
   228
 10
409.5529079054
 20
35.0019558578
 30
0.0
  0
VERTEX
  5
526
  8
LOGO1
 62
   228
 10
409.5001915639
 20
35.0121386583
 30
0.0
  0
VERTEX
  5
527
  8
LOGO1
 62
   228
 10
409.4469937834
 20
35.0216598664
 30
0.0
  0
VERTEX
  5
528
  8
LOGO1
 62
   228
 10
409.3933130184
 20
35.0305188838
 30
0.0
  0
SEQEND
  5
BF1
  8
LOGO1
 62
   228
  0
POLYLINE
  5
F2
  8
LOGO1
 62
   228
 66
     1
 10
0.0
 20
0.0
 30
0.0
  0
VERTEX
  5
529
  8
LOGO1
 62
   228
 10
409.3933130184
 20
35.0305188838
 30
0.0
  0
VERTEX
  5
52A
  8
LOGO1
 62
   228
 10
409.3392044018
 20
35.0390313944
 30
0.0
  0
VERTEX
  5
52B
  8
LOGO1
 62
   228
 10
409.2842654547
 20
35.0475220214
 30
0.0
  0
VERTEX
  5
52C
  8
LOGO1
 62
   228
 10
409.2284973238
 20
35.0559605066
 30
0.0
  0
VERTEX
  5
52D
  8
LOGO1
 62
   228
 10
409.1719011556
 20
35.0643165919
 30
0.0
  0
VERTEX
  5
52E
  8
LOGO1
 62
   228
 10
409.1144780966
 20
35.072560019
 30
0.0
  0
VERTEX
  5
52F
  8
LOGO1
 62
   228
 10
409.0562292933
 20
35.0806605298
 30
0.0
  0
VERTEX
  5
530
  8
LOGO1
 62
   228
 10
408.9971558922
 20
35.0885878661
 30
0.0
  0
VERTEX
  5
531
  8
LOGO1
 62
   228
 10
408.9372590399
 20
35.0963117698
 30
0.0
  0
VERTEX
  5
532
  8
LOGO1
 62
   228
 10
408.8765398828
 20
35.1038019825
 30
0.0
  0
VERTEX
  5
533
  8
LOGO1
 62
   228
 10
408.8149995675
 20
35.1110282462
 30
0.0
  0
VERTEX
  5
534
  8
LOGO1
 62
   228
 10
408.7526392405
 20
35.1179603026
 30
0.0
  0
VERTEX
  5
535
  8
LOGO1
 62
   228
 10
408.6894600484
 20
35.1245678937
 30
0.0
  0
VERTEX
  5
536
  8
LOGO1
 62
   228
 10
408.6254631376
 20
35.1308207611
 30
0.0
  0
VERTEX
  5
537
  8
LOGO1
 62
   228
 10
408.5606496547
 20
35.1366886468
 30
0.0
  0
VERTEX
  5
538
  8
LOGO1
 62
   228
 10
408.4950207462
 20
35.1421412925
 30
0.0
  0
VERTEX
  5
539
  8
LOGO1
 62
   228
 10
408.4285775586
 20
35.1471484401
 30
0.0
  0
VERTEX
  5
53A
  8
LOGO1
 62
   228
 10
408.3613212384
 20
35.1516798313
 30
0.0
  0
VERTEX
  5
53B
  8
LOGO1
 62
   228
 10
408.2932529322
 20
35.155705208
 30
0.0
  0
VERTEX
  5
53C
  8
LOGO1
 62
   228
 10
408.2243737865
 20
35.1591943121
 30
0.0
  0
VERTEX
  5
53D
  8
LOGO1
 62
   228
 10
408.1546849478
 20
35.1621168852
 30
0.0
  0
VERTEX
  5
53E
  8
LOGO1
 62
   228
 10
408.0841875626
 20
35.1644426694
 30
0.0
  0
VERTEX
  5
53F
  8
LOGO1
 62
   228
 10
408.0128827774
 20
35.1661414062
 30
0.0
  0
VERTEX
  5
540
  8
LOGO1
 62
   228
 10
407.9407717388
 20
35.1671828377
 30
0.0
  0
VERTEX
  5
541
  8
LOGO1
 62
   228
 10
407.8678555933
 20
35.1675367056
 30
0.0
  0
SEQEND
  5
BF0
  8
LOGO1
 62
   228
  0
POLYLINE
  5
F3
  8
LOGO1
 62
   228
 66
     1
 10
0.0
 20
0.0
 30
0.0
  0
VERTEX
  5
542
  8
LOGO1
 62
   228
 10
406.8916179699
 20
33.3065980925
 30
0.0
  0
VERTEX
  5
543
  8
LOGO1
 62
   228
 10
407.0033868841
 20
33.3064374466
 30
0.0
  0
VERTEX
  5
544
  8
LOGO1
 62
   228
 10
407.1127515438
 20
33.3059158959
 30
0.0
  0
VERTEX
  5
545
  8
LOGO1
 62
   228
 10
407.2197112016
 20
33.3049740207
 30
0.0
  0
VERTEX
  5
546
  8
LOGO1
 62
   228
 10
407.3242651095
 20
33.3035524012
 30
0.0
  0
VERTEX
  5
547
  8
LOGO1
 62
   228
 10
407.4264125199
 20
33.3015916179
 30
0.0
  0
VERTEX
  5
548
  8
LOGO1
 62
   228
 10
407.526152685
 20
33.2990322509
 30
0.0
  0
VERTEX
  5
549
  8
LOGO1
 62
   228
 10
407.6234848572
 20
33.2958148806
 30
0.0
  0
VERTEX
  5
54A
  8
LOGO1
 62
   228
 10
407.7184082886
 20
33.2918800873
 30
0.0
  0
VERTEX
  5
54B
  8
LOGO1
 62
   228
 10
407.8109222316
 20
33.2871684514
 30
0.0
  0
VERTEX
  5
54C
  8
LOGO1
 62
   228
 10
407.9010259384
 20
33.2816205531
 30
0.0
  0
VERTEX
  5
54D
  8
LOGO1
 62
   228
 10
407.9887186614
 20
33.2751769727
 30
0.0
  0
VERTEX
  5
54E
  8
LOGO1
 62
   228
 10
408.0739996526
 20
33.2677782905
 30
0.0
  0
VERTEX
  5
54F
  8
LOGO1
 62
   228
 10
408.1568681645
 20
33.2593650869
 30
0.0
  0
VERTEX
  5
550
  8
LOGO1
 62
   228
 10
408.2373234493
 20
33.2498779422
 30
0.0
  0
VERTEX
  5
551
  8
LOGO1
 62
   228
 10
408.3153647593
 20
33.2392574366
 30
0.0
  0
VERTEX
  5
552
  8
LOGO1
 62
   228
 10
408.3909913467
 20
33.2274441504
 30
0.0
  0
VERTEX
  5
553
  8
LOGO1
 62
   228
 10
408.4642024637
 20
33.2143786641
 30
0.0
  0
VERTEX
  5
554
  8
LOGO1
 62
   228
 10
408.5349973628
 20
33.2000015579
 30
0.0
  0
VERTEX
  5
555
  8
LOGO1
 62
   228
 10
408.6033752961
 20
33.184253412
 30
0.0
  0
VERTEX
  5
556
  8
LOGO1
 62
   228
 10
408.669335516
 20
33.1670748069
 30
0.0
  0
VERTEX
  5
557
  8
LOGO1
 62
   228
 10
408.7328772746
 20
33.1484063227
 30
0.0
  0
VERTEX
  5
558
  8
LOGO1
 62
   228
 10
408.7939998242
 20
33.1281885399
 30
0.0
  0
VERTEX
  5
559
  8
LOGO1
 62
   228
 10
408.8527024172
 20
33.1063620387
 30
0.0
  0
VERTEX
  5
55A
  8
LOGO1
 62
   228
 10
408.9089843057
 20
33.0828673995
 30
0.0
  0
SEQEND
  5
BEF
  8
LOGO1
 62
   228
  0
POLYLINE
  5
F4
  8
LOGO1
 62
   228
 66
     1
 10
0.0
 20
0.0
 30
0.0
  0
VERTEX
  5
55B
  8
LOGO1
 62
   228
 10
408.9089843057
 20
33.0828673995
 30
0.0
  0
VERTEX
  5
55C
  8
LOGO1
 62
   228
 10
408.9629519003
 20
33.0574617592
 30
0.0
  0
VERTEX
  5
55D
  8
LOGO1
 62
   228
 10
409.014625805
 20
33.0299987618
 30
0.0
  0
VERTEX
  5
55E
  8
LOGO1
 62
   228
 10
409.0640057707
 20
33.0004776099
 30
0.0
  0
VERTEX
  5
55F
  8
LOGO1
 62
   228
 10
409.111091548
 20
32.9688975059
 30
0.0
  0
VERTEX
  5
560
  8
LOGO1
 62
   228
 10
409.1558828878
 20
32.9352576521
 30
0.0
  0
VERTEX
  5
561
  8
LOGO1
 62
   228
 10
409.1983795408
 20
32.8995572511
 30
0.0
  0
VERTEX
  5
562
  8
LOGO1
 62
   228
 10
409.2385812577
 20
32.8617955051
 30
0.0
  0
VERTEX
  5
563
  8
LOGO1
 62
   228
 10
409.2764877893
 20
32.8219716167
 30
0.0
  0
VERTEX
  5
564
  8
LOGO1
 62
   228
 10
409.3120988863
 20
32.7800847882
 30
0.0
  0
VERTEX
  5
565
  8
LOGO1
 62
   228
 10
409.3454142996
 20
32.7361342222
 30
0.0
  0
VERTEX
  5
566
  8
LOGO1
 62
   228
 10
409.3764337798
 20
32.6901191209
 30
0.0
  0
VERTEX
  5
567
  8
LOGO1
 62
   228
 10
409.4051570778
 20
32.6420386868
 30
0.0
  0
VERTEX
  5
568
  8
LOGO1
 62
   228
 10
409.4315839442
 20
32.5918921224
 30
0.0
  0
VERTEX
  5
569
  8
LOGO1
 62
   228
 10
409.4557141299
 20
32.53967863
 30
0.0
  0
VERTEX
  5
56A
  8
LOGO1
 62
   228
 10
409.4775473856
 20
32.4853974121
 30
0.0
  0
VERTEX
  5
56B
  8
LOGO1
 62
   228
 10
409.4970834621
 20
32.4290476711
 30
0.0
  0
VERTEX
  5
56C
  8
LOGO1
 62
   228
 10
409.51432211
 20
32.3706286095
 30
0.0
  0
VERTEX
  5
56D
  8
LOGO1
 62
   228
 10
409.5292630802
 20
32.3101394295
 30
0.0
  0
VERTEX
  5
56E
  8
LOGO1
 62
   228
 10
409.5419061235
 20
32.2475793338
 30
0.0
  0
VERTEX
  5
56F
  8
LOGO1
 62
   228
 10
409.5522509905
 20
32.1829475246
 30
0.0
  0
VERTEX
  5
570
  8
LOGO1
 62
   228
 10
409.560297432
 20
32.1162432044
 30
0.0
  0
VERTEX
  5
571
  8
LOGO1
 62
   228
 10
409.5660451988
 20
32.0474655756
 30
0.0
  0
VERTEX
  5
572
  8
LOGO1
 62
   228
 10
409.5694940417
 20
31.9766138407
 30
0.0
  0
VERTEX
  5
573
  8
LOGO1
 62
   228
 10
409.5706437114
 20
31.903687202
 30
0.0
  0
SEQEND
  5
BEE
  8
LOGO1
 62
   228
  0
POLYLINE
  5
F5
  8
LOGO1
 62
   228
 66
     1
 10
0.0
 20
0.0
 30
0.0
  0
VERTEX
  5
574
  8
LOGO1
 62
   228
 10
409.5706437114
 20
31.903687202
 30
0.0
  0
VERTEX
  5
575
  8
LOGO1
 62
   228
 10
409.5702736593
 20
31.8691832952
 30
0.0
  0
VERTEX
  5
576
  8
LOGO1
 62
   228
 10
409.5691644003
 20
31.8349556999
 30
0.0
  0
VERTEX
  5
577
  8
LOGO1
 62
   228
 10
409.5673172804
 20
31.8010043663
 30
0.0
  0
VERTEX
  5
578
  8
LOGO1
 62
   228
 10
409.5647336454
 20
31.7673292446
 30
0.0
  0
VERTEX
  5
579
  8
LOGO1
 62
   228
 10
409.5614148412
 20
31.7339302848
 30
0.0
  0
VERTEX
  5
57A
  8
LOGO1
 62
   228
 10
409.5573622139
 20
31.7008074372
 30
0.0
  0
VERTEX
  5
57B
  8
LOGO1
 62
   228
 10
409.5525771092
 20
31.6679606519
 30
0.0
  0
VERTEX
  5
57C
  8
LOGO1
 62
   228
 10
409.5470608731
 20
31.635389879
 30
0.0
  0
VERTEX
  5
57D
  8
LOGO1
 62
   228
 10
409.5408148516
 20
31.6030950688
 30
0.0
  0
VERTEX
  5
57E
  8
LOGO1
 62
   228
 10
409.5338403904
 20
31.5710761712
 30
0.0
  0
VERTEX
  5
57F
  8
LOGO1
 62
   228
 10
409.5261388357
 20
31.5393331366
 30
0.0
  0
VERTEX
  5
580
  8
LOGO1
 62
   228
 10
409.5177115332
 20
31.507865915
 30
0.0
  0
VERTEX
  5
581
  8
LOGO1
 62
   228
 10
409.5085598289
 20
31.4766744566
 30
0.0
  0
VERTEX
  5
582
  8
LOGO1
 62
   228
 10
409.4986850687
 20
31.4457587116
 30
0.0
  0
VERTEX
  5
583
  8
LOGO1
 62
   228
 10
409.4880885985
 20
31.4151186301
 30
0.0
  0
VERTEX
  5
584
  8
LOGO1
 62
   228
 10
409.4767717642
 20
31.3847541622
 30
0.0
  0
VERTEX
  5
585
  8
LOGO1
 62
   228
 10
409.4647359118
 20
31.3546652582
 30
0.0
  0
VERTEX
  5
586
  8
LOGO1
 62
   228
 10
409.4519823872
 20
31.3248518681
 30
0.0
  0
VERTEX
  5
587
  8
LOGO1
 62
   228
 10
409.4385125362
 20
31.2953139421
 30
0.0
  0
VERTEX
  5
588
  8
LOGO1
 62
   228
 10
409.4243277049
 20
31.2660514303
 30
0.0
  0
VERTEX
  5
589
  8
LOGO1
 62
   228
 10
409.409429239
 20
31.237064283
 30
0.0
  0
VERTEX
  5
58A
  8
LOGO1
 62
   228
 10
409.3938184846
 20
31.2083524503
 30
0.0
  0
VERTEX
  5
58B
  8
LOGO1
 62
   228
 10
409.3774967875
 20
31.1799158822
 30
0.0
  0
VERTEX
  5
58C
  8
LOGO1
 62
   228
 10
409.3604654937
 20
31.151754529
 30
0.0
  0
SEQEND
  5
BED
  8
LOGO1
 62
   228
  0
POLYLINE
  5
F6
  8
LOGO1
 62
   228
 66
     1
 10
0.0
 20
0.0
 30
0.0
  0
VERTEX
  5
58D
  8
LOGO1
 62
   228
 10
409.3604654937
 20
31.151754529
 30
0.0
  0
VERTEX
  5
58E
  8
LOGO1
 62
   228
 10
409.3377084246
 20
31.1129071607
 30
0.0
  0
VERTEX
  5
58F
  8
LOGO1
 62
   228
 10
409.3141155418
 20
31.0751242623
 30
0.0
  0
VERTEX
  5
590
  8
LOGO1
 62
   228
 10
409.2896884903
 20
31.0384055346
 30
0.0
  0
VERTEX
  5
591
  8
LOGO1
 62
   228
 10
409.264428915
 20
31.0027506787
 30
0.0
  0
VERTEX
  5
592
  8
LOGO1
 62
   228
 10
409.2383384611
 20
30.9681593954
 30
0.0
  0
VERTEX
  5
593
  8
LOGO1
 62
   228
 10
409.2114187734
 20
30.9346313856
 30
0.0
  0
VERTEX
  5
594
  8
LOGO1
 62
   228
 10
409.1836714971
 20
30.9021663502
 30
0.0
  0
VERTEX
  5
595
  8
LOGO1
 62
   228
 10
409.155098277
 20
30.8707639901
 30
0.0
  0
VERTEX
  5
596
  8
LOGO1
 62
   228
 10
409.1257007583
 20
30.8404240063
 30
0.0
  0
VERTEX
  5
597
  8
LOGO1
 62
   228
 10
409.0954805859
 20
30.8111460996
 30
0.0
  0
VERTEX
  5
598
  8
LOGO1
 62
   228
 10
409.0644394048
 20
30.7829299709
 30
0.0
  0
VERTEX
  5
599
  8
LOGO1
 62
   228
 10
409.0325788601
 20
30.7557753213
 30
0.0
  0
VERTEX
  5
59A
  8
LOGO1
 62
   228
 10
408.9999005968
 20
30.7296818515
 30
0.0
  0
VERTEX
  5
59B
  8
LOGO1
 62
   228
 10
408.9664062598
 20
30.7046492624
 30
0.0
  0
VERTEX
  5
59C
  8
LOGO1
 62
   228
 10
408.9320974941
 20
30.6806772551
 30
0.0
  0
VERTEX
  5
59D
  8
LOGO1
 62
   228
 10
408.8969759449
 20
30.6577655303
 30
0.0
  0
VERTEX
  5
59E
  8
LOGO1
 62
   228
 10
408.861043257
 20
30.6359137891
 30
0.0
  0
VERTEX
  5
59F
  8
LOGO1
 62
   228
 10
408.8243010756
 20
30.6151217322
 30
0.0
  0
VERTEX
  5
5A0
  8
LOGO1
 62
   228
 10
408.7867510455
 20
30.5953890607
 30
0.0
  0
VERTEX
  5
5A1
  8
LOGO1
 62
   228
 10
408.7483948118
 20
30.5767154754
 30
0.0
  0
VERTEX
  5
5A2
  8
LOGO1
 62
   228
 10
408.7092340196
 20
30.5591006772
 30
0.0
  0
VERTEX
  5
5A3
  8
LOGO1
 62
   228
 10
408.6692703138
 20
30.542544367
 30
0.0
  0
VERTEX
  5
5A4
  8
LOGO1
 62
   228
 10
408.6285053394
 20
30.5270462458
 30
0.0
  0
VERTEX
  5
5A5
  8
LOGO1
 62
   228
 10
408.5869407415
 20
30.5126060144
 30
0.0
  0
SEQEND
  5
BEC
  8
LOGO1
 62
   228
  0
POLYLINE
  5
F7
  8
LOGO1
 62
   228
 66
     1
 10
0.0
 20
0.0
 30
0.0
  0
VERTEX
  5
5A6
  8
LOGO1
 62
   228
 10
408.5869407415
 20
30.5126060144
 30
0.0
  0
VERTEX
  5
5A7
  8
LOGO1
 62
   228
 10
408.5791930351
 20
30.5100469299
 30
0.0
  0
VERTEX
  5
5A8
  8
LOGO1
 62
   228
 10
408.5713973743
 20
30.507509081
 30
0.0
  0
VERTEX
  5
5A9
  8
LOGO1
 62
   228
 10
408.5635536592
 20
30.5049921685
 30
0.0
  0
VERTEX
  5
5AA
  8
LOGO1
 62
   228
 10
408.5556617903
 20
30.5024958934
 30
0.0
  0
VERTEX
  5
5AB
  8
LOGO1
 62
   228
 10
408.5477216678
 20
30.5000199566
 30
0.0
  0
VERTEX
  5
5AC
  8
LOGO1
 62
   228
 10
408.539733192
 20
30.497564059
 30
0.0
  0
VERTEX
  5
5AD
  8
LOGO1
 62
   228
 10
408.5316962633
 20
30.4951279015
 30
0.0
  0
VERTEX
  5
5AE
  8
LOGO1
 62
   228
 10
408.5236107819
 20
30.492711185
 30
0.0
  0
VERTEX
  5
5AF
  8
LOGO1
 62
   228
 10
408.5154766481
 20
30.4903136104
 30
0.0
  0
VERTEX
  5
5B0
  8
LOGO1
 62
   228
 10
408.5072937623
 20
30.4879348786
 30
0.0
  0
VERTEX
  5
5B1
  8
LOGO1
 62
   228
 10
408.4990620247
 20
30.4855746905
 30
0.0
  0
VERTEX
  5
5B2
  8
LOGO1
 62
   228
 10
408.4907813356
 20
30.4832327471
 30
0.0
  0
VERTEX
  5
5B3
  8
LOGO1
 62
   228
 10
408.4824515954
 20
30.4809087493
 30
0.0
  0
VERTEX
  5
5B4
  8
LOGO1
 62
   228
 10
408.4740727043
 20
30.4786023979
 30
0.0
  0
VERTEX
  5
5B5
  8
LOGO1
 62
   228
 10
408.4656445627
 20
30.4763133938
 30
0.0
  0
VERTEX
  5
5B6
  8
LOGO1
 62
   228
 10
408.4571670709
 20
30.474041438
 30
0.0
  0
VERTEX
  5
5B7
  8
LOGO1
 62
   228
 10
408.4486401291
 20
30.4717862314
 30
0.0
  0
VERTEX
  5
5B8
  8
LOGO1
 62
   228
 10
408.4400636376
 20
30.4695474749
 30
0.0
  0
VERTEX
  5
5B9
  8
LOGO1
 62
   228
 10
408.4314374968
 20
30.4673248693
 30
0.0
  0
VERTEX
  5
5BA
  8
LOGO1
 62
   228
 10
408.422761607
 20
30.4651181157
 30
0.0
  0
VERTEX
  5
5BB
  8
LOGO1
 62
   228
 10
408.4140358684
 20
30.4629269148
 30
0.0
  0
VERTEX
  5
5BC
  8
LOGO1
 62
   228
 10
408.4052601814
 20
30.4607509677
 30
0.0
  0
VERTEX
  5
5BD
  8
LOGO1
 62
   228
 10
408.3964344463
 20
30.4585899752
 30
0.0
  0
VERTEX
  5
5BE
  8
LOGO1
 62
   228
 10
408.3875585634
 20
30.4564436382
 30
0.0
  0
SEQEND
  5
BEB
  8
LOGO1
 62
   228
  0
POLYLINE
  5
F8
  8
LOGO1
 62
   228
 66
     1
 10
0.0
 20
0.0
 30
0.0
  0
VERTEX
  5
5BF
  8
LOGO1
 62
   228
 10
408.3875585634
 20
30.450471361
 30
0.0
  0
VERTEX
  5
5C0
  8
LOGO1
 62
   228
 10
408.3405551611
 20
30.4340273434
 30
0.0
  0
VERTEX
  5
5C1
  8
LOGO1
 62
   228
 10
408.294692896
 20
30.4151791214
 30
0.0
  0
VERTEX
  5
5C2
  8
LOGO1
 62
   228
 10
408.2500481365
 20
30.3939989755
 30
0.0
  0
VERTEX
  5
5C3
  8
LOGO1
 62
   228
 10
408.2066972507
 20
30.3705591865
 30
0.0
  0
VERTEX
  5
5C4
  8
LOGO1
 62
   228
 10
408.1647166069
 20
30.344932035
 30
0.0
  0
VERTEX
  5
5C5
  8
LOGO1
 62
   228
 10
408.1241825734
 20
30.3171898017
 30
0.0
  0
VERTEX
  5
5C6
  8
LOGO1
 62
   228
 10
408.0851715184
 20
30.2874047672
 30
0.0
  0
VERTEX
  5
5C7
  8
LOGO1
 62
   228
 10
408.0477598103
 20
30.2556492122
 30
0.0
  0
VERTEX
  5
5C8
  8
LOGO1
 62
   228
 10
408.0120238172
 20
30.2219954174
 30
0.0
  0
VERTEX
  5
5C9
  8
LOGO1
 62
   228
 10
407.9780399075
 20
30.1865156635
 30
0.0
  0
VERTEX
  5
5CA
  8
LOGO1
 62
   228
 10
407.9458844494
 20
30.149282231
 30
0.0
  0
VERTEX
  5
5CB
  8
LOGO1
 62
   228
 10
407.9156338111
 20
30.1103674008
 30
0.0
  0
VERTEX
  5
5CC
  8
LOGO1
 62
   228
 10
407.8873643609
 20
30.0698434533
 30
0.0
  0
VERTEX
  5
5CD
  8
LOGO1
 62
   228
 10
407.8611524672
 20
30.0277826694
 30
0.0
  0
VERTEX
  5
5CE
  8
LOGO1
 62
   228
 10
407.837074498
 20
29.9842573296
 30
0.0
  0
VERTEX
  5
5CF
  8
LOGO1
 62
   228
 10
407.8152068218
 20
29.9393397147
 30
0.0
  0
VERTEX
  5
5D0
  8
LOGO1
 62
   228
 10
407.7956258067
 20
29.8931021053
 30
0.0
  0
VERTEX
  5
5D1
  8
LOGO1
 62
   228
 10
407.7784078211
 20
29.8456167821
 30
0.0
  0
VERTEX
  5
5D2
  8
LOGO1
 62
   228
 10
407.7636292331
 20
29.7969560256
 30
0.0
  0
VERTEX
  5
5D3
  8
LOGO1
 62
   228
 10
407.7513664111
 20
29.7471921167
 30
0.0
  0
VERTEX
  5
5D4
  8
LOGO1
 62
   228
 10
407.7416957233
 20
29.696397336
 30
0.0
  0
VERTEX
  5
5D5
  8
LOGO1
 62
   228
 10
407.734693538
 20
29.644643964
 30
0.0
  0
VERTEX
  5
5D6
  8
LOGO1
 62
   228
 10
407.7304362234
 20
29.5920042816
 30
0.0
  0
VERTEX
  5
5D7
  8
LOGO1
 62
   228
 10
407.7290001478
 20
29.5385505693
 30
0.0
  0
SEQEND
  5
BEA
  8
LOGO1
 62
   228
  0
POLYLINE
  5
F9
  8
LOGO1
 62
   228
 66
     1
 10
0.0
 20
0.0
 30
0.0
  0
VERTEX
  5
5D8
  8
LOGO1
 62
   228
 10
407.7290001478
 20
29.5385505693
 30
0.0
  0
VERTEX
  5
5D9
  8
LOGO1
 62
   228
 10
407.7304362234
 20
29.4851076742
 30
0.0
  0
VERTEX
  5
5DA
  8
LOGO1
 62
   228
 10
407.734693538
 20
29.4324719298
 30
0.0
  0
VERTEX
  5
5DB
  8
LOGO1
 62
   228
 10
407.7416957233
 20
29.3807159159
 30
0.0
  0
VERTEX
  5
5DC
  8
LOGO1
 62
   228
 10
407.7513664111
 20
29.3299122122
 30
0.0
  0
VERTEX
  5
5DD
  8
LOGO1
 62
   228
 10
407.7636292331
 20
29.2801333985
 30
0.0
  0
VERTEX
  5
5DE
  8
LOGO1
 62
   228
 10
407.7784078211
 20
29.2314520546
 30
0.0
  0
VERTEX
  5
5DF
  8
LOGO1
 62
   228
 10
407.7956258067
 20
29.1839407602
 30
0.0
  0
VERTEX
  5
5E0
  8
LOGO1
 62
   228
 10
407.8152068218
 20
29.137672095
 30
0.0
  0
VERTEX
  5
5E1
  8
LOGO1
 62
   228
 10
407.837074498
 20
29.0927186388
 30
0.0
  0
VERTEX
  5
5E2
  8
LOGO1
 62
   228
 10
407.8611524672
 20
29.0491529714
 30
0.0
  0
VERTEX
  5
5E3
  8
LOGO1
 62
   228
 10
407.8873643609
 20
29.0070476726
 30
0.0
  0
VERTEX
  5
5E4
  8
LOGO1
 62
   228
 10
407.9156338111
 20
28.966475322
 30
0.0
  0
VERTEX
  5
5E5
  8
LOGO1
 62
   228
 10
407.9458844494
 20
28.9275084995
 30
0.0
  0
VERTEX
  5
5E6
  8
LOGO1
 62
   228
 10
407.9780399075
 20
28.8902197848
 30
0.0
  0
VERTEX
  5
5E7
  8
LOGO1
 62
   228
 10
408.0120238172
 20
28.8546817577
 30
0.0
  0
VERTEX
  5
5E8
  8
LOGO1
 62
   228
 10
408.0477598103
 20
28.8209669979
 30
0.0
  0
VERTEX
  5
5E9
  8
LOGO1
 62
   228
 10
408.0851715184
 20
28.7891480852
 30
0.0
  0
VERTEX
  5
5EA
  8
LOGO1
 62
   228
 10
408.1241825734
 20
28.7592975993
 30
0.0
  0
VERTEX
  5
5EB
  8
LOGO1
 62
   228
 10
408.1647166069
 20
28.7314881201
 30
0.0
  0
VERTEX
  5
5EC
  8
LOGO1
 62
   228
 10
408.2066972507
 20
28.7057922272
 30
0.0
  0
VERTEX
  5
5ED
  8
LOGO1
 62
   228
 10
408.2500481365
 20
28.6822825004
 30
0.0
  0
VERTEX
  5
5EE
  8
LOGO1
 62
   228
 10
408.294692896
 20
28.6610315194
 30
0.0
  0
VERTEX
  5
5EF
  8
LOGO1
 62
   228
 10
408.3405551611
 20
28.6421118642
 30
0.0
  0
VERTEX
  5
5F0
  8
LOGO1
 62
   228
 10
408.3875585634
 20
28.6255961143
 30
0.0
  0
SEQEND
  5
BE9
  8
LOGO1
 62
   228
  0
POLYLINE
  5
FA
  8
LOGO1
 62
   228
 66
     1
 10
0.0
 20
0.0
 30
0.0
  0
VERTEX
  5
5F1
  8
LOGO1
 62
   228
 10
408.3875585634
 20
28.6255961143
 30
0.0
  0
VERTEX
  5
5F2
  8
LOGO1
 62
   228
 10
408.3922930467
 20
28.6240299169
 30
0.0
  0
VERTEX
  5
5F3
  8
LOGO1
 62
   228
 10
408.3971648134
 20
28.6224323148
 30
0.0
  0
VERTEX
  5
5F4
  8
LOGO1
 62
   228
 10
408.4021738635
 20
28.6208033079
 30
0.0
  0
VERTEX
  5
5F5
  8
LOGO1
 62
   228
 10
408.407320197
 20
28.6191428964
 30
0.0
  0
VERTEX
  5
5F6
  8
LOGO1
 62
   228
 10
408.412603814
 20
28.6174510802
 30
0.0
  0
VERTEX
  5
5F7
  8
LOGO1
 62
   228
 10
408.4180247144
 20
28.6157278593
 30
0.0
  0
VERTEX
  5
5F8
  8
LOGO1
 62
   228
 10
408.4235828981
 20
28.6139732337
 30
0.0
  0
VERTEX
  5
5F9
  8
LOGO1
 62
   228
 10
408.4292783653
 20
28.6121872034
 30
0.0
  0
VERTEX
  5
5FA
  8
LOGO1
 62
   228
 10
408.435111116
 20
28.6103697683
 30
0.0
  0
VERTEX
  5
5FB
  8
LOGO1
 62
   228
 10
408.44108115
 20
28.6085209286
 30
0.0
  0
VERTEX
  5
5FC
  8
LOGO1
 62
   228
 10
408.4471884674
 20
28.6066406842
 30
0.0
  0
VERTEX
  5
5FD
  8
LOGO1
 62
   228
 10
408.4534330683
 20
28.6047290351
 30
0.0
  0
VERTEX
  5
5FE
  8
LOGO1
 62
   228
 10
408.4598149526
 20
28.6027859812
 30
0.0
  0
VERTEX
  5
5FF
  8
LOGO1
 62
   228
 10
408.4663341203
 20
28.6008115227
 30
0.0
  0
VERTEX
  5
600
  8
LOGO1
 62
   228
 10
408.4729905714
 20
28.5988056594
 30
0.0
  0
VERTEX
  5
601
  8
LOGO1
 62
   228
 10
408.4797843059
 20
28.5967683915
 30
0.0
  0
SEQEND
  5
BE8
  8
LOGO1
 62
   228
  0
POLYLINE
  5
FB
  8
LOGO1
 62
   228
 66
     1
 10
0.0
 20
0.0
 30
0.0
  0
VERTEX
  5
602
  8
LOGO1
 62
   228
 10
408.4797843059
 20
28.5967683915
 30
0.0
  0
VERTEX
  5
603
  8
LOGO1
 62
   228
 10
408.5264273185
 20
28.5884383605
 30
0.0
  0
VERTEX
  5
604
  8
LOGO1
 62
   228
 10
408.5724060468
 20
28.5796985231
 30
0.0
  0
VERTEX
  5
605
  8
LOGO1
 62
   228
 10
408.617717799
 20
28.5705470348
 30
0.0
  0
VERTEX
  5
606
  8
LOGO1
 62
   228
 10
408.6623598834
 20
28.5609820512
 30
0.0
  0
VERTEX
  5
607
  8
LOGO1
 62
   228
 10
408.706329608
 20
28.551001728
 30
0.0
  0
VERTEX
  5
608
  8
LOGO1
 62
   228
 10
408.749624281
 20
28.5406042207
 30
0.0
  0
VERTEX
  5
609
  8
LOGO1
 62
   228
 10
408.7922412107
 20
28.529787685
 30
0.0
  0
VERTEX
  5
60A
  8
LOGO1
 62
   228
 10
408.8341777051
 20
28.5185502764
 30
0.0
  0
VERTEX
  5
60B
  8
LOGO1
 62
   228
 10
408.8754310725
 20
28.5068901505
 30
0.0
  0
VERTEX
  5
60C
  8
LOGO1
 62
   228
 10
408.9159986209
 20
28.494805463
 30
0.0
  0
VERTEX
  5
60D
  8
LOGO1
 62
   228
 10
408.9558776586
 20
28.4822943693
 30
0.0
  0
VERTEX
  5
60E
  8
LOGO1
 62
   228
 10
408.9950654938
 20
28.4693550252
 30
0.0
  0
VERTEX
  5
60F
  8
LOGO1
 62
   228
 10
409.0335594346
 20
28.4559855862
 30
0.0
  0
VERTEX
  5
610
  8
LOGO1
 62
   228
 10
409.0713567892
 20
28.4421842079
 30
0.0
  0
VERTEX
  5
611
  8
LOGO1
 62
   228
 10
409.1084548657
 20
28.427949046
 30
0.0
  0
VERTEX
  5
612
  8
LOGO1
 62
   228
 10
409.1448509723
 20
28.4132782559
 30
0.0
  0
VERTEX
  5
613
  8
LOGO1
 62
   228
 10
409.1805424172
 20
28.3981699933
 30
0.0
  0
VERTEX
  5
614
  8
LOGO1
 62
   228
 10
409.2155265086
 20
28.3826224139
 30
0.0
  0
VERTEX
  5
615
  8
LOGO1
 62
   228
 10
409.2498005546
 20
28.3666336731
 30
0.0
  0
VERTEX
  5
616
  8
LOGO1
 62
   228
 10
409.2833618633
 20
28.3502019266
 30
0.0
  0
VERTEX
  5
617
  8
LOGO1
 62
   228
 10
409.3162077431
 20
28.33332533
 30
0.0
  0
VERTEX
  5
618
  8
LOGO1
 62
   228
 10
409.3483355019
 20
28.3160020389
 30
0.0
  0
VERTEX
  5
619
  8
LOGO1
 62
   228
 10
409.3797424481
 20
28.2982302089
 30
0.0
  0
VERTEX
  5
61A
  8
LOGO1
 62
   228
 10
409.4104258897
 20
28.2800079956
 30
0.0
  0
SEQEND
  5
BE7
  8
LOGO1
 62
   228
  0
POLYLINE
  5
FC
  8
LOGO1
 62
   228
 66
     1
 10
0.0
 20
0.0
 30
0.0
  0
VERTEX
  5
61B
  8
LOGO1
 62
   228
 10
409.4104258897
 20
28.2800079956
 30
0.0
  0
VERTEX
  5
61C
  8
LOGO1
 62
   228
 10
409.4637158239
 20
28.2467101291
 30
0.0
  0
VERTEX
  5
61D
  8
LOGO1
 62
   228
 10
409.5147352979
 20
28.2128732482
 30
0.0
  0
VERTEX
  5
61E
  8
LOGO1
 62
   228
 10
409.5634845607
 20
28.1783938171
 30
0.0
  0
VERTEX
  5
61F
  8
LOGO1
 62
   228
 10
409.6099638617
 20
28.1431683
 30
0.0
  0
VERTEX
  5
620
  8
LOGO1
 62
   228
 10
409.6541734501
 20
28.1070931611
 30
0.0
  0
VERTEX
  5
621
  8
LOGO1
 62
   228
 10
409.6961135752
 20
28.0700648645
 30
0.0
  0
VERTEX
  5
622
  8
LOGO1
 62
   228
 10
409.7357844862
 20
28.0319798744
 30
0.0
  0
VERTEX
  5
623
  8
LOGO1
 62
   228
 10
409.7731864322
 20
27.992734655
 30
0.0
  0
VERTEX
  5
624
  8
LOGO1
 62
   228
 10
409.8083196627
 20
27.9522256705
 30
0.0
  0
VERTEX
  5
625
  8
LOGO1
 62
   228
 10
409.8411844268
 20
27.9103493851
 30
0.0
  0
VERTEX
  5
626
  8
LOGO1
 62
   228
 10
409.8717809738
 20
27.8670022629
 30
0.0
  0
VERTEX
  5
627
  8
LOGO1
 62
   228
 10
409.9001095528
 20
27.8220807681
 30
0.0
  0
VERTEX
  5
628
  8
LOGO1
 62
   228
 10
409.9261704133
 20
27.7754813648
 30
0.0
  0
VERTEX
  5
629
  8
LOGO1
 62
   228
 10
409.9499638043
 20
27.7271005174
 30
0.0
  0
VERTEX
  5
62A
  8
LOGO1
 62
   228
 10
409.9714899751
 20
27.6768346898
 30
0.0
  0
VERTEX
  5
62B
  8
LOGO1
 62
   228
 10
409.9907491751
 20
27.6245803464
 30
0.0
  0
VERTEX
  5
62C
  8
LOGO1
 62
   228
 10
410.0077416534
 20
27.5702339513
 30
0.0
  0
VERTEX
  5
62D
  8
LOGO1
 62
   228
 10
410.0224676592
 20
27.5136919687
 30
0.0
  0
VERTEX
  5
62E
  8
LOGO1
 62
   228
 10
410.0349274419
 20
27.4548508627
 30
0.0
  0
VERTEX
  5
62F
  8
LOGO1
 62
   228
 10
410.0451212506
 20
27.3936070975
 30
0.0
  0
VERTEX
  5
630
  8
LOGO1
 62
   228
 10
410.0530493346
 20
27.3298571374
 30
0.0
  0
VERTEX
  5
631
  8
LOGO1
 62
   228
 10
410.0587119432
 20
27.2634974464
 30
0.0
  0
VERTEX
  5
632
  8
LOGO1
 62
   228
 10
410.0621093256
 20
27.1944244888
 30
0.0
  0
VERTEX
  5
633
  8
LOGO1
 62
   228
 10
410.063241731
 20
27.1225347288
 30
0.0
  0
SEQEND
  5
BE6
  8
LOGO1
 62
   228
  0
POLYLINE
  5
FD
  8
LOGO1
 62
   228
 66
     1
 10
0.0
 20
0.0
 30
0.0
  0
VERTEX
  5
634
  8
LOGO1
 62
   228
 10
410.063241731
 20
27.1225347288
 30
0.0
  0
VERTEX
  5
635
  8
LOGO1
 62
   228
 10
410.0588684766
 20
26.9820347818
 30
0.0
  0
VERTEX
  5
636
  8
LOGO1
 62
   228
 10
410.0457490123
 20
26.8475197238
 30
0.0
  0
VERTEX
  5
637
  8
LOGO1
 62
   228
 10
410.023883787
 20
26.7189890065
 30
0.0
  0
VERTEX
  5
638
  8
LOGO1
 62
   228
 10
409.9932732492
 20
26.5964420814
 30
0.0
  0
VERTEX
  5
639
  8
LOGO1
 62
   228
 10
409.9539178475
 20
26.4798784002
 30
0.0
  0
VERTEX
  5
63A
  8
LOGO1
 62
   228
 10
409.9058180306
 20
26.3692974147
 30
0.0
  0
VERTEX
  5
63B
  8
LOGO1
 62
   228
 10
409.8489742471
 20
26.2646985765
 30
0.0
  0
VERTEX
  5
63C
  8
LOGO1
 62
   228
 10
409.7833869456
 20
26.1660813371
 30
0.0
  0
VERTEX
  5
63D
  8
LOGO1
 62
   228
 10
409.7090565749
 20
26.0734451484
 30
0.0
  0
VERTEX
  5
63E
  8
LOGO1
 62
   228
 10
409.6259835835
 20
25.986789462
 30
0.0
  0
VERTEX
  5
63F
  8
LOGO1
 62
   228
 10
409.53416842
 20
25.9061137295
 30
0.0
  0
VERTEX
  5
640
  8
LOGO1
 62
   228
 10
409.4336115332
 20
25.8314174026
 30
0.0
  0
VERTEX
  5
641
  8
LOGO1
 62
   228
 10
409.3243133717
 20
25.7626999329
 30
0.0
  0
VERTEX
  5
642
  8
LOGO1
 62
   228
 10
409.206274384
 20
25.6999607722
 30
0.0
  0
VERTEX
  5
643
  8
LOGO1
 62
   228
 10
409.0794950188
 20
25.643199372
 30
0.0
  0
VERTEX
  5
644
  8
LOGO1
 62
   228
 10
408.9439757249
 20
25.5924151841
 30
0.0
  0
VERTEX
  5
645
  8
LOGO1
 62
   228
 10
408.7997169507
 20
25.5476076601
 30
0.0
  0
VERTEX
  5
646
  8
LOGO1
 62
   228
 10
408.6467191449
 20
25.5087762517
 30
0.0
  0
VERTEX
  5
647
  8
LOGO1
 62
   228
 10
408.4849827563
 20
25.4759204105
 30
0.0
  0
VERTEX
  5
648
  8
LOGO1
 62
   228
 10
408.3145082334
 20
25.4490395883
 30
0.0
  0
VERTEX
  5
649
  8
LOGO1
 62
   228
 10
408.1352960248
 20
25.4281332366
 30
0.0
  0
VERTEX
  5
64A
  8
LOGO1
 62
   228
 10
407.9473465792
 20
25.4132008071
 30
0.0
  0
VERTEX
  5
64B
  8
LOGO1
 62
   228
 10
407.7506603453
 20
25.4042417516
 30
0.0
  0
VERTEX
  5
64C
  8
LOGO1
 62
   228
 10
407.5452377717
 20
25.4012555216
 30
0.0
  0
SEQEND
  5
BE5
  8
LOGO1
 62
   228
  0
POLYLINE
  5
FE
  8
LOGO1
 62
   228
 66
     1
 10
0.0
 20
0.0
 30
0.0
  0
VERTEX
  5
64D
  8
LOGO1
 62
   228
 10
407.6413684647
 20
23.5242377006
 30
0.0
  0
VERTEX
  5
64E
  8
LOGO1
 62
   228
 10
407.6828018358
 20
23.5242801052
 30
0.0
  0
VERTEX
  5
64F
  8
LOGO1
 62
   228
 10
407.7240072985
 20
23.5244070533
 30
0.0
  0
VERTEX
  5
650
  8
LOGO1
 62
   228
 10
407.764985451
 20
23.5246181461
 30
0.0
  0
VERTEX
  5
651
  8
LOGO1
 62
   228
 10
407.8057368915
 20
23.5249129848
 30
0.0
  0
VERTEX
  5
652
  8
LOGO1
 62
   228
 10
407.846262218
 20
23.5252911705
 30
0.0
  0
VERTEX
  5
653
  8
LOGO1
 62
   228
 10
407.8865620289
 20
23.5257523045
 30
0.0
  0
VERTEX
  5
654
  8
LOGO1
 62
   228
 10
407.9266369223
 20
23.5262959881
 30
0.0
  0
VERTEX
  5
655
  8
LOGO1
 62
   228
 10
407.9664874964
 20
23.5269218223
 30
0.0
  0
VERTEX
  5
656
  8
LOGO1
 62
   228
 10
408.0061143494
 20
23.5276294085
 30
0.0
  0
VERTEX
  5
657
  8
LOGO1
 62
   228
 10
408.0455180795
 20
23.5284183478
 30
0.0
  0
VERTEX
  5
658
  8
LOGO1
 62
   228
 10
408.0846992848
 20
23.5292882415
 30
0.0
  0
VERTEX
  5
659
  8
LOGO1
 62
   228
 10
408.1236585635
 20
23.5302386907
 30
0.0
  0
VERTEX
  5
65A
  8
LOGO1
 62
   228
 10
408.1623965138
 20
23.5312692966
 30
0.0
  0
VERTEX
  5
65B
  8
LOGO1
 62
   228
 10
408.200913734
 20
23.5323796606
 30
0.0
  0
VERTEX
  5
65C
  8
LOGO1
 62
   228
 10
408.2392108221
 20
23.5335693837
 30
0.0
  0
VERTEX
  5
65D
  8
LOGO1
 62
   228
 10
408.2772883764
 20
23.5348380673
 30
0.0
  0
VERTEX
  5
65E
  8
LOGO1
 62
   228
 10
408.3151469951
 20
23.5361853124
 30
0.0
  0
VERTEX
  5
65F
  8
LOGO1
 62
   228
 10
408.3527872763
 20
23.5376107204
 30
0.0
  0
VERTEX
  5
660
  8
LOGO1
 62
   228
 10
408.3902098182
 20
23.5391138923
 30
0.0
  0
VERTEX
  5
661
  8
LOGO1
 62
   228
 10
408.427415219
 20
23.5406944296
 30
0.0
  0
VERTEX
  5
662
  8
LOGO1
 62
   228
 10
408.464404077
 20
23.5423519332
 30
0.0
  0
VERTEX
  5
663
  8
LOGO1
 62
   228
 10
408.5011769902
 20
23.5440860046
 30
0.0
  0
VERTEX
  5
664
  8
LOGO1
 62
   228
 10
408.5377345568
 20
23.5458962447
 30
0.0
  0
VERTEX
  5
665
  8
LOGO1
 62
   228
 10
408.5740773752
 20
23.547782255
 30
0.0
  0
SEQEND
  5
BE4
  8
LOGO1
 62
   228
  0
POLYLINE
  5
FF
  8
LOGO1
 62
   228
 66
     1
 10
0.0
 20
0.0
 30
0.0
  0
VERTEX
  5
666
  8
LOGO1
 62
   228
 10
427.8713090486
 20
33.9360918478
 30
0.0
  0
VERTEX
  5
667
  8
LOGO1
 62
   228
 10
427.8590026505
 20
33.9636210359
 30
0.0
  0
VERTEX
  5
668
  8
LOGO1
 62
   228
 10
427.8464609165
 20
33.9909942474
 30
0.0
  0
VERTEX
  5
669
  8
LOGO1
 62
   228
 10
427.8336841956
 20
34.0182122299
 30
0.0
  0
VERTEX
  5
66A
  8
LOGO1
 62
   228
 10
427.8206728367
 20
34.0452757311
 30
0.0
  0
VERTEX
  5
66B
  8
LOGO1
 62
   228
 10
427.8074271887
 20
34.0721854989
 30
0.0
  0
VERTEX
  5
66C
  8
LOGO1
 62
   228
 10
427.7939476006
 20
34.0989422809
 30
0.0
  0
VERTEX
  5
66D
  8
LOGO1
 62
   228
 10
427.7802344214
 20
34.1255468249
 30
0.0
  0
VERTEX
  5
66E
  8
LOGO1
 62
   228
 10
427.7662879999
 20
34.1519998785
 30
0.0
  0
VERTEX
  5
66F
  8
LOGO1
 62
   228
 10
427.7521086851
 20
34.1783021896
 30
0.0
  0
VERTEX
  5
670
  8
LOGO1
 62
   228
 10
427.737696826
 20
34.2044545058
 30
0.0
  0
VERTEX
  5
671
  8
LOGO1
 62
   228
 10
427.7230527715
 20
34.2304575749
 30
0.0
  0
VERTEX
  5
672
  8
LOGO1
 62
   228
 10
427.7081768705
 20
34.2563121447
 30
0.0
  0
VERTEX
  5
673
  8
LOGO1
 62
   228
 10
427.693069472
 20
34.2820189628
 30
0.0
  0
VERTEX
  5
674
  8
LOGO1
 62
   228
 10
427.6777309249
 20
34.307578777
 30
0.0
  0
VERTEX
  5
675
  8
LOGO1
 62
   228
 10
427.6621615781
 20
34.3329923349
 30
0.0
  0
VERTEX
  5
676
  8
LOGO1
 62
   228
 10
427.6463617807
 20
34.3582603845
 30
0.0
  0
VERTEX
  5
677
  8
LOGO1
 62
   228
 10
427.6303318815
 20
34.3833836733
 30
0.0
  0
VERTEX
  5
678
  8
LOGO1
 62
   228
 10
427.6140722294
 20
34.4083629491
 30
0.0
  0
VERTEX
  5
679
  8
LOGO1
 62
   228
 10
427.5975831735
 20
34.4331989596
 30
0.0
  0
VERTEX
  5
67A
  8
LOGO1
 62
   228
 10
427.5808650627
 20
34.4578924526
 30
0.0
  0
VERTEX
  5
67B
  8
LOGO1
 62
   228
 10
427.5639182459
 20
34.4824441758
 30
0.0
  0
VERTEX
  5
67C
  8
LOGO1
 62
   228
 10
427.546743072
 20
34.506854877
 30
0.0
  0
VERTEX
  5
67D
  8
LOGO1
 62
   228
 10
427.52933989
 20
34.5311253038
 30
0.0
  0
VERTEX
  5
67E
  8
LOGO1
 62
   228
 10
427.5117090488
 20
34.555256204
 30
0.0
  0
SEQEND
  5
BE3
  8
LOGO1
 62
   228
  0
POLYLINE
  5
100
  8
LOGO1
 62
   228
 66
     1
 10
0.0
 20
0.0
 30
0.0
  0
VERTEX
  5
67F
  8
LOGO1
 62
   228
 10
427.5117090488
 20
34.555256204
 30
0.0
  0
VERTEX
  5
680
  8
LOGO1
 62
   228
 10
427.4935515723
 20
34.5790490467
 30
0.0
  0
VERTEX
  5
681
  8
LOGO1
 62
   228
 10
427.4749408214
 20
34.6024772458
 30
0.0
  0
VERTEX
  5
682
  8
LOGO1
 62
   228
 10
427.455875749
 20
34.6255410508
 30
0.0
  0
VERTEX
  5
683
  8
LOGO1
 62
   228
 10
427.4363553084
 20
34.6482407107
 30
0.0
  0
VERTEX
  5
684
  8
LOGO1
 62
   228
 10
427.4163784529
 20
34.6705764749
 30
0.0
  0
VERTEX
  5
685
  8
LOGO1
 62
   228
 10
427.3959441355
 20
34.6925485925
 30
0.0
  0
VERTEX
  5
686
  8
LOGO1
 62
   228
 10
427.3750513094
 20
34.7141573129
 30
0.0
  0
VERTEX
  5
687
  8
LOGO1
 62
   228
 10
427.3536989278
 20
34.7354028852
 30
0.0
  0
VERTEX
  5
688
  8
LOGO1
 62
   228
 10
427.331885944
 20
34.7562855588
 30
0.0
  0
VERTEX
  5
689
  8
LOGO1
 62
   228
 10
427.309611311
 20
34.7768055828
 30
0.0
  0
VERTEX
  5
68A
  8
LOGO1
 62
   228
 10
427.286873982
 20
34.7969632065
 30
0.0
  0
VERTEX
  5
68B
  8
LOGO1
 62
   228
 10
427.2636729103
 20
34.8167586791
 30
0.0
  0
VERTEX
  5
68C
  8
LOGO1
 62
   228
 10
427.2400070489
 20
34.8361922499
 30
0.0
  0
VERTEX
  5
68D
  8
LOGO1
 62
   228
 10
427.2158753512
 20
34.8552641682
 30
0.0
  0
VERTEX
  5
68E
  8
LOGO1
 62
   228
 10
427.1912767701
 20
34.8739746831
 30
0.0
  0
VERTEX
  5
68F
  8
LOGO1
 62
   228
 10
427.1662102591
 20
34.8923240439
 30
0.0
  0
VERTEX
  5
690
  8
LOGO1
 62
   228
 10
427.1406747711
 20
34.9103124999
 30
0.0
  0
VERTEX
  5
691
  8
LOGO1
 62
   228
 10
427.1146692593
 20
34.9279403003
 30
0.0
  0
VERTEX
  5
692
  8
LOGO1
 62
   228
 10
427.0881926771
 20
34.9452076944
 30
0.0
  0
VERTEX
  5
693
  8
LOGO1
 62
   228
 10
427.0612439775
 20
34.9621149313
 30
0.0
  0
VERTEX
  5
694
  8
LOGO1
 62
   228
 10
427.0338221137
 20
34.9786622604
 30
0.0
  0
VERTEX
  5
695
  8
LOGO1
 62
   228
 10
427.0059260388
 20
34.9948499309
 30
0.0
  0
VERTEX
  5
696
  8
LOGO1
 62
   228
 10
426.9775547062
 20
35.0106781919
 30
0.0
  0
VERTEX
  5
697
  8
LOGO1
 62
   228
 10
426.9487070688
 20
35.0261472929
 30
0.0
  0
SEQEND
  5
BE2
  8
LOGO1
 62
   228
  0
POLYLINE
  5
101
  8
LOGO1
 62
   228
 66
     1
 10
0.0
 20
0.0
 30
0.0
  0
VERTEX
  5
698
  8
LOGO1
 62
   228
 10
426.9487070688
 20
35.0261472929
 30
0.0
  0
VERTEX
  5
699
  8
LOGO1
 62
   228
 10
426.9193816729
 20
35.0410073586
 30
0.0
  0
VERTEX
  5
69A
  8
LOGO1
 62
   228
 10
426.8894629774
 20
35.0552378846
 30
0.0
  0
VERTEX
  5
69B
  8
LOGO1
 62
   228
 10
426.8589510819
 20
35.0688386218
 30
0.0
  0
VERTEX
  5
69C
  8
LOGO1
 62
   228
 10
426.8278460861
 20
35.0818093207
 30
0.0
  0
VERTEX
  5
69D
  8
LOGO1
 62
   228
 10
426.7961480898
 20
35.0941497323
 30
0.0
  0
VERTEX
  5
69E
  8
LOGO1
 62
   228
 10
426.7638571927
 20
35.1058596072
 30
0.0
  0
VERTEX
  5
69F
  8
LOGO1
 62
   228
 10
426.7309734944
 20
35.1169386962
 30
0.0
  0
VERTEX
  5
6A0
  8
LOGO1
 62
   228
 10
426.6974970946
 20
35.1273867501
 30
0.0
  0
VERTEX
  5
6A1
  8
LOGO1
 62
   228
 10
426.6634280931
 20
35.1372035196
 30
0.0
  0
VERTEX
  5
6A2
  8
LOGO1
 62
   228
 10
426.6287665895
 20
35.1463887555
 30
0.0
  0
VERTEX
  5
6A3
  8
LOGO1
 62
   228
 10
426.5935126835
 20
35.1549422085
 30
0.0
  0
VERTEX
  5
6A4
  8
LOGO1
 62
   228
 10
426.5576664749
 20
35.1628636295
 30
0.0
  0
VERTEX
  5
6A5
  8
LOGO1
 62
   228
 10
426.5212280633
 20
35.170152769
 30
0.0
  0
VERTEX
  5
6A6
  8
LOGO1
 62
   228
 10
426.4841975485
 20
35.176809378
 30
0.0
  0
VERTEX
  5
6A7
  8
LOGO1
 62
   228
 10
426.4465750301
 20
35.1828332071
 30
0.0
  0
VERTEX
  5
6A8
  8
LOGO1
 62
   228
 10
426.4083606077
 20
35.1882240071
 30
0.0
  0
VERTEX
  5
6A9
  8
LOGO1
 62
   228
 10
426.3695543812
 20
35.1929815289
 30
0.0
  0
VERTEX
  5
6AA
  8
LOGO1
 62
   228
 10
426.3301564503
 20
35.197105523
 30
0.0
  0
VERTEX
  5
6AB
  8
LOGO1
 62
   228
 10
426.2901669145
 20
35.2005957403
 30
0.0
  0
VERTEX
  5
6AC
  8
LOGO1
 62
   228
 10
426.2495858737
 20
35.2034519316
 30
0.0
  0
VERTEX
  5
6AD
  8
LOGO1
 62
   228
 10
426.2084134274
 20
35.2056738476
 30
0.0
  0
VERTEX
  5
6AE
  8
LOGO1
 62
   228
 10
426.1666496755
 20
35.207261239
 30
0.0
  0
VERTEX
  5
6AF
  8
LOGO1
 62
   228
 10
426.1242947176
 20
35.2082138566
 30
0.0
  0
VERTEX
  5
6B0
  8
LOGO1
 62
   228
 10
426.0813486533
 20
35.2085314512
 30
0.0
  0
SEQEND
  5
BE1
  8
LOGO1
 62
   228
  0
POLYLINE
  5
102
  8
LOGO1
 62
   228
 66
     1
 10
0.0
 20
0.0
 30
0.0
  0
VERTEX
  5
6B1
  8
LOGO1
 62
   228
 10
426.0813486533
 20
35.2085314512
 30
0.0
  0
VERTEX
  5
6B2
  8
LOGO1
 62
   228
 10
426.0390383267
 20
35.2082138566
 30
0.0
  0
VERTEX
  5
6B3
  8
LOGO1
 62
   228
 10
425.9972979704
 20
35.207261239
 30
0.0
  0
VERTEX
  5
6B4
  8
LOGO1
 62
   228
 10
425.9561268867
 20
35.2056738476
 30
0.0
  0
VERTEX
  5
6B5
  8
LOGO1
 62
   228
 10
425.9155243777
 20
35.2034519316
 30
0.0
  0
VERTEX
  5
6B6
  8
LOGO1
 62
   228
 10
425.8754897454
 20
35.2005957403
 30
0.0
  0
VERTEX
  5
6B7
  8
LOGO1
 62
   228
 10
425.8360222921
 20
35.197105523
 30
0.0
  0
VERTEX
  5
6B8
  8
LOGO1
 62
   228
 10
425.7971213197
 20
35.1929815289
 30
0.0
  0
VERTEX
  5
6B9
  8
LOGO1
 62
   228
 10
425.7587861306
 20
35.1882240071
 30
0.0
  0
VERTEX
  5
6BA
  8
LOGO1
 62
   228
 10
425.7210160266
 20
35.1828332071
 30
0.0
  0
VERTEX
  5
6BB
  8
LOGO1
 62
   228
 10
425.6838103101
 20
35.176809378
 30
0.0
  0
VERTEX
  5
6BC
  8
LOGO1
 62
   228
 10
425.647168283
 20
35.170152769
 30
0.0
  0
VERTEX
  5
6BD
  8
LOGO1
 62
   228
 10
425.6110892476
 20
35.1628636295
 30
0.0
  0
VERTEX
  5
6BE
  8
LOGO1
 62
   228
 10
425.5755725059
 20
35.1549422085
 30
0.0
  0
VERTEX
  5
6BF
  8
LOGO1
 62
   228
 10
425.54061736
 20
35.1463887555
 30
0.0
  0
VERTEX
  5
6C0
  8
LOGO1
 62
   228
 10
425.5062231121
 20
35.1372035196
 30
0.0
  0
VERTEX
  5
6C1
  8
LOGO1
 62
   228
 10
425.4723890643
 20
35.1273867501
 30
0.0
  0
VERTEX
  5
6C2
  8
LOGO1
 62
   228
 10
425.4391145187
 20
35.1169386962
 30
0.0
  0
VERTEX
  5
6C3
  8
LOGO1
 62
   228
 10
425.4063987774
 20
35.1058596072
 30
0.0
  0
VERTEX
  5
6C4
  8
LOGO1
 62
   228
 10
425.3742411425
 20
35.0941497323
 30
0.0
  0
VERTEX
  5
6C5
  8
LOGO1
 62
   228
 10
425.3426409162
 20
35.0818093207
 30
0.0
  0
VERTEX
  5
6C6
  8
LOGO1
 62
   228
 10
425.3115974006
 20
35.0688386218
 30
0.0
  0
VERTEX
  5
6C7
  8
LOGO1
 62
   228
 10
425.2811098977
 20
35.0552378846
 30
0.0
  0
VERTEX
  5
6C8
  8
LOGO1
 62
   228
 10
425.2511777098
 20
35.0410073586
 30
0.0
  0
VERTEX
  5
6C9
  8
LOGO1
 62
   228
 10
425.2218001389
 20
35.0261472929
 30
0.0
  0
SEQEND
  5
BE0
  8
LOGO1
 62
   228
  0
POLYLINE
  5
103
  8
LOGO1
 62
   228
 66
     1
 10
0.0
 20
0.0
 30
0.0
  0
VERTEX
  5
6CA
  8
LOGO1
 62
   228
 10
425.2218001389
 20
35.0261472929
 30
0.0
  0
VERTEX
  5
6CB
  8
LOGO1
 62
   228
 10
425.1929537561
 20
35.010657513
 30
0.0
  0
VERTEX
  5
6CC
  8
LOGO1
 62
   228
 10
425.1645864196
 20
34.9947682454
 30
0.0
  0
VERTEX
  5
6CD
  8
LOGO1
 62
   228
 10
425.1366974316
 20
34.9784807861
 30
0.0
  0
VERTEX
  5
6CE
  8
LOGO1
 62
   228
 10
425.1092860942
 20
34.9617964312
 30
0.0
  0
VERTEX
  5
6CF
  8
LOGO1
 62
   228
 10
425.0823517094
 20
34.9447164767
 30
0.0
  0
VERTEX
  5
6D0
  8
LOGO1
 62
   228
 10
425.0558935795
 20
34.9272422187
 30
0.0
  0
VERTEX
  5
6D1
  8
LOGO1
 62
   228
 10
425.0299110065
 20
34.9093749532
 30
0.0
  0
VERTEX
  5
6D2
  8
LOGO1
 62
   228
 10
425.0044032926
 20
34.8911159765
 30
0.0
  0
VERTEX
  5
6D3
  8
LOGO1
 62
   228
 10
424.9793697398
 20
34.8724665844
 30
0.0
  0
VERTEX
  5
6D4
  8
LOGO1
 62
   228
 10
424.9548096503
 20
34.8534280731
 30
0.0
  0
VERTEX
  5
6D5
  8
LOGO1
 62
   228
 10
424.9307223263
 20
34.8340017387
 30
0.0
  0
VERTEX
  5
6D6
  8
LOGO1
 62
   228
 10
424.9071070697
 20
34.8141888771
 30
0.0
  0
VERTEX
  5
6D7
  8
LOGO1
 62
   228
 10
424.8839631828
 20
34.7939907846
 30
0.0
  0
VERTEX
  5
6D8
  8
LOGO1
 62
   228
 10
424.8612899676
 20
34.773408757
 30
0.0
  0
VERTEX
  5
6D9
  8
LOGO1
 62
   228
 10
424.8390867263
 20
34.7524440906
 30
0.0
  0
VERTEX
  5
6DA
  8
LOGO1
 62
   228
 10
424.817352761
 20
34.7310980814
 30
0.0
  0
VERTEX
  5
6DB
  8
LOGO1
 62
   228
 10
424.7960873738
 20
34.7093720254
 30
0.0
  0
VERTEX
  5
6DC
  8
LOGO1
 62
   228
 10
424.7752898668
 20
34.6872672188
 30
0.0
  0
VERTEX
  5
6DD
  8
LOGO1
 62
   228
 10
424.7549595421
 20
34.6647849575
 30
0.0
  0
VERTEX
  5
6DE
  8
LOGO1
 62
   228
 10
424.735095702
 20
34.6419265376
 30
0.0
  0
VERTEX
  5
6DF
  8
LOGO1
 62
   228
 10
424.7156976484
 20
34.6186932553
 30
0.0
  0
VERTEX
  5
6E0
  8
LOGO1
 62
   228
 10
424.6967646835
 20
34.5950864066
 30
0.0
  0
VERTEX
  5
6E1
  8
LOGO1
 62
   228
 10
424.6782961094
 20
34.5711072875
 30
0.0
  0
VERTEX
  5
6E2
  8
LOGO1
 62
   228
 10
424.6602912282
 20
34.5467571941
 30
0.0
  0
SEQEND
  5
BDF
  8
LOGO1
 62
   228
  0
POLYLINE
  5
104
  8
LOGO1
 62
   228
 66
     1
 10
0.0
 20
0.0
 30
0.0
  0
VERTEX
  5
6E3
  8
LOGO1
 62
   228
 10
424.6602912282
 20
34.5467571941
 30
0.0
  0
VERTEX
  5
6E4
  8
LOGO1
 62
   228
 10
424.6424756061
 20
34.521901377
 30
0.0
  0
VERTEX
  5
6E5
  8
LOGO1
 62
   228
 10
424.6247480168
 20
34.496518908
 30
0.0
  0
VERTEX
  5
6E6
  8
LOGO1
 62
   228
 10
424.6071091583
 20
34.4706095379
 30
0.0
  0
VERTEX
  5
6E7
  8
LOGO1
 62
   228
 10
424.5895597284
 20
34.4441730174
 30
0.0
  0
VERTEX
  5
6E8
  8
LOGO1
 62
   228
 10
424.572100425
 20
34.4172090973
 30
0.0
  0
VERTEX
  5
6E9
  8
LOGO1
 62
   228
 10
424.5547319461
 20
34.3897175283
 30
0.0
  0
VERTEX
  5
6EA
  8
LOGO1
 62
   228
 10
424.5374549894
 20
34.3616980612
 30
0.0
  0
VERTEX
  5
6EB
  8
LOGO1
 62
   228
 10
424.5202702528
 20
34.3331504468
 30
0.0
  0
VERTEX
  5
6EC
  8
LOGO1
 62
   228
 10
424.5031784343
 20
34.3040744358
 30
0.0
  0
VERTEX
  5
6ED
  8
LOGO1
 62
   228
 10
424.4861802318
 20
34.274469779
 30
0.0
  0
VERTEX
  5
6EE
  8
LOGO1
 62
   228
 10
424.469276343
 20
34.2443362271
 30
0.0
  0
VERTEX
  5
6EF
  8
LOGO1
 62
   228
 10
424.4524674659
 20
34.2136735308
 30
0.0
  0
VERTEX
  5
6F0
  8
LOGO1
 62
   228
 10
424.4357542984
 20
34.1824814411
 30
0.0
  0
VERTEX
  5
6F1
  8
LOGO1
 62
   228
 10
424.4191375384
 20
34.1507597084
 30
0.0
  0
VERTEX
  5
6F2
  8
LOGO1
 62
   228
 10
424.4026178836
 20
34.1185080838
 30
0.0
  0
VERTEX
  5
6F3
  8
LOGO1
 62
   228
 10
424.3861960321
 20
34.0857263178
 30
0.0
  0
VERTEX
  5
6F4
  8
LOGO1
 62
   228
 10
424.3698726817
 20
34.0524141614
 30
0.0
  0
VERTEX
  5
6F5
  8
LOGO1
 62
   228
 10
424.3536485303
 20
34.0185713651
 30
0.0
  0
VERTEX
  5
6F6
  8
LOGO1
 62
   228
 10
424.3375242758
 20
33.9841976798
 30
0.0
  0
VERTEX
  5
6F7
  8
LOGO1
 62
   228
 10
424.321500616
 20
33.9492928562
 30
0.0
  0
VERTEX
  5
6F8
  8
LOGO1
 62
   228
 10
424.3055782488
 20
33.9138566451
 30
0.0
  0
VERTEX
  5
6F9
  8
LOGO1
 62
   228
 10
424.2897578721
 20
33.8778887973
 30
0.0
  0
VERTEX
  5
6FA
  8
LOGO1
 62
   228
 10
424.2740401838
 20
33.8413890635
 30
0.0
  0
VERTEX
  5
6FB
  8
LOGO1
 62
   228
 10
424.2584258818
 20
33.8043571944
 30
0.0
  0
SEQEND
  5
BDE
  8
LOGO1
 62
   228
  0
POLYLINE
  5
105
  8
LOGO1
 62
   150
 66
     1
 10
0.0
 20
0.0
 30
0.0
  0
VERTEX
  5
6FC
  8
LOGO1
 62
   150
 10
412.0152575717
 20
28.5484159163
 30
0.0
  0
VERTEX
  5
6FD
  8
LOGO1
 62
   150
 10
412.0558005863
 20
28.4980954047
 30
0.0
  0
VERTEX
  5
6FE
  8
LOGO1
 62
   150
 10
412.0948794937
 20
28.4469397772
 30
0.0
  0
VERTEX
  5
6FF
  8
LOGO1
 62
   150
 10
412.1324933468
 20
28.3949489841
 30
0.0
  0
VERTEX
  5
700
  8
LOGO1
 62
   150
 10
412.1686411984
 20
28.3421229754
 30
0.0
  0
VERTEX
  5
701
  8
LOGO1
 62
   150
 10
412.2033221014
 20
28.2884617013
 30
0.0
  0
VERTEX
  5
702
  8
LOGO1
 62
   150
 10
412.2365351088
 20
28.2339651119
 30
0.0
  0
VERTEX
  5
703
  8
LOGO1
 62
   150
 10
412.2682792733
 20
28.1786331575
 30
0.0
  0
VERTEX
  5
704
  8
LOGO1
 62
   150
 10
412.2985536479
 20
28.1224657881
 30
0.0
  0
VERTEX
  5
705
  8
LOGO1
 62
   150
 10
412.3273572854
 20
28.0654629539
 30
0.0
  0
VERTEX
  5
706
  8
LOGO1
 62
   150
 10
412.3546892387
 20
28.0076246051
 30
0.0
  0
VERTEX
  5
707
  8
LOGO1
 62
   150
 10
412.3805485607
 20
27.9489506917
 30
0.0
  0
VERTEX
  5
708
  8
LOGO1
 62
   150
 10
412.4049343043
 20
27.8894411641
 30
0.0
  0
VERTEX
  5
709
  8
LOGO1
 62
   150
 10
412.4278455222
 20
27.8290959722
 30
0.0
  0
VERTEX
  5
70A
  8
LOGO1
 62
   150
 10
412.4492812675
 20
27.7679150663
 30
0.0
  0
VERTEX
  5
70B
  8
LOGO1
 62
   150
 10
412.4692405929
 20
27.7058983965
 30
0.0
  0
VERTEX
  5
70C
  8
LOGO1
 62
   150
 10
412.4877225514
 20
27.643045913
 30
0.0
  0
VERTEX
  5
70D
  8
LOGO1
 62
   150
 10
412.5047261958
 20
27.5793575659
 30
0.0
  0
VERTEX
  5
70E
  8
LOGO1
 62
   150
 10
412.520250579
 20
27.5148333053
 30
0.0
  0
VERTEX
  5
70F
  8
LOGO1
 62
   150
 10
412.5342947538
 20
27.4494730815
 30
0.0
  0
VERTEX
  5
710
  8
LOGO1
 62
   150
 10
412.5468577732
 20
27.3832768445
 30
0.0
  0
VERTEX
  5
711
  8
LOGO1
 62
   150
 10
412.55793869
 20
27.3162445446
 30
0.0
  0
VERTEX
  5
712
  8
LOGO1
 62
   150
 10
412.5675365571
 20
27.2483761318
 30
0.0
  0
VERTEX
  5
713
  8
LOGO1
 62
   150
 10
412.5756504274
 20
27.1796715563
 30
0.0
  0
VERTEX
  5
714
  8
LOGO1
 62
   150
 10
412.5822793537
 20
27.1101307684
 30
0.0
  0
SEQEND
  5
BDD
  8
LOGO1
 62
   150
  0
POLYLINE
  5
106
  8
LOGO1
 62
   228
 66
     1
 10
0.0
 20
0.0
 30
0.0
  0
VERTEX
  5
715
  8
LOGO1
 62
   228
 10
410.6356615327
 20
23.9261030469
 30
0.0
  0
VERTEX
  5
716
  8
LOGO1
 62
   228
 10
410.709914397
 20
23.9577321689
 30
0.0
  0
VERTEX
  5
717
  8
LOGO1
 62
   228
 10
410.7828786715
 20
23.9907724088
 30
0.0
  0
VERTEX
  5
718
  8
LOGO1
 62
   228
 10
410.8545554528
 20
24.025224365
 30
0.0
  0
VERTEX
  5
719
  8
LOGO1
 62
   228
 10
410.9249458377
 20
24.0610886354
 30
0.0
  0
VERTEX
  5
71A
  8
LOGO1
 62
   228
 10
410.9940509228
 20
24.0983658184
 30
0.0
  0
VERTEX
  5
71B
  8
LOGO1
 62
   228
 10
411.0618718048
 20
24.1370565122
 30
0.0
  0
VERTEX
  5
71C
  8
LOGO1
 62
   228
 10
411.1284095804
 20
24.1771613148
 30
0.0
  0
VERTEX
  5
71D
  8
LOGO1
 62
   228
 10
411.1936653462
 20
24.2186808246
 30
0.0
  0
VERTEX
  5
71E
  8
LOGO1
 62
   228
 10
411.2576401989
 20
24.2616156396
 30
0.0
  0
VERTEX
  5
71F
  8
LOGO1
 62
   228
 10
411.3203352352
 20
24.3059663581
 30
0.0
  0
VERTEX
  5
720
  8
LOGO1
 62
   228
 10
411.3817515518
 20
24.3517335782
 30
0.0
  0
VERTEX
  5
721
  8
LOGO1
 62
   228
 10
411.4418902453
 20
24.3989178982
 30
0.0
  0
VERTEX
  5
722
  8
LOGO1
 62
   228
 10
411.5007524123
 20
24.4475199162
 30
0.0
  0
VERTEX
  5
723
  8
LOGO1
 62
   228
 10
411.5583391497
 20
24.4975402304
 30
0.0
  0
VERTEX
  5
724
  8
LOGO1
 62
   228
 10
411.614651554
 20
24.548979439
 30
0.0
  0
VERTEX
  5
725
  8
LOGO1
 62
   228
 10
411.6696907219
 20
24.6018381402
 30
0.0
  0
VERTEX
  5
726
  8
LOGO1
 62
   228
 10
411.7234577501
 20
24.6561169321
 30
0.0
  0
VERTEX
  5
727
  8
LOGO1
 62
   228
 10
411.7759537352
 20
24.7118164129
 30
0.0
  0
VERTEX
  5
728
  8
LOGO1
 62
   228
 10
411.827179774
 20
24.7689371809
 30
0.0
  0
VERTEX
  5
729
  8
LOGO1
 62
   228
 10
411.8771369631
 20
24.8274798342
 30
0.0
  0
VERTEX
  5
72A
  8
LOGO1
 62
   228
 10
411.9258263991
 20
24.887444971
 30
0.0
  0
VERTEX
  5
72B
  8
LOGO1
 62
   228
 10
411.9732491788
 20
24.9488331895
 30
0.0
  0
VERTEX
  5
72C
  8
LOGO1
 62
   228
 10
412.0194063989
 20
25.0116450879
 30
0.0
  0
VERTEX
  5
72D
  8
LOGO1
 62
   228
 10
412.0642991559
 20
25.0758812643
 30
0.0
  0
SEQEND
  5
BDC
  8
LOGO1
 62
   228
  0
POLYLINE
  5
107
  8
LOGO1
 62
   228
 66
     1
 10
0.0
 20
0.0
 30
0.0
  0
VERTEX
  5
72E
  8
LOGO1
 62
   228
 10
412.0642991559
 20
25.0758812643
 30
0.0
  0
VERTEX
  5
72F
  8
LOGO1
 62
   228
 10
412.1074976624
 20
25.1410941685
 30
0.0
  0
VERTEX
  5
730
  8
LOGO1
 62
   228
 10
412.1488584953
 20
25.2069793826
 30
0.0
  0
VERTEX
  5
731
  8
LOGO1
 62
   228
 10
412.1883816048
 20
25.2735368567
 30
0.0
  0
VERTEX
  5
732
  8
LOGO1
 62
   228
 10
412.2260669409
 20
25.340766541
 30
0.0
  0
VERTEX
  5
733
  8
LOGO1
 62
   228
 10
412.2619144539
 20
25.4086683857
 30
0.0
  0
VERTEX
  5
734
  8
LOGO1
 62
   228
 10
412.2959240939
 20
25.4772423408
 30
0.0
  0
VERTEX
  5
735
  8
LOGO1
 62
   228
 10
412.328095811
 20
25.5464883566
 30
0.0
  0
VERTEX
  5
736
  8
LOGO1
 62
   228
 10
412.3584295555
 20
25.6164063832
 30
0.0
  0
VERTEX
  5
737
  8
LOGO1
 62
   228
 10
412.3869252773
 20
25.6869963708
 30
0.0
  0
VERTEX
  5
738
  8
LOGO1
 62
   228
 10
412.4135829268
 20
25.7582582694
 30
0.0
  0
VERTEX
  5
739
  8
LOGO1
 62
   228
 10
412.438402454
 20
25.8301920293
 30
0.0
  0
VERTEX
  5
73A
  8
LOGO1
 62
   228
 10
412.4613838092
 20
25.9027976006
 30
0.0
  0
VERTEX
  5
73B
  8
LOGO1
 62
   228
 10
412.4825269424
 20
25.9760749334
 30
0.0
  0
VERTEX
  5
73C
  8
LOGO1
 62
   228
 10
412.5018318038
 20
26.0500239779
 30
0.0
  0
VERTEX
  5
73D
  8
LOGO1
 62
   228
 10
412.5192983435
 20
26.1246446843
 30
0.0
  0
VERTEX
  5
73E
  8
LOGO1
 62
   228
 10
412.5349265118
 20
26.1999370027
 30
0.0
  0
VERTEX
  5
73F
  8
LOGO1
 62
   228
 10
412.5487162587
 20
26.2759008833
 30
0.0
  0
VERTEX
  5
740
  8
LOGO1
 62
   228
 10
412.5606675344
 20
26.3525362761
 30
0.0
  0
VERTEX
  5
741
  8
LOGO1
 62
   228
 10
412.5707802891
 20
26.4298431314
 30
0.0
  0
VERTEX
  5
742
  8
LOGO1
 62
   228
 10
412.5790544729
 20
26.5078213993
 30
0.0
  0
VERTEX
  5
743
  8
LOGO1
 62
   228
 10
412.5854900359
 20
26.58647103
 30
0.0
  0
VERTEX
  5
744
  8
LOGO1
 62
   228
 10
412.5900869284
 20
26.6657919736
 30
0.0
  0
VERTEX
  5
745
  8
LOGO1
 62
   228
 10
412.5928451004
 20
26.7457841803
 30
0.0
  0
VERTEX
  5
746
  8
LOGO1
 62
   228
 10
412.5937645022
 20
26.8264476002
 30
0.0
  0
SEQEND
  5
BDB
  8
LOGO1
 62
   228
  0
POLYLINE
  5
108
  8
LOGO1
 62
   228
 66
     1
 10
0.0
 20
0.0
 30
0.0
  0
VERTEX
  5
747
  8
LOGO1
 62
   228
 10
408.5740773752
 20
23.547782255
 30
0.0
  0
VERTEX
  5
748
  8
LOGO1
 62
   228
 10
408.6084352252
 20
23.5496719375
 30
0.0
  0
VERTEX
  5
749
  8
LOGO1
 62
   228
 10
408.6425975186
 20
23.5516370909
 30
0.0
  0
VERTEX
  5
74A
  8
LOGO1
 62
   228
 10
408.6765637071
 20
23.553677815
 30
0.0
  0
VERTEX
  5
74B
  8
LOGO1
 62
   228
 10
408.7103332424
 20
23.5557942095
 30
0.0
  0
VERTEX
  5
74C
  8
LOGO1
 62
   228
 10
408.743905576
 20
23.5579863741
 30
0.0
  0
VERTEX
  5
74D
  8
LOGO1
 62
   228
 10
408.7772801597
 20
23.5602544085
 30
0.0
  0
VERTEX
  5
74E
  8
LOGO1
 62
   228
 10
408.8104564452
 20
23.5625984123
 30
0.0
  0
VERTEX
  5
74F
  8
LOGO1
 62
   228
 10
408.843433884
 20
23.5650184853
 30
0.0
  0
VERTEX
  5
750
  8
LOGO1
 62
   228
 10
408.876211928
 20
23.5675147272
 30
0.0
  0
VERTEX
  5
751
  8
LOGO1
 62
   228
 10
408.9087900286
 20
23.5700872376
 30
0.0
  0
VERTEX
  5
752
  8
LOGO1
 62
   228
 10
408.9411676376
 20
23.5727361163
 30
0.0
  0
VERTEX
  5
753
  8
LOGO1
 62
   228
 10
408.9733442067
 20
23.5754614629
 30
0.0
  0
VERTEX
  5
754
  8
LOGO1
 62
   228
 10
409.0053191875
 20
23.5782633772
 30
0.0
  0
VERTEX
  5
755
  8
LOGO1
 62
   228
 10
409.0370920317
 20
23.5811419589
 30
0.0
  0
VERTEX
  5
756
  8
LOGO1
 62
   228
 10
409.0686621909
 20
23.5840973076
 30
0.0
  0
VERTEX
  5
757
  8
LOGO1
 62
   228
 10
409.1000291168
 20
23.5871295231
 30
0.0
  0
VERTEX
  5
758
  8
LOGO1
 62
   228
 10
409.1311922611
 20
23.590238705
 30
0.0
  0
VERTEX
  5
759
  8
LOGO1
 62
   228
 10
409.1621510754
 20
23.593424953
 30
0.0
  0
VERTEX
  5
75A
  8
LOGO1
 62
   228
 10
409.1929050115
 20
23.5966883669
 30
0.0
  0
VERTEX
  5
75B
  8
LOGO1
 62
   228
 10
409.2234535209
 20
23.6000290463
 30
0.0
  0
VERTEX
  5
75C
  8
LOGO1
 62
   228
 10
409.2537960553
 20
23.603447091
 30
0.0
  0
VERTEX
  5
75D
  8
LOGO1
 62
   228
 10
409.2839320664
 20
23.6069426006
 30
0.0
  0
VERTEX
  5
75E
  8
LOGO1
 62
   228
 10
409.3138610059
 20
23.6105156748
 30
0.0
  0
VERTEX
  5
75F
  8
LOGO1
 62
   228
 10
409.3435823253
 20
23.6141664134
 30
0.0
  0
SEQEND
  5
BDA
  8
LOGO1
 62
   228
  0
POLYLINE
  5
109
  8
LOGO1
 62
   228
 66
     1
 10
0.0
 20
0.0
 30
0.0
  0
VERTEX
  5
760
  8
LOGO1
 62
   228
 10
409.3435823253
 20
23.6141664134
 30
0.0
  0
VERTEX
  5
761
  8
LOGO1
 62
   228
 10
409.4041576356
 20
23.6220105439
 30
0.0
  0
VERTEX
  5
762
  8
LOGO1
 62
   228
 10
409.4641414906
 20
23.6302969323
 30
0.0
  0
VERTEX
  5
763
  8
LOGO1
 62
   228
 10
409.5235346381
 20
23.6390263763
 30
0.0
  0
VERTEX
  5
764
  8
LOGO1
 62
   228
 10
409.5823378258
 20
23.6481996734
 30
0.0
  0
VERTEX
  5
765
  8
LOGO1
 62
   228
 10
409.6405518015
 20
23.6578176212
 30
0.0
  0
VERTEX
  5
766
  8
LOGO1
 62
   228
 10
409.6981773128
 20
23.6678810173
 30
0.0
  0
VERTEX
  5
767
  8
LOGO1
 62
   228
 10
409.7552151076
 20
23.6783906593
 30
0.0
  0
VERTEX
  5
768
  8
LOGO1
 62
   228
 10
409.8116659335
 20
23.6893473448
 30
0.0
  0
VERTEX
  5
769
  8
LOGO1
 62
   228
 10
409.8675305383
 20
23.7007518713
 30
0.0
  0
VERTEX
  5
76A
  8
LOGO1
 62
   228
 10
409.9228096697
 20
23.7126050364
 30
0.0
  0
VERTEX
  5
76B
  8
LOGO1
 62
   228
 10
409.9775040755
 20
23.7249076377
 30
0.0
  0
VERTEX
  5
76C
  8
LOGO1
 62
   228
 10
410.0316145033
 20
23.7376604728
 30
0.0
  0
VERTEX
  5
76D
  8
LOGO1
 62
   228
 10
410.0851417009
 20
23.7508643392
 30
0.0
  0
VERTEX
  5
76E
  8
LOGO1
 62
   228
 10
410.138086416
 20
23.7645200345
 30
0.0
  0
VERTEX
  5
76F
  8
LOGO1
 62
   228
 10
410.1904493965
 20
23.7786283564
 30
0.0
  0
VERTEX
  5
770
  8
LOGO1
 62
   228
 10
410.2422313899
 20
23.7931901024
 30
0.0
  0
VERTEX
  5
771
  8
LOGO1
 62
   228
 10
410.293433144
 20
23.80820607
 30
0.0
  0
VERTEX
  5
772
  8
LOGO1
 62
   228
 10
410.3440554066
 20
23.8236770569
 30
0.0
  0
VERTEX
  5
773
  8
LOGO1
 62
   228
 10
410.3940989254
 20
23.8396038606
 30
0.0
  0
VERTEX
  5
774
  8
LOGO1
 62
   228
 10
410.4435644481
 20
23.8559872787
 30
0.0
  0
VERTEX
  5
775
  8
LOGO1
 62
   228
 10
410.4924527224
 20
23.8728281088
 30
0.0
  0
VERTEX
  5
776
  8
LOGO1
 62
   228
 10
410.5407644962
 20
23.8901271485
 30
0.0
  0
VERTEX
  5
777
  8
LOGO1
 62
   228
 10
410.588500517
 20
23.9078851954
 30
0.0
  0
VERTEX
  5
778
  8
LOGO1
 62
   228
 10
410.6356615327
 20
23.9261030469
 30
0.0
  0
SEQEND
  5
BD9
  8
LOGO1
 62
   228
  0
POLYLINE
  5
10A
  8
LOGO2
 66
     1
 10
0.0
 20
0.0
 30
0.0
  0
VERTEX
  5
779
  8
LOGO2
 10
408.5746450239
 20
23.5478127778
 30
0.0
  0
VERTEX
  5
77A
  8
LOGO2
 10
408.5361666528
 20
23.3814008342
 30
0.0
  0
VERTEX
  5
77B
  8
LOGO2
 10
408.5042680847
 20
23.2172234357
 30
0.0
  0
VERTEX
  5
77C
  8
LOGO2
 10
408.4789712799
 20
23.0553936095
 30
0.0
  0
VERTEX
  5
77D
  8
LOGO2
 10
408.460293654
 20
22.8960227666
 30
0.0
  0
VERTEX
  5
77E
  8
LOGO2
 10
408.4482480655
 20
22.7392206251
 30
0.0
  0
VERTEX
  5
77F
  8
LOGO2
 10
408.4428428071
 20
22.5850951348
 30
0.0
  0
VERTEX
  5
780
  8
LOGO2
 10
408.4440816
 20
22.4337524027
 30
0.0
  0
VERTEX
  5
781
  8
LOGO2
 10
408.4519635914
 20
22.2852966199
 30
0.0
  0
VERTEX
  5
782
  8
LOGO2
 10
408.4664833549
 20
22.1398299902
 30
0.0
  0
VERTEX
  5
783
  8
LOGO2
 10
408.4876308946
 20
21.9974526595
 30
0.0
  0
VERTEX
  5
784
  8
LOGO2
 10
408.5153916514
 20
21.8582626467
 30
0.0
  0
VERTEX
  5
785
  8
LOGO2
 10
408.5497465136
 20
21.7223557765
 30
0.0
  0
VERTEX
  5
786
  8
LOGO2
 10
408.5906718298
 20
21.5898256135
 30
0.0
  0
VERTEX
  5
787
  8
LOGO2
 10
408.6381394251
 20
21.4607633975
 30
0.0
  0
VERTEX
  5
788
  8
LOGO2
 10
408.6921166206
 20
21.3352579806
 30
0.0
  0
VERTEX
  5
789
  8
LOGO2
 10
408.752566256
 20
21.2133957666
 30
0.0
  0
VERTEX
  5
78A
  8
LOGO2
 10
408.8194467151
 20
21.095260651
 30
0.0
  0
VERTEX
  5
78B
  8
LOGO2
 10
408.8927119543
 20
20.9809339633
 30
0.0
  0
VERTEX
  5
78C
  8
LOGO2
 10
408.9723115344
 20
20.8704944112
 30
0.0
  0
VERTEX
  5
78D
  8
LOGO2
 10
409.0581906554
 20
20.7640180264
 30
0.0
  0
VERTEX
  5
78E
  8
LOGO2
 10
409.1502901944
 20
20.6615781119
 30
0.0
  0
VERTEX
  5
78F
  8
LOGO2
 10
409.2485467458
 20
20.5632451922
 30
0.0
  0
VERTEX
  5
790
  8
LOGO2
 10
409.3528926653
 20
20.469086964
 30
0.0
  0
VERTEX
  5
791
  8
LOGO2
 10
409.4632561164
 20
20.3791682501
 30
0.0
  0
VERTEX
  5
792
  8
LOGO2
 10
409.57956112
 20
20.2935509548
 30
0.0
  0
VERTEX
  5
793
  8
LOGO2
 10
409.7017276063
 20
20.2122940208
 30
0.0
  0
VERTEX
  5
794
  8
LOGO2
 10
409.8296714705
 20
20.135453389
 30
0.0
  0
VERTEX
  5
795
  8
LOGO2
 10
409.96330463
 20
20.0630819602
 30
0.0
  0
VERTEX
  5
796
  8
LOGO2
 10
410.1025350859
 20
19.995229558
 30
0.0
  0
VERTEX
  5
797
  8
LOGO2
 10
410.2472669855
 20
19.9319428951
 30
0.0
  0
VERTEX
  5
798
  8
LOGO2
 10
410.3974006888
 20
19.873265541
 30
0.0
  0
VERTEX
  5
799
  8
LOGO2
 10
410.552832837
 20
19.8192378918
 30
0.0
  0
VERTEX
  5
79A
  8
LOGO2
 10
410.7134564234
 20
19.7698971426
 30
0.0
  0
VERTEX
  5
79B
  8
LOGO2
 10
410.8791608675
 20
19.7252772618
 30
0.0
  0
VERTEX
  5
79C
  8
LOGO2
 10
411.0498320909
 20
19.6854089677
 30
0.0
  0
VERTEX
  5
79D
  8
LOGO2
 10
411.2253525957
 20
19.6503197076
 30
0.0
  0
VERTEX
  5
79E
  8
LOGO2
 10
411.4056015456
 20
19.6200336384
 30
0.0
  0
VERTEX
  5
79F
  8
LOGO2
 10
411.5904548491
 20
19.5945716105
 30
0.0
  0
VERTEX
  5
7A0
  8
LOGO2
 10
411.7797852446
 20
19.5739511531
 30
0.0
  0
VERTEX
  5
7A1
  8
LOGO2
 10
411.9734623887
 20
19.5581864621
 30
0.0
  0
VERTEX
  5
7A2
  8
LOGO2
 10
412.1713529451
 20
19.5472883909
 30
0.0
  0
VERTEX
  5
7A3
  8
LOGO2
 10
412.3733206769
 20
19.5412644421
 30
0.0
  0
VERTEX
  5
7A4
  8
LOGO2
 10
412.5792265405
 20
19.5401187628
 30
0.0
  0
VERTEX
  5
7A5
  8
LOGO2
 10
412.7889287809
 20
19.5438521418
 30
0.0
  0
VERTEX
  5
7A6
  8
LOGO2
 10
413.0022830294
 20
19.5524620088
 30
0.0
  0
VERTEX
  5
7A7
  8
LOGO2
 10
413.2191424034
 20
19.5659424365
 30
0.0
  0
VERTEX
  5
7A8
  8
LOGO2
 10
413.4393576069
 20
19.5842841443
 30
0.0
  0
VERTEX
  5
7A9
  8
LOGO2
 10
413.6627770339
 20
19.6074745049
 30
0.0
  0
VERTEX
  5
7AA
  8
LOGO2
 10
413.8892468723
 20
19.6354975531
 30
0.0
  0
VERTEX
  5
7AB
  8
LOGO2
 10
414.1186112099
 20
19.6683339965
 30
0.0
  0
VERTEX
  5
7AC
  8
LOGO2
 10
414.3507121418
 20
19.7059612289
 30
0.0
  0
VERTEX
  5
7AD
  8
LOGO2
 10
414.5853898793
 20
19.7483533462
 30
0.0
  0
VERTEX
  5
7AE
  8
LOGO2
 10
414.8224828595
 20
19.7954811636
 30
0.0
  0
VERTEX
  5
7AF
  8
LOGO2
 10
415.0618278569
 20
19.8473122362
 30
0.0
  0
VERTEX
  5
7B0
  8
LOGO2
 10
415.3032600954
 20
19.9038108811
 30
0.0
  0
VERTEX
  5
7B1
  8
LOGO2
 10
415.5466133622
 20
19.9649382022
 30
0.0
  0
VERTEX
  5
7B2
  8
LOGO2
 10
415.7917201218
 20
20.0306521165
 30
0.0
  0
VERTEX
  5
7B3
  8
LOGO2
 10
416.0384116315
 20
20.1009073837
 30
0.0
  0
VERTEX
  5
7B4
  8
LOGO2
 10
416.2865180577
 20
20.1756556368
 30
0.0
  0
VERTEX
  5
7B5
  8
LOGO2
 10
416.5358685928
 20
20.2548454157
 30
0.0
  0
VERTEX
  5
7B6
  8
LOGO2
 10
416.7862915723
 20
20.3384222026
 30
0.0
  0
VERTEX
  5
7B7
  8
LOGO2
 10
417.0376145938
 20
20.4263284594
 30
0.0
  0
VERTEX
  5
7B8
  8
LOGO2
 10
417.2896646351
 20
20.5185036674
 30
0.0
  0
VERTEX
  5
7B9
  8
LOGO2
 10
417.5422681735
 20
20.6148843691
 30
0.0
  0
VERTEX
  5
7BA
  8
LOGO2
 10
417.7952513051
 20
20.7154042116
 30
0.0
  0
VERTEX
  5
7BB
  8
LOGO2
 10
418.048439865
 20
20.8199939925
 30
0.0
  0
VERTEX
  5
7BC
  8
LOGO2
 10
418.3016595467
 20
20.9285817074
 30
0.0
  0
VERTEX
  5
7BD
  8
LOGO2
 10
418.554736022
 20
21.0410925996
 30
0.0
  0
VERTEX
  5
7BE
  8
LOGO2
 10
418.8074950619
 20
21.1574492114
 30
0.0
  0
VERTEX
  5
7BF
  8
LOGO2
 10
419.0597626553
 20
21.2775714378
 30
0.0
  0
VERTEX
  5
7C0
  8
LOGO2
 10
419.3113651299
 20
21.401376581
 30
0.0
  0
VERTEX
  5
7C1
  8
LOGO2
 10
419.562129271
 20
21.5287794081
 30
0.0
  0
VERTEX
  5
7C2
  8
LOGO2
 10
419.8118824413
 20
21.6596922091
 30
0.0
  0
VERTEX
  5
7C3
  8
LOGO2
 10
420.0604526992
 20
21.7940248576
 30
0.0
  0
VERTEX
  5
7C4
  8
LOGO2
 10
420.3076689178
 20
21.9316848731
 30
0.0
  0
VERTEX
  5
7C5
  8
LOGO2
 10
420.5533609022
 20
22.072577484
 30
0.0
  0
VERTEX
  5
7C6
  8
LOGO2
 10
420.7973595067
 20
22.2166056936
 30
0.0
  0
VERTEX
  5
7C7
  8
LOGO2
 10
421.0394967518
 20
22.3636703461
 30
0.0
  0
VERTEX
  5
7C8
  8
LOGO2
 10
421.279605939
 20
22.5136701957
 30
0.0
  0
VERTEX
  5
7C9
  8
LOGO2
 10
421.5175217664
 20
22.6665019757
 30
0.0
  0
VERTEX
  5
7CA
  8
LOGO2
 10
421.7530804418
 20
22.8220604696
 30
0.0
  0
VERTEX
  5
7CB
  8
LOGO2
 10
421.986119796
 20
22.980238584
 30
0.0
  0
VERTEX
  5
7CC
  8
LOGO2
 10
422.2164793941
 20
23.1409274218
 30
0.0
  0
VERTEX
  5
7CD
  8
LOGO2
 10
422.444000646
 20
23.3040163576
 30
0.0
  0
VERTEX
  5
7CE
  8
LOGO2
 10
422.6685269158
 20
23.4693931135
 30
0.0
  0
VERTEX
  5
7CF
  8
LOGO2
 10
422.8899036294
 20
23.6369438366
 30
0.0
  0
VERTEX
  5
7D0
  8
LOGO2
 10
423.107978381
 20
23.8065531774
 30
0.0
  0
VERTEX
  5
7D1
  8
LOGO2
 10
423.3226010381
 20
23.9781043691
 30
0.0
  0
VERTEX
  5
7D2
  8
LOGO2
 10
423.5336238445
 20
24.1514793082
 30
0.0
  0
VERTEX
  5
7D3
  8
LOGO2
 10
423.7409015228
 20
24.3265586353
 30
0.0
  0
VERTEX
  5
7D4
  8
LOGO2
 10
423.9442913734
 20
24.5032218179
 30
0.0
  0
VERTEX
  5
7D5
  8
LOGO2
 10
424.1436533735
 20
24.6813472331
 30
0.0
  0
VERTEX
  5
7D6
  8
LOGO2
 10
424.3388502734
 20
24.8608122513
 30
0.0
  0
VERTEX
  5
7D7
  8
LOGO2
 10
424.5297476905
 20
25.0414933205
 30
0.0
  0
VERTEX
  5
7D8
  8
LOGO2
 10
424.7162142025
 20
25.2232660516
 30
0.0
  0
VERTEX
  5
7D9
  8
LOGO2
 10
424.8981214372
 20
25.4060053042
 30
0.0
  0
VERTEX
  5
7DA
  8
LOGO2
 10
425.0753441616
 20
25.5895852722
 30
0.0
  0
VERTEX
  5
7DB
  8
LOGO2
 10
425.2477603673
 20
25.7738795707
 30
0.0
  0
VERTEX
  5
7DC
  8
LOGO2
 10
425.4152513553
 20
25.9587613233
 30
0.0
  0
VERTEX
  5
7DD
  8
LOGO2
 10
425.5777018172
 20
26.1441032488
 30
0.0
  0
VERTEX
  5
7DE
  8
LOGO2
 10
425.7349999146
 20
26.3297777496
 30
0.0
  0
VERTEX
  5
7DF
  8
LOGO2
 10
425.8870373564
 20
26.5156569988
 30
0.0
  0
VERTEX
  5
7E0
  8
LOGO2
 10
426.0337094731
 20
26.7016130287
 30
0.0
  0
VERTEX
  5
7E1
  8
LOGO2
 10
426.1749152891
 20
26.8875178187
 30
0.0
  0
VERTEX
  5
7E2
  8
LOGO2
 10
426.3105575916
 20
27.0732433836
 30
0.0
  0
VERTEX
  5
7E3
  8
LOGO2
 10
426.4405429985
 20
27.2586618614
 30
0.0
  0
VERTEX
  5
7E4
  8
LOGO2
 10
426.5647820219
 20
27.4436456016
 30
0.0
  0
VERTEX
  5
7E5
  8
LOGO2
 10
426.68318913
 20
27.6280672529
 30
0.0
  0
VERTEX
  5
7E6
  8
LOGO2
 10
426.795682806
 20
27.8117998512
 30
0.0
  0
SEQEND
  5
BD8
  8
LOGO2
  0
POLYLINE
  5
10B
  8
LOGO2
 66
     1
 10
0.0
 20
0.0
 30
0.0
  0
VERTEX
  5
7E7
  8
LOGO2
 10
413.2710437098
 20
29.597180582
 30
0.0
  0
VERTEX
  5
7E8
  8
LOGO2
 10
413.0526097291
 20
29.4267264259
 30
0.0
  0
VERTEX
  5
7E9
  8
LOGO2
 10
412.8376708749
 20
29.2543312497
 30
0.0
  0
VERTEX
  5
7EA
  8
LOGO2
 10
412.6263761719
 20
29.0801145808
 30
0.0
  0
VERTEX
  5
7EB
  8
LOGO2
 10
412.4188721182
 20
28.9041972097
 30
0.0
  0
VERTEX
  5
7EC
  8
LOGO2
 10
412.2153025834
 20
28.7267011062
 30
0.0
  0
SEQEND
  5
BD7
  8
LOGO2
  0
POLYLINE
  5
10C
  8
LOGO2
 66
     1
 10
0.0
 20
0.0
 30
0.0
  0
VERTEX
  5
7ED
  8
LOGO2
 10
424.2120354815
 20
33.6963047728
 30
0.0
  0
VERTEX
  5
7EE
  8
LOGO2
 10
424.0115497847
 20
33.7072654509
 30
0.0
  0
VERTEX
  5
7EF
  8
LOGO2
 10
423.8068850987
 20
33.7132264566
 30
0.0
  0
VERTEX
  5
7F0
  8
LOGO2
 10
423.5981859496
 20
33.7141835806
 30
0.0
  0
VERTEX
  5
7F1
  8
LOGO2
 10
423.3855997123
 20
33.710136147
 30
0.0
  0
VERTEX
  5
7F2
  8
LOGO2
 10
423.1692765068
 20
33.7010870138
 30
0.0
  0
VERTEX
  5
7F3
  8
LOGO2
 10
422.9493690921
 20
33.6870425713
 30
0.0
  0
VERTEX
  5
7F4
  8
LOGO2
 10
422.726032758
 20
33.668012737
 30
0.0
  0
VERTEX
  5
7F5
  8
LOGO2
 10
422.4994252158
 20
33.6440109491
 30
0.0
  0
VERTEX
  5
7F6
  8
LOGO2
 10
422.2697064868
 20
33.6150541567
 30
0.0
  0
VERTEX
  5
7F7
  8
LOGO2
 10
422.0370387891
 20
33.5811628079
 30
0.0
  0
VERTEX
  5
7F8
  8
LOGO2
 10
421.8015864236
 20
33.5423608355
 30
0.0
  0
VERTEX
  5
7F9
  8
LOGO2
 10
421.5635156573
 20
33.4986756398
 30
0.0
  0
VERTEX
  5
7FA
  8
LOGO2
 10
421.3229946064
 20
33.4501380696
 30
0.0
  0
VERTEX
  5
7FB
  8
LOGO2
 10
421.0801931172
 20
33.3967824003
 30
0.0
  0
VERTEX
  5
7FC
  8
LOGO2
 10
420.8352826467
 20
33.3386463094
 30
0.0
  0
VERTEX
  5
7FD
  8
LOGO2
 10
420.5884361408
 20
33.2757708505
 30
0.0
  0
VERTEX
  5
7FE
  8
LOGO2
 10
420.3398279128
 20
33.2082004235
 30
0.0
  0
VERTEX
  5
7FF
  8
LOGO2
 10
420.0896335199
 20
33.1359827442
 30
0.0
  0
VERTEX
  5
800
  8
LOGO2
 10
419.8380296396
 20
33.0591688097
 30
0.0
  0
VERTEX
  5
801
  8
LOGO2
 10
419.5851939444
 20
32.9778128631
 30
0.0
  0
VERTEX
  5
802
  8
LOGO2
 10
419.3313049769
 20
32.8919723546
 30
0.0
  0
VERTEX
  5
803
  8
LOGO2
 10
419.0765420235
 20
32.8017079014
 30
0.0
  0
VERTEX
  5
804
  8
LOGO2
 10
418.8210849877
 20
32.7070832447
 30
0.0
  0
VERTEX
  5
805
  8
LOGO2
 10
418.565114263
 20
32.6081652047
 30
0.0
  0
VERTEX
  5
806
  8
LOGO2
 10
418.3088106059
 20
32.5050236334
 30
0.0
  0
VERTEX
  5
807
  8
LOGO2
 10
418.0523550078
 20
32.3977313652
 30
0.0
  0
VERTEX
  5
808
  8
LOGO2
 10
417.7959285675
 20
32.2863641658
 30
0.0
  0
VERTEX
  5
809
  8
LOGO2
 10
417.5397123632
 20
32.1710006782
 30
0.0
  0
VERTEX
  5
80A
  8
LOGO2
 10
417.2838873247
 20
32.0517223675
 30
0.0
  0
VERTEX
  5
80B
  8
LOGO2
 10
417.0286341054
 20
31.9286134633
 30
0.0
  0
VERTEX
  5
80C
  8
LOGO2
 10
416.774132955
 20
31.8017609004
 30
0.0
  0
VERTEX
  5
80D
  8
LOGO2
 10
416.5205635921
 20
31.6712542568
 30
0.0
  0
VERTEX
  5
80E
  8
LOGO2
 10
416.2681050774
 20
31.5371856913
 30
0.0
  0
VERTEX
  5
80F
  8
LOGO2
 10
416.0169356871
 20
31.3996498778
 30
0.0
  0
SEQEND
  5
BD6
  8
LOGO2
  0
POLYLINE
  5
10D
  8
SLD-0
 66
     1
 10
0.0
 20
0.0
 30
0.0
  0
VERTEX
  5
810
  8
SLD-0
 10
426.5548174661
 20
32.9970294916
 30
0.0
  0
VERTEX
  5
811
  8
SLD-0
 10
426.4605943977
 20
33.0576993471
 30
0.0
  0
VERTEX
  5
812
  8
SLD-0
 10
426.3630464048
 20
33.1158137937
 30
0.0
  0
SEQEND
  5
BD5
  8
SLD-0
  0
INSERT
  5
10E
  8
0
  6
CONTINUOUS
 62
     6
  2
BLOC2
 10
530.3954163704
 20
12.7407193599
 30
0.0
 41
1.75
 42
1.75
 43
1.75
  0
TEXT
  5
10F
  8
PV
 62
     7
 10
31.5906613835
 20
6.0357881054
 30
0.0
 40
3.0
  1
H
 41
0.7
 11
31.5906613835
 21
4.9760079196
 31
0.0
 73
     1
  0
TEXT
  5
110
  8
PV
 62
     7
 10
106.5906613835
 20
6.0357881054
 30
0.0
 40
3.0
  1
G
 41
0.7
 11
106.5906613835
 21
4.9760079196
 31
0.0
 73
     1
  0
TEXT
  5
111
  8
PV
 62
     7
 10
180.5906613835
 20
6.0357881054
 30
0.0
 40
3.0
  1
F
 41
0.7
 11
180.5906613835
 21
4.9760079196
 31
0.0
 73
     1
  0
TEXT
  5
112
  8
PV
 62
     7
 10
254.5906613835
 20
6.0357881054
 30
0.0
 40
3.0
  1
E
 41
0.7
 11
254.5906613835
 21
4.9760079196
 31
0.0
 73
     1
  0
TEXT
  5
113
  8
PV
 62
     7
 10
328.5906613835
 20
6.0357881054
 30
0.0
 40
3.0
  1
D
 41
0.7
 11
328.5906613835
 21
4.9760079196
 31
0.0
 73
     1
  0
TEXT
  5
114
  8
PV
 62
     7
 10
585.5906613835
 20
81.0357881054
 30
0.0
 40
3.0
  1
2
 41
0.7
 11
585.5906613835
 21
79.9760079196
 31
0.0
 73
     1
  0
TEXT
  5
115
  8
PV
 62
     7
 10
585.5906613835
 20
134.0357881054
 30
0.0
 40
3.0
  1
3
 41
0.7
 11
585.5906613835
 21
132.9760079196
 31
0.0
 73
     1
  0
TEXT
  5
116
  8
PV
 62
     7
 10
585.5906613835
 20
291.0357881054
 30
0.0
 40
3.0
  1
6
 41
0.7
 11
585.5906613835
 21
289.9760079196
 31
0.0
 73
     1
  0
TEXT
  5
117
  8
PV
 62
     7
 10
585.5906613835
 20
239.0357881054
 30
0.0
 40
3.0
  1
5
 41
0.7
 11
585.5906613835
 21
237.9760079196
 31
0.0
 73
     1
  0
TEXT
  5
118
  8
PV
 62
     7
 10
585.5906613835
 20
344.0357881054
 30
0.0
 40
3.0
  1
7
 41
0.7
 11
585.5906613835
 21
342.9760079196
 31
0.0
 73
     1
  0
TEXT
  5
119
  8
PV
 62
     7
 10
585.5906613835
 20
186.0357881054
 30
0.0
 40
3.0
  1
4
 41
0.7
 11
585.5906613835
 21
184.9760079196
 31
0.0
 73
     1
  0
TEXT
  5
11A
  8
PV
 62
     7
 10
585.5906613835
 20
396.0357881054
 30
0.0
 40
3.0
  1
8
 41
0.7
 11
585.5906613835
 21
394.9760079196
 31
0.0
 73
     1
  0
TEXT
  5
11B
  8
PV
 62
     7
 10
402.5906613835
 20
6.0357881054
 30
0.0
 40
3.0
  1
C
 41
0.7
 11
402.5906613835
 21
4.9760079196
 31
0.0
 73
     1
  0
TEXT
  5
11C
  8
PV
 62
     7
 10
551.5906613835
 20
6.0357881054
 30
0.0
 40
3.0
  1
A
 41
0.7
 11
551.5906613835
 21
4.9760079196
 31
0.0
 73
     1
  0
TEXT
  5
11D
  8
PV
 62
     7
 10
477.5906613835
 20
6.0357881054
 30
0.0
 40
3.0
  1
B
 41
0.7
 11
477.5906613835
 21
4.9760079196
 31
0.0
 73
     1
  0
TEXT
  5
11E
  8
PV
 62
     7
 10
402.734339184
 20
410.122019872
 30
0.0
 40
3.0
  1
C
 41
0.7
 11
402.734339184
 21
409.0622396862
 31
0.0
 73
     1
  0
TEXT
  5
11F
  8
PV
 62
     7
 10
551.734339184
 20
410.122019872
 30
0.0
 40
3.0
  1
A
 41
0.7
 11
551.734339184
 21
409.0622396862
 31
0.0
 73
     1
  0
TEXT
  5
120
  8
PV
 62
     7
 10
328.734339184
 20
410.122019872
 30
0.0
 40
3.0
  1
D
 41
0.7
 11
328.734339184
 21
409.0622396862
 31
0.0
 73
     1
  0
TEXT
  5
121
  8
PV
 62
     7
 10
477.734339184
 20
410.122019872
 30
0.0
 40
3.0
  1
B
 41
0.7
 11
477.734339184
 21
409.0622396862
 31
0.0
 73
     1
  0
TEXT
  5
122
  8
PV
 62
     7
 10
31.734339184
 20
410.122019872
 30
0.0
 40
3.0
  1
H
 41
0.7
 11
31.734339184
 21
409.0622396862
 31
0.0
 73
     1
  0
TEXT
  5
123
  8
PV
 62
     7
 10
180.734339184
 20
410.122019872
 30
0.0
 40
3.0
  1
F
 41
0.7
 11
180.734339184
 21
409.0622396862
 31
0.0
 73
     1
  0
TEXT
  5
124
  8
PV
 62
     7
 10
254.734339184
 20
410.122019872
 30
0.0
 40
3.0
  1
E
 41
0.7
 11
254.734339184
 21
409.0622396862
 31
0.0
 73
     1
  0
TEXT
  5
125
  8
PV
 62
     7
 10
106.734339184
 20
410.122019872
 30
0.0
 40
3.0
  1
G
 41
0.7
 11
106.734339184
 21
409.0622396862
 31
0.0
 73
     1
  0
TEXT
  5
126
  8
PV
 62
     7
 10
7.5898200332
 20
28.9294140772
 30
0.0
 40
3.0
  1
1
 41
0.7
 11
7.5898200332
 21
27.8696338914
 31
0.0
 73
     1
  0
TEXT
  5
127
  8
PV
 62
     7
 10
7.5898200332
 20
343.9294140772
 30
0.0
 40
3.0
  1
7
 41
0.7
 11
7.5898200332
 21
342.8696338914
 31
0.0
 73
     1
  0
TEXT
  5
128
  8
PV
 62
     7
 10
7.5898200332
 20
80.9294140772
 30
0.0
 40
3.0
  1
2
 41
0.7
 11
7.5898200332
 21
79.8696338914
 31
0.0
 73
     1
  0
TEXT
  5
129
  8
PV
 62
     7
 10
7.5898200332
 20
133.9294140772
 30
0.0
 40
3.0
  1
3
 41
0.7
 11
7.5898200332
 21
132.8696338914
 31
0.0
 73
     1
  0
TEXT
  5
12A
  8
PV
 62
     7
 10
7.5898200332
 20
185.9294140772
 30
0.0
 40
3.0
  1
4
 41
0.7
 11
7.5898200332
 21
184.8696338914
 31
0.0
 73
     1
  0
TEXT
  5
12B
  8
PV
 62
     7
 10
7.5898200332
 20
238.9294140772
 30
0.0
 40
3.0
  1
5
 41
0.7
 11
7.5898200332
 21
237.8696338914
 31
0.0
 73
     1
  0
TEXT
  5
12C
  8
PV
 62
     7
 10
7.5898200332
 20
290.9294140772
 30
0.0
 40
3.0
  1
6
 41
0.7
 11
7.5898200332
 21
289.8696338914
 31
0.0
 73
     1
  0
TEXT
  5
12D
  8
PV
 62
     7
 10
7.5898200332
 20
395.9294140772
 30
0.0
 40
3.0
  1
8
 41
0.7
 11
7.5898200332
 21
394.8696338914
 31
0.0
 73
     1
  0
INSERT
  5
135
  8
PV
  2
SW_NOTE_0
 10
588.3870939717
 20
11.0037358829
 30
0.0
  0
TEXT
  5
136
  8
PV
 10
440.1644629696
 20
12.4259233494
 30
0.0
 40
4.4
  1
41.8634 . 01 . PA . 01
 41
0.6045454545
 11
440.1644629696
 21
10.8715790769
 31
0.0
 73
     1
  0
TEXT
  5
137
  8
PV
 10
566.3652583984
 20
38.1444864892
 30
0.0
 40
2.0
  1
X
 41
0.7
 11
566.3652583984
 21
37.4379663654
 31
0.0
 73
     1
  0
TEXT
  5
138
  8
PV
 10
566.3258344188
 20
42.1363209952
 30
0.0
 40
2.0
  1
X
 41
0.7
 11
566.3258344188
 21
41.4298008714
 31
0.0
 73
     1
  0
TEXT
  5
139
  8
PV
 10
566.3258344188
 20
46.0546768622
 30
0.0
 40
2.0
  1
X
 41
0.7
 11
566.3258344188
 21
45.3481567384
 31
0.0
 73
     1
  0
TEXT
  5
13A
  8
PV
 10
566.3258344188
 20
50.08827849
 30
0.0
 40
2.0
  1
X 
 41
0.7
 11
566.3258344188
 21
49.3817583662
 31
0.0
 73
     1
  0
TEXT
  5
13B
  8
PV
 10
577.5861797188
 20
37.9128664824
 30
0.0
 40
2.0
  1
X
 41
0.7
 11
577.5861797188
 21
37.2063463586
 31
0.0
 73
     1
  0
TEXT
  5
13C
  8
PV
 10
577.5823974363
 20
45.8737807329
 30
0.0
 40
2.0
  1
X
 41
0.7
 11
577.5823974363
 21
45.167260609
 31
0.0
 73
     1
  0
TEXT
  5
13D
  8
PV
 10
577.5632959845
 20
49.870998212
 30
0.0
 40
2.0
  1
X
 41
0.7
 11
577.5632959845
 21
49.1644780882
 31
0.0
 73
     1
  0
TEXT
  5
13E
  8
PV
 10
577.5632959845
 20
41.9190407172
 30
0.0
 40
2.0
  1
X
 41
0.7
 11
577.5632959845
 21
41.2125205934
 31
0.0
 73
     1
  0
TEXT
  5
13F
  8
PV
 10
425.6908145916
 20
38.0423135608
 30
0.0
 40
2.0
  1
X
 41
0.7
 11
425.6908145916
 21
37.3357934369
 31
0.0
 73
     1
  0
TEXT
  5
140
  8
PV
 10
425.6908145916
 20
42.0439024773
 30
0.0
 40
2.0
  1
X
 41
0.7
 11
425.6908145916
 21
41.3373823534
 31
0.0
 73
     1
  0
TEXT
  5
141
  8
PV
 10
425.6908145916
 20
46.0070761402
 30
0.0
 40
2.0
  1
X
 41
0.7
 11
425.6908145916
 21
45.3005560163
 31
0.0
 73
     1
  0
TEXT
  5
142
  8
PV
 10
425.6908145916
 20
49.9830548876
 30
0.0
 40
2.0
  1
X
 41
0.7
 11
425.6908145916
 21
49.2765347637
 31
0.0
 73
     1
  0
TEXT
  5
143
  8
PV
 10
415.3290735668
 20
38.0423135608
 30
0.0
 40
2.0
  1
X
 41
0.7
 11
415.3290735668
 21
37.3357934369
 31
0.0
 73
     1
  0
TEXT
  5
144
  8
PV
 10
415.3290735668
 20
42.0250797452
 30
0.0
 40
2.0
  1
X
 41
0.7
 11
415.3290735668
 21
41.3185596213
 31
0.0
 73
     1
  0
TEXT
  5
145
  8
PV
 10
415.3021194023
 20
46.0186673927
 30
0.0
 40
2.0
  1
X
 41
0.7
 11
415.3021194023
 21
45.3121472689
 31
0.0
 73
     1
  0
TEXT
  5
146
  8
PV
 10
415.3278460582
 20
49.980242329
 30
0.0
 40
2.0
  1
X
 41
0.7
 11
415.3278460582
 21
49.2737222051
 31
0.0
 73
     1
  0
TEXT
  5
147
  8
PV
 10
398.8931852708
 20
38.0475629607
 30
0.0
 40
2.0
  1
X
 41
0.7
 11
398.8931852708
 21
37.3410428368
 31
0.0
 73
     1
  0
TEXT
  5
148
  8
PV
 10
398.9013453163
 20
42.0051922702
 30
0.0
 40
2.0
  1
X
 41
0.7
 11
398.9013453163
 21
41.2986721464
 31
0.0
 73
     1
  0
TEXT
  5
149
  8
PV
 10
398.8931852708
 20
46.0197658864
 30
0.0
 40
2.0
  1
X
 41
0.7
 11
398.8931852708
 21
45.3132457626
 31
0.0
 73
     1
  0
TEXT
  5
14A
  8
PV
 10
398.8931852708
 20
49.977395196
 30
0.0
 40
2.0
  1
X
 41
0.7
 11
398.8931852708
 21
49.2708750721
 31
0.0
 73
     1
  0
TEXT
  5
14B
  8
PV
 10
438.9278781482
 20
33.7310753856
 30
0.0
 40
2.2
  1
PROD. NAME : VIO
 41
0.634375
 11
438.9278781482
 21
32.9539032493
 31
0.0
 73
     1
  0
TEXT
  5
14C
  8
PV
 10
438.903305149
 20
21.9350671487
 30
0.0
 40
2.0
  1
MATERIAL: -
 41
0.7
 11
438.903305149
 21
21.2285470248
 31
0.0
 73
     1
  0
TEXT
  5
14D
  8
PV
 10
566.3258344188
 20
54.0133275694
 30
0.0
 40
2.0
  1
01
 41
0.7
 11
566.3258344188
 21
53.3068074456
 31
0.0
 73
     1
  0
TEXT
  5
14E
  8
PV
 10
577.5632959845
 20
54.0133275694
 30
0.0
 40
2.0
  1
01
 41
0.7
 11
577.5632959845
 21
53.3068074456
 31
0.0
 73
     1
  0
TEXT
  5
14F
  8
PV
 10
425.9159366751
 20
53.9553585312
 30
0.0
 40
2.0
  1
UPDATE NAMES
 41
0.7
 11
425.9159366751
 21
53.2488384073
 31
0.0
 73
     1
  0
TEXT
  5
150
  8
PV
 10
415.2412218154
 20
53.5890338952
 30
0.0
 40
2.0
  1
PR
 41
0.7
 11
415.2412218154
 21
52.8825137713
 31
0.0
 73
     1
  0
TEXT
  5
151
  8
PV
 10
397.6749058147
 20
66.5681613329
 30
0.0
 40
2.0
  1
THIS DRAWING IS THE PROPERTY OF BEA AND MAY NOT BE REPRODUCED WITHOUT WRITTEN AGREEMENT
 41
0.6436781609
 11
397.6749058147
 21
65.8616412091
 31
0.0
 73
     1
  0
TEXT
  5
152
  8
PV
 10
475.7550930738
 20
61.7798465232
 30
0.0
 40
2.2
  1
MODIFICATIONS LIST
 41
0.7
 11
475.7550930738
 21
61.002674387
 31
0.0
 73
     1
  0
TEXT
  5
153
  8
PV
 10
575.5376015728
 20
58.0849600282
 30
0.0
 40
2.0
  1
Rev :
 41
0.7
 11
575.5376015728
 21
57.3784399043
 31
0.0
 73
     1
  0
TEXT
  5
154
  8
PV
 10
564.3433691488
 20
58.0849600282
 30
0.0
 40
2.0
  1
Ver :
 41
0.7
 11
564.3433691488
 21
57.3784399043
 31
0.0
 73
     1
  0
TEXT
  5
155
  8
PV
 10
425.7545021544
 20
58.2391520443
 30
0.0
 40
2.0
  1
Description :
 41
0.7
 11
425.7545021544
 21
57.5326319205
 31
0.0
 73
     1
  0
TEXT
  5
156
  8
PV
 10
415.5113620632
 20
58.2699361648
 30
0.0
 40
2.0
  1
By :
 41
0.7
 11
415.5113620632
 21
57.563416041
 31
0.0
 73
     1
  0
TEXT
  5
157
  8
PV
 10
399.0593828123
 20
53.9914748582
 30
0.0
 40
2.0
  1
10/05/13
 41
0.7
 11
399.0593828123
 21
53.2849547343
 31
0.0
 73
     1
  0
TEXT
  5
158
  8
PV
 10
399.2961353124
 20
58.2157968739
 30
0.0
 40
2.0
  1
Date : 
 41
0.6
 11
399.2961353124
 21
57.50927675
 31
0.0
 73
     1
  0
TEXT
  5
159
  8
PV
 10
438.9381013623
 20
29.7608788228
 30
0.0
 40
2.2
  1
TITLE : VIO-D AND VIO-S EXTERNAL DIMENSIONS 
 41
0.6443181818
 11
438.9381013623
 21
28.9837066866
 31
0.0
 73
     1
  0
TEXT
  5
15A
  8
PV
 10
503.5896023692
 20
12.4259233494
 30
0.0
 40
4.4
  1
1:1
 41
0.7
 11
503.5896023692
 21
10.8715790769
 31
0.0
 73
     1
  0
TEXT
  5
15B
  8
PV
 10
519.2785220064
 20
18.5077268693
 30
0.0
 40
2.0
  1
Size
 41
0.7
 11
519.2785220064
 21
17.8012067455
 31
0.0
 73
     1
  0
TEXT
  5
15C
  8
PV
 10
551.4220571214
 20
33.9870724198
 30
0.0
 40
2.0
  1
DRAWER : PR
 41
0.6363636364
 11
551.4220571214
 21
33.2805522959
 31
0.0
 73
     1
  0
TEXT
  5
15D
  8
PV
 10
551.2682014054
 20
29.9774171753
 30
0.0
 40
2.0
  1
DATE : 31/10/2012
 41
0.6588235294
 11
551.2682014054
 21
29.2708970514
 31
0.0
 73
     1
  0
TEXT
  5
15E
  8
PV
 10
438.8881976778
 20
25.8943087891
 30
0.0
 40
2.0
  1
GENERAL TOLERANCE : -
 41
0.65
 11
438.8881976778
 21
25.1877886652
 31
0.0
 73
     1
  0
TEXT
  5
15F
  8
PV
 10
494.111551359
 20
21.9018847062
 30
0.0
 40
2.0
  1
TREATEMENT: -
 41
0.7
 11
494.111551359
 21
21.1953645824
 31
0.0
 73
     1
  0
TEXT
  5
160
  8
PV
 10
567.6364963493
 20
25.9373274209
 30
0.0
 40
2.0
  1
APPROVED
 41
0.7
 11
567.6364963493
 21
25.2308072971
 31
0.0
 73
     1
  0
TEXT
  5
161
  8
PV
 10
551.3495274681
 20
25.9419144624
 30
0.0
 40
2.0
  1
VERIFIED
 41
0.7
 11
551.3495274681
 21
25.2353943385
 31
0.0
 73
     1
  0
TEXT
  5
162
  8
PV
 10
554.175286699
 20
12.4598651287
 30
0.0
 40
3.5
  1
PAGE: 1 / 1
 41
0.6045454545
 11
554.175286699
 21
11.223454912
 31
0.0
 73
     1
  0
TEXT
  5
163
  8
PV
 10
463.5434512114
 20
18.4938380558
 30
0.0
 40
2.0
  1
Ver.Obj
 41
0.7
 11
463.5434512114
 21
17.7873179319
 31
0.0
 73
     1
  0
TEXT
  5
164
  8
PV
 10
446.8465795598
 20
18.4938380558
 30
0.0
 40
2.0
  1
Objet 
 41
0.7
 11
446.8465795598
 21
17.7873179319
 31
0.0
 73
     1
  0
TEXT
  5
165
  8
PV
 10
477.576042655
 20
18.4938380558
 30
0.0
 40
2.0
  1
Doc. 
 41
0.7
 11
477.576042655
 21
17.7873179319
 31
0.0
 73
     1
  0
TEXT
  5
166
  8
LOGO1
 10
408.8437921985
 20
12.9887719592
 30
0.0
 40
1.3229166667
  1
WWW.BEA.BE
 41
0.7
 11
408.8437921985
 21
12.5214383356
 31
0.0
 73
     1
  0
TEXT
  5
167
  8
PV
 10
487.577222462
 20
18.4938380558
 30
0.0
 40
2.0
  1
Rev.Doc. 
 41
0.7
 11
487.577222462
 21
17.7873179319
 31
0.0
 73
     1
  0
TEXT
  5
168
  8
PV
 10
397.6749058147
 20
71.3683641607
 30
0.0
 40
2.0
  1
Part Volume :   mm³  - Part Weight :  gr
 41
0.595
 11
397.6749058147
 21
70.6618440369
 31
0.0
 73
     1
  0
TEXT
  5
169
  8
PV
 10
504.1844303947
 20
18.5077268693
 30
0.0
 40
2.0
  1
Scale
 41
0.7
 11
504.1844303947
 21
17.8012067455
 31
0.0
 73
     1
  0
TEXT
  5
16A
  8
PV
 10
517.9979928146
 20
12.4866021583
 30
0.0
 40
4.4
  1
A2
 41
0.7
 11
517.9979928146
 21
10.9322578859
 31
0.0
 73
     1
  0
INSERT
  5
171
  8
SLD-0
  2
SW_NOTE_1
 10
401.3220164304
 20
14.9354909382
 30
0.0
  0
LINE
  5
172
  8
0
  6
CONTINUOUS
 62
     7
 10
455.8318462657
 20
201.0751045158
 30
0.0
 11
458.5482832478
 21
201.0751045158
 31
0.0
  0
LINE
  5
173
  8
0
  6
CONTINUOUS
 62
     7
 10
455.7700064467
 20
202.8439271811
 30
0.0
 11
455.8197912263
 21
201.4176655133
 31
0.0
  0
LINE
  5
174
  8
0
  6
CONTINUOUS
 62
     7
 10
455.8307137774
 20
201.1045679823
 30
0.0
 11
455.832427411
 21
201.0555427254
 31
0.0
  0
LINE
  5
175
  8
0
  6
CONTINUOUS
 62
     7
 10
458.5477021025
 20
201.0583854712
 30
0.0
 11
458.5493114279
 21
201.1045679823
 31
0.0
  0
LINE
  5
176
  8
0
  6
CONTINUOUS
 62
     7
 10
458.6100187587
 20
202.8751044849
 30
0.0
 11
458.7276932286
 21
202.8751044849
 31
0.0
  0
POLYLINE
  5
177
  8
0
  6
CONTINUOUS
 62
     7
 66
     1
 10
0.0
 20
0.0
 30
0.0
  0
VERTEX
  5
813
  8
0
  6
CONTINUOUS
 62
     7
 10
321.9149727808
 20
217.861056662
 30
0.0
  0
VERTEX
  5
814
  8
0
  6
CONTINUOUS
 62
     7
 10
322.2472351478
 20
217.8056504194
 30
0.0
  0
VERTEX
  5
815
  8
0
  6
CONTINUOUS
 62
     7
 10
322.5809950815
 20
217.7500336979
 30
0.0
  0
SEQEND
  5
BD4
  8
0
  6
CONTINUOUS
 62
     7
  0
LINE
  5
178
  8
0
  6
CONTINUOUS
 62
     7
 10
265.3024411263
 20
225.5017555866
 30
0.0
 11
265.3858294213
 21
225.5016363773
 31
0.0
  0
LINE
  5
179
  8
0
  6
CONTINUOUS
 62
     7
 10
458.6900230931
 20
201.1045679823
 30
0.0
 11
483.8018622683
 21
201.1045679823
 31
0.0
  0
LINE
  5
17A
  8
0
  6
CONTINUOUS
 62
     7
 10
377.1633189605
 20
201.1045679823
 30
0.0
 11
455.6900170134
 21
201.1045679823
 31
0.0
  0
LINE
  5
17B
  8
0
  6
CONTINUOUS
 62
     7
 10
224.9883693145
 20
201.1045679823
 30
0.0
 11
331.8106104122
 21
201.1045679823
 31
0.0
  0
POLYLINE
  5
17C
  8
0
  6
CONTINUOUS
 62
     7
 66
     1
 10
0.0
 20
0.0
 30
0.0
  0
VERTEX
  5
816
  8
0
  6
CONTINUOUS
 62
     7
 10
455.8318164633
 20
211.1055258278
 30
0.0
  0
VERTEX
  5
817
  8
0
  6
CONTINUOUS
 62
     7
 10
455.8317270564
 20
208.4619406227
 30
0.0
  0
VERTEX
  5
818
  8
0
  6
CONTINUOUS
 62
     7
 10
455.8317568587
 20
205.5958564009
 30
0.0
  0
VERTEX
  5
819
  8
0
  6
CONTINUOUS
 62
     7
 10
455.8317717599
 20
204.4059767935
 30
0.0
  0
VERTEX
  5
81A
  8
0
  6
CONTINUOUS
 62
     7
 10
455.8318462657
 20
203.2469892723
 30
0.0
  0
VERTEX
  5
81B
  8
0
  6
CONTINUOUS
 62
     7
 10
455.831876068
 20
202.2072090616
 30
0.0
  0
VERTEX
  5
81C
  8
0
  6
CONTINUOUS
 62
     7
 10
455.8318462657
 20
201.4805661724
 30
0.0
  0
VERTEX
  5
81D
  8
0
  6
CONTINUOUS
 62
     7
 10
455.8319356726
 20
201.1110423622
 30
0.0
  0
VERTEX
  5
81E
  8
0
  6
CONTINUOUS
 62
     7
 10
455.8318462657
 20
201.0998221953
 30
0.0
  0
SEQEND
  5
BD3
  8
0
  6
CONTINUOUS
 62
     7
  0
POLYLINE
  5
17D
  8
0
  6
CONTINUOUS
 62
     7
 66
     1
 10
0.0
 20
0.0
 30
0.0
  0
VERTEX
  5
81F
  8
0
  6
CONTINUOUS
 62
     7
 10
458.5482832478
 20
201.1217754183
 30
0.0
  0
VERTEX
  5
820
  8
0
  6
CONTINUOUS
 62
     7
 10
458.5481640385
 20
201.1812517443
 30
0.0
  0
VERTEX
  5
821
  8
0
  6
CONTINUOUS
 62
     7
 10
458.5481938409
 20
201.613358236
 30
0.0
  0
VERTEX
  5
822
  8
0
  6
CONTINUOUS
 62
     7
 10
458.5481789397
 20
202.4595740217
 30
0.0
  0
VERTEX
  5
823
  8
0
  6
CONTINUOUS
 62
     7
 10
458.5481789397
 20
203.7747745484
 30
0.0
  0
VERTEX
  5
824
  8
0
  6
CONTINUOUS
 62
     7
 10
458.5482534455
 20
205.6507178198
 30
0.0
  0
VERTEX
  5
825
  8
0
  6
CONTINUOUS
 62
     7
 10
458.5482683467
 20
207.564706317
 30
0.0
  0
VERTEX
  5
826
  8
0
  6
CONTINUOUS
 62
     7
 10
458.5481491374
 20
209.4837700564
 30
0.0
  0
VERTEX
  5
827
  8
0
  6
CONTINUOUS
 62
     7
 10
458.5481640385
 20
211.1054373521
 30
0.0
  0
SEQEND
  5
BD2
  8
0
  6
CONTINUOUS
 62
     7
  0
LINE
  5
17E
  8
0
  6
CONTINUOUS
 62
     7
 10
455.7700064467
 20
202.8962717008
 30
0.0
 11
455.7700064467
 21
207.1857153054
 31
0.0
  0
LINE
  5
17F
  8
0
  6
CONTINUOUS
 62
     7
 10
455.7700064467
 20
207.9681180034
 30
0.0
 11
455.7700064467
 21
211.1055276904
 31
0.0
  0
LINE
  5
180
  8
0
  6
CONTINUOUS
 62
     7
 10
458.6100187587
 20
202.9052566353
 30
0.0
 11
458.6100187587
 21
211.1054354895
 31
0.0
  0
LINE
  5
181
  8
0
  6
CONTINUOUS
 62
     7
 10
458.5481789397
 20
201.1044522073
 30
0.0
 11
458.5483130501
 21
201.1080355291
 31
0.0
  0
POLYLINE
  5
182
  8
0
  6
CONTINUOUS
 62
     7
 66
     1
 10
0.0
 20
0.0
 30
0.0
  0
VERTEX
  5
828
  8
0
  6
CONTINUOUS
 62
     7
 10
485.4301419543
 20
211.1045805354
 30
0.0
  0
VERTEX
  5
829
  8
0
  6
CONTINUOUS
 62
     7
 10
485.4301270531
 20
211.1046410713
 30
0.0
  0
VERTEX
  5
82A
  8
0
  6
CONTINUOUS
 62
     7
 10
485.2874335335
 20
213.7251294766
 30
0.0
  0
VERTEX
  5
82B
  8
0
  6
CONTINUOUS
 62
     7
 10
484.7914185809
 20
222.9679341976
 30
0.0
  0
VERTEX
  5
82C
  8
0
  6
CONTINUOUS
 62
     7
 10
484.3088891791
 20
232.2012785438
 30
0.0
  0
VERTEX
  5
82D
  8
0
  6
CONTINUOUS
 62
     7
 10
483.9886930274
 20
238.462208173
 30
0.0
  0
VERTEX
  5
82E
  8
0
  6
CONTINUOUS
 62
     7
 10
483.6813267754
 20
244.695948771
 30
0.0
  0
VERTEX
  5
82F
  8
0
  6
CONTINUOUS
 62
     7
 10
483.4008422183
 20
250.8392206941
 30
0.0
  0
SEQEND
  5
BD1
  8
0
  6
CONTINUOUS
 62
     7
  0
LINE
  5
183
  8
0
  6
CONTINUOUS
 62
     7
 10
485.4301419543
 20
211.1045684282
 30
0.0
 11
484.7635236071
 21
211.1045684282
 31
0.0
  0
POLYLINE
  5
184
  8
0
  6
CONTINUOUS
 62
     7
 66
     1
 10
0.0
 20
0.0
 30
0.0
  0
VERTEX
  5
830
  8
0
  6
CONTINUOUS
 62
     7
 10
224.2935281681
 20
216.7289679486
 30
0.0
  0
VERTEX
  5
831
  8
0
  6
CONTINUOUS
 62
     7
 10
229.4773888277
 20
219.2467342678
 30
0.0
  0
VERTEX
  5
832
  8
0
  6
CONTINUOUS
 62
     7
 10
235.0010741936
 20
221.3039904449
 30
0.0
  0
VERTEX
  5
833
  8
0
  6
CONTINUOUS
 62
     7
 10
240.6859007167
 20
222.8908467654
 30
0.0
  0
VERTEX
  5
834
  8
0
  6
CONTINUOUS
 62
     7
 10
246.3992909031
 20
224.0435093258
 30
0.0
  0
VERTEX
  5
835
  8
0
  6
CONTINUOUS
 62
     7
 10
252.2117607729
 20
224.8337663326
 30
0.0
  0
VERTEX
  5
836
  8
0
  6
CONTINUOUS
 62
     7
 10
257.8907804998
 20
225.2980287734
 30
0.0
  0
VERTEX
  5
837
  8
0
  6
CONTINUOUS
 62
     7
 10
265.3528904045
 20
225.5031413946
 30
0.0
  0
VERTEX
  5
838
  8
0
  6
CONTINUOUS
 62
     7
 10
272.6796428176
 20
225.1683756325
 30
0.0
  0
VERTEX
  5
839
  8
0
  6
CONTINUOUS
 62
     7
 10
280.5665936755
 20
224.3508383248
 30
0.0
  0
VERTEX
  5
83A
  8
0
  6
CONTINUOUS
 62
     7
 10
288.8267189698
 20
223.2341639314
 30
0.0
  0
VERTEX
  5
83B
  8
0
  6
CONTINUOUS
 62
     7
 10
297.1865944998
 20
221.9582315151
 30
0.0
  0
VERTEX
  5
83C
  8
0
  6
CONTINUOUS
 62
     7
 10
304.7066647993
 20
220.7390054677
 30
0.0
  0
VERTEX
  5
83D
  8
0
  6
CONTINUOUS
 62
     7
 10
312.1772278534
 20
219.4941624615
 30
0.0
  0
VERTEX
  5
83E
  8
0
  6
CONTINUOUS
 62
     7
 10
317.1824235903
 20
218.653606585
 30
0.0
  0
VERTEX
  5
83F
  8
0
  6
CONTINUOUS
 62
     7
 10
322.9920026349
 20
217.6816019777
 30
0.0
  0
VERTEX
  5
840
  8
0
  6
CONTINUOUS
 62
     7
 10
329.242235093
 20
216.6508122895
 30
0.0
  0
VERTEX
  5
841
  8
0
  6
CONTINUOUS
 62
     7
 10
335.5880510496
 20
215.6316818286
 30
0.0
  0
VERTEX
  5
842
  8
0
  6
CONTINUOUS
 62
     7
 10
341.804010837
 20
214.6748829249
 30
0.0
  0
VERTEX
  5
843
  8
0
  6
CONTINUOUS
 62
     7
 10
349.7924488472
 20
213.5301356751
 30
0.0
  0
VERTEX
  5
844
  8
0
  6
CONTINUOUS
 62
     7
 10
357.5307932185
 20
212.5482590485
 30
0.0
  0
VERTEX
  5
845
  8
0
  6
CONTINUOUS
 62
     7
 10
364.8493793296
 20
211.7879869033
 30
0.0
  0
VERTEX
  5
846
  8
0
  6
CONTINUOUS
 62
     7
 10
371.9611373233
 20
211.2762828905
 30
0.0
  0
VERTEX
  5
847
  8
0
  6
CONTINUOUS
 62
     7
 10
378.4139138149
 20
211.1039230216
 30
0.0
  0
VERTEX
  5
848
  8
0
  6
CONTINUOUS
 62
     7
 10
384.5261391686
 20
211.1061311874
 30
0.0
  0
VERTEX
  5
849
  8
0
  6
CONTINUOUS
 62
     7
 10
390.6588983225
 20
211.1063044134
 30
0.0
  0
VERTEX
  5
84A
  8
0
  6
CONTINUOUS
 62
     7
 10
396.8067821549
 20
211.106545626
 30
0.0
  0
VERTEX
  5
84B
  8
0
  6
CONTINUOUS
 62
     7
 10
402.9691722678
 20
211.1066825304
 30
0.0
  0
VERTEX
  5
84C
  8
0
  6
CONTINUOUS
 62
     7
 10
432.1849849509
 20
211.1062941689
 30
0.0
  0
VERTEX
  5
84D
  8
0
  6
CONTINUOUS
 62
     7
 10
484.7635236071
 20
211.1045861233
 30
0.0
  0
SEQEND
  5
BD0
  8
0
  6
CONTINUOUS
 62
     7
  0
POLYLINE
  5
185
  8
0
  6
CONTINUOUS
 62
     7
 66
     1
 10
0.0
 20
0.0
 30
0.0
  0
VERTEX
  5
84E
  8
0
  6
CONTINUOUS
 62
     7
 10
224.2935281681
 20
216.7289679486
 30
0.0
  0
VERTEX
  5
84F
  8
0
  6
CONTINUOUS
 62
     7
 10
223.9553798424
 20
221.9926997635
 30
0.0
  0
VERTEX
  5
850
  8
0
  6
CONTINUOUS
 62
     7
 10
223.6068975614
 20
227.1383221809
 30
0.0
  0
SEQEND
  5
BCF
  8
0
  6
CONTINUOUS
 62
     7
  0
POLYLINE
  5
186
  8
0
  6
CONTINUOUS
 62
     7
 66
     1
 10
0.0
 20
0.0
 30
0.0
  0
VERTEX
  5
851
  8
0
  6
CONTINUOUS
 62
     7
 10
224.8811554598
 20
251.3342037413
 30
0.0
  0
VERTEX
  5
852
  8
0
  6
CONTINUOUS
 62
     7
 10
224.7521635579
 20
248.6391350243
 30
0.0
  0
VERTEX
  5
853
  8
0
  6
CONTINUOUS
 62
     7
 10
224.4698945867
 20
243.0776752148
 30
0.0
  0
VERTEX
  5
854
  8
0
  6
CONTINUOUS
 62
     7
 10
224.1612468349
 20
237.2903622303
 30
0.0
  0
VERTEX
  5
855
  8
0
  6
CONTINUOUS
 62
     7
 10
223.8876019107
 20
232.2574801359
 30
0.0
  0
VERTEX
  5
856
  8
0
  6
CONTINUOUS
 62
     7
 10
223.6068975614
 20
227.1383221809
 30
0.0
  0
SEQEND
  5
BCE
  8
0
  6
CONTINUOUS
 62
     7
  0
POLYLINE
  5
187
  8
0
  6
CONTINUOUS
 62
     7
 66
     1
 10
0.0
 20
0.0
 30
0.0
  0
VERTEX
  5
857
  8
0
  6
CONTINUOUS
 62
     7
 10
483.4008422183
 20
250.8392206941
 30
0.0
  0
VERTEX
  5
858
  8
0
  6
CONTINUOUS
 62
     7
 10
428.6018368291
 20
250.9531661484
 30
0.0
  0
VERTEX
  5
859
  8
0
  6
CONTINUOUS
 62
     7
 10
391.3716879176
 20
250.9515940759
 30
0.0
  0
VERTEX
  5
85A
  8
0
  6
CONTINUOUS
 62
     7
 10
354.1417327212
 20
251.0120220099
 30
0.0
  0
VERTEX
  5
85B
  8
0
  6
CONTINUOUS
 62
     7
 10
316.9088978754
 20
251.3080931816
 30
0.0
  0
VERTEX
  5
85C
  8
0
  6
CONTINUOUS
 62
     7
 10
279.6761263596
 20
251.6181975219
 30
0.0
  0
VERTEX
  5
85D
  8
0
  6
CONTINUOUS
 62
     7
 10
252.2772551017
 20
251.6546904657
 30
0.0
  0
VERTEX
  5
85E
  8
0
  6
CONTINUOUS
 62
     7
 10
224.8811554598
 20
251.3342037413
 30
0.0
  0
SEQEND
  5
BCD
  8
0
  6
CONTINUOUS
 62
     7
  0
LINE
  5
188
  8
0
  6
CONTINUOUS
 62
     7
 10
484.7635236071
 20
211.1045684282
 30
0.0
 11
484.7635236071
 21
211.1045861233
 31
0.0
  0
LINE
  5
189
  8
0
  6
CONTINUOUS
 62
     7
 10
484.6681859778
 20
211.1045684282
 30
0.0
 11
484.6807476567
 21
211.1045684282
 31
0.0
  0
POLYLINE
  5
18A
  8
0
  6
CONTINUOUS
 62
     7
 66
     1
 10
0.0
 20
0.0
 30
0.0
  0
VERTEX
  5
85F
  8
0
  6
CONTINUOUS
 62
     7
 10
484.6807476567
 20
211.1045181367
 30
0.0
  0
VERTEX
  5
860
  8
0
  6
CONTINUOUS
 62
     7
 10
446.5597328233
 20
211.1052510876
 30
0.0
  0
VERTEX
  5
861
  8
0
  6
CONTINUOUS
 62
     7
 10
409.7687658356
 20
211.1065921921
 30
0.0
  0
SEQEND
  5
BCC
  8
0
  6
CONTINUOUS
 62
     7
  0
LINE
  5
18B
  8
0
  6
CONTINUOUS
 62
     7
 10
266.4283174524
 20
225.4540048156
 30
0.0
 11
265.5942603448
 21
225.4591159139
 31
0.0
  0
LINE
  5
18C
  8
0
  6
CONTINUOUS
 62
     7
 10
245.4664279209
 20
223.8297354046
 30
0.0
 11
244.788013442
 21
223.7184386317
 31
0.0
  0
LINE
  5
18D
  8
0
  6
CONTINUOUS
 62
     7
 10
455.653091936
 20
209.5676738385
 30
0.0
 11
455.6463715123
 21
211.1055314157
 31
0.0
  0
POLYLINE
  5
18E
  8
0
  6
CONTINUOUS
 62
     7
 66
     1
 10
0.0
 20
0.0
 30
0.0
  0
VERTEX
  5
862
  8
0
  6
CONTINUOUS
 62
     7
 10
455.6668010043
 20
206.4233653795
 30
0.0
  0
VERTEX
  5
863
  8
0
  6
CONTINUOUS
 62
     7
 10
455.6633737372
 20
207.2084623936
 30
0.0
  0
VERTEX
  5
864
  8
0
  6
CONTINUOUS
 62
     7
 10
455.6616601037
 20
207.6025464188
 30
0.0
  0
VERTEX
  5
865
  8
0
  6
CONTINUOUS
 62
     7
 10
455.6607958363
 20
207.7996757429
 30
0.0
  0
VERTEX
  5
866
  8
0
  6
CONTINUOUS
 62
     7
 10
455.6603637027
 20
207.898262291
 30
0.0
  0
VERTEX
  5
867
  8
0
  6
CONTINUOUS
 62
     7
 10
455.6601550864
 20
207.9475609202
 30
0.0
  0
VERTEX
  5
868
  8
0
  6
CONTINUOUS
 62
     7
 10
455.6600507783
 20
207.9722116318
 30
0.0
  0
VERTEX
  5
869
  8
0
  6
CONTINUOUS
 62
     7
 10
455.6599911736
 20
207.984537686
 30
0.0
  0
VERTEX
  5
86A
  8
0
  6
CONTINUOUS
 62
     7
 10
455.6599613713
 20
207.9907002475
 30
0.0
  0
VERTEX
  5
86B
  8
0
  6
CONTINUOUS
 62
     7
 10
455.6599464701
 20
207.9937819939
 30
0.0
  0
VERTEX
  5
86C
  8
0
  6
CONTINUOUS
 62
     7
 10
455.6599464701
 20
207.9953228671
 30
0.0
  0
VERTEX
  5
86D
  8
0
  6
CONTINUOUS
 62
     7
 10
455.6599464701
 20
207.9960930709
 30
0.0
  0
VERTEX
  5
86E
  8
0
  6
CONTINUOUS
 62
     7
 10
455.6599464701
 20
207.9964781728
 30
0.0
  0
VERTEX
  5
86F
  8
0
  6
CONTINUOUS
 62
     7
 10
455.6599464701
 20
207.9966709565
 30
0.0
  0
VERTEX
  5
870
  8
0
  6
CONTINUOUS
 62
     7
 10
455.6599464701
 20
207.9967673484
 30
0.0
  0
VERTEX
  5
871
  8
0
  6
CONTINUOUS
 62
     7
 10
455.6599464701
 20
207.9968153115
 30
0.0
  0
VERTEX
  5
872
  8
0
  6
CONTINUOUS
 62
     7
 10
455.6599464701
 20
207.9968395259
 30
0.0
  0
VERTEX
  5
873
  8
0
  6
CONTINUOUS
 62
     7
 10
455.6599464701
 20
207.9968516331
 30
0.0
  0
VERTEX
  5
874
  8
0
  6
CONTINUOUS
 62
     7
 10
455.6599464701
 20
207.9968632746
 30
0.0
  0
VERTEX
  5
875
  8
0
  6
CONTINUOUS
 62
     7
 10
455.6592014121
 20
208.166356067
 30
0.0
  0
VERTEX
  5
876
  8
0
  6
CONTINUOUS
 62
     7
 10
455.6578156041
 20
208.4846551146
 30
0.0
  0
VERTEX
  5
877
  8
0
  6
CONTINUOUS
 62
     7
 10
455.653091936
 20
209.5676738385
 30
0.0
  0
SEQEND
  5
BCB
  8
0
  6
CONTINUOUS
 62
     7
  0
LINE
  5
18F
  8
0
  6
CONTINUOUS
 62
     7
 10
455.6795862006
 20
203.4941209562
 30
0.0
 11
455.6668010043
 21
206.4233653795
 31
0.0
  0
POLYLINE
  5
190
  8
0
  6
CONTINUOUS
 62
     7
 66
     1
 10
0.0
 20
0.0
 30
0.0
  0
VERTEX
  5
878
  8
0
  6
CONTINUOUS
 62
     7
 10
455.6877222346
 20
201.6283404368
 30
0.0
  0
VERTEX
  5
879
  8
0
  6
CONTINUOUS
 62
     7
 10
455.6862470196
 20
201.9668006828
 30
0.0
  0
VERTEX
  5
87A
  8
0
  6
CONTINUOUS
 62
     7
 10
455.6843694733
 20
202.3989211733
 30
0.0
  0
VERTEX
  5
87B
  8
0
  6
CONTINUOUS
 62
     7
 10
455.6795862006
 20
203.4941209562
 30
0.0
  0
SEQEND
  5
BCA
  8
0
  6
CONTINUOUS
 62
     7
  0
POLYLINE
  5
191
  8
0
  6
CONTINUOUS
 62
     7
 66
     1
 10
0.0
 20
0.0
 30
0.0
  0
VERTEX
  5
87C
  8
0
  6
CONTINUOUS
 62
     7
 10
455.6900170134
 20
201.1045679823
 30
0.0
  0
VERTEX
  5
87D
  8
0
  6
CONTINUOUS
 62
     7
 10
455.6900170134
 20
201.1045679823
 30
0.0
  0
VERTEX
  5
87E
  8
0
  6
CONTINUOUS
 62
     7
 10
455.6895848798
 20
201.2018429081
 30
0.0
  0
VERTEX
  5
87F
  8
0
  6
CONTINUOUS
 62
     7
 10
455.6877222346
 20
201.6283404368
 30
0.0
  0
SEQEND
  5
BC9
  8
0
  6
CONTINUOUS
 62
     7
  0
LINE
  5
192
  8
0
  6
CONTINUOUS
 62
     7
 10
455.6900170134
 20
201.1045679823
 30
0.0
 11
458.5481789397
 21
201.1045679823
 31
0.0
  0
LINE
  5
193
  8
0
  6
CONTINUOUS
 62
     7
 10
458.5644063042
 20
201.1045679823
 30
0.0
 11
458.6900081919
 21
201.1045679823
 31
0.0
  0
POLYLINE
  5
194
  8
0
  6
CONTINUOUS
 62
     7
 66
     1
 10
0.0
 20
0.0
 30
0.0
  0
VERTEX
  5
880
  8
0
  6
CONTINUOUS
 62
     7
 10
458.7182309912
 20
207.5701564167
 30
0.0
  0
VERTEX
  5
881
  8
0
  6
CONTINUOUS
 62
     7
 10
458.7051328706
 20
204.569553592
 30
0.0
  0
VERTEX
  5
882
  8
0
  6
CONTINUOUS
 62
     7
 10
458.6988743829
 20
203.1353147317
 30
0.0
  0
VERTEX
  5
883
  8
0
  6
CONTINUOUS
 62
     7
 10
458.6960729645
 20
202.4937688688
 30
0.0
  0
VERTEX
  5
884
  8
0
  6
CONTINUOUS
 62
     7
 10
458.6937483834
 20
201.9606619573
 30
0.0
  0
VERTEX
  5
885
  8
0
  6
CONTINUOUS
 62
     7
 10
458.6909767674
 20
201.3251002785
 30
0.0
  0
VERTEX
  5
886
  8
0
  6
CONTINUOUS
 62
     7
 10
458.6900528954
 20
201.1129784654
 30
0.0
  0
VERTEX
  5
887
  8
0
  6
CONTINUOUS
 62
     7
 10
458.6900230931
 20
201.1065444234
 30
0.0
  0
SEQEND
  5
BC8
  8
0
  6
CONTINUOUS
 62
     7
  0
LINE
  5
195
  8
0
  6
CONTINUOUS
 62
     7
 10
458.7273206996
 20
209.6547236282
 30
0.0
 11
458.7182309912
 21
207.5701564167
 31
0.0
  0
POLYLINE
  5
196
  8
0
  6
CONTINUOUS
 62
     7
 66
     1
 10
0.0
 20
0.0
 30
0.0
  0
VERTEX
  5
888
  8
0
  6
CONTINUOUS
 62
     7
 10
458.7336536931
 20
211.1054317642
 30
0.0
  0
VERTEX
  5
889
  8
0
  6
CONTINUOUS
 62
     7
 10
458.7309267806
 20
210.4797413189
 30
0.0
  0
VERTEX
  5
88A
  8
0
  6
CONTINUOUS
 62
     7
 10
458.7285872983
 20
209.9443835754
 30
0.0
  0
VERTEX
  5
88B
  8
0
  6
CONTINUOUS
 62
     7
 10
458.7273206996
 20
209.6547236282
 30
0.0
  0
SEQEND
  5
BC7
  8
0
  6
CONTINUOUS
 62
     7
  0
LINE
  5
197
  8
0
  6
CONTINUOUS
 62
     7
 10
377.1633189605
 20
201.1045679823
 30
0.0
 11
332.0106100725
 21
201.1045679823
 31
0.0
  0
LINE
  5
198
  8
0
  6
CONTINUOUS
 62
     7
 10
331.8106104122
 20
201.1045679823
 30
0.0
 11
332.0106100725
 21
201.1045679823
 31
0.0
  0
POLYLINE
  5
199
  8
0
  6
CONTINUOUS
 62
     7
 66
     1
 10
0.0
 20
0.0
 30
0.0
  0
VERTEX
  5
88C
  8
0
  6
CONTINUOUS
 62
     7
 10
331.8106104122
 20
201.1045679823
 30
0.0
  0
VERTEX
  5
88D
  8
0
  6
CONTINUOUS
 62
     7
 10
331.8106104122
 20
201.1045679823
 30
0.0
  0
SEQEND
  5
BC6
  8
0
  6
CONTINUOUS
 62
     7
  0
LINE
  5
19A
  8
0
  6
CONTINUOUS
 62
     7
 10
224.9634359466
 20
201.1045679823
 30
0.0
 11
223.2672665702
 21
201.1045679823
 31
0.0
  0
POLYLINE
  5
19B
  8
0
  6
CONTINUOUS
 62
     7
 66
     1
 10
0.0
 20
0.0
 30
0.0
  0
VERTEX
  5
88E
  8
0
  6
CONTINUOUS
 62
     7
 10
224.6548217224
 20
215.7486401115
 30
0.0
  0
VERTEX
  5
88F
  8
0
  6
CONTINUOUS
 62
     7
 10
224.9106262313
 20
210.6828786049
 30
0.0
  0
VERTEX
  5
890
  8
0
  6
CONTINUOUS
 62
     7
 10
225.0368278908
 20
208.198090418
 30
0.0
  0
VERTEX
  5
891
  8
0
  6
CONTINUOUS
 62
     7
 10
225.1482960271
 20
205.7442891959
 30
0.0
  0
VERTEX
  5
892
  8
0
  6
CONTINUOUS
 62
     7
 10
225.2066228973
 20
203.902048393
 30
0.0
  0
VERTEX
  5
893
  8
0
  6
CONTINUOUS
 62
     7
 10
225.2089512037
 20
202.4711621192
 30
0.0
  0
VERTEX
  5
894
  8
0
  6
CONTINUOUS
 62
     7
 10
225.1725886451
 20
201.7832221603
 30
0.0
  0
VERTEX
  5
895
  8
0
  6
CONTINUOUS
 62
     7
 10
225.1115199612
 20
201.3577712636
 30
0.0
  0
VERTEX
  5
896
  8
0
  6
CONTINUOUS
 62
     7
 10
224.9634359466
 20
201.1045679823
 30
0.0
  0
SEQEND
  5
BC5
  8
0
  6
CONTINUOUS
 62
     7
  0
LINE
  5
19C
  8
0
  6
CONTINUOUS
 62
     7
 10
224.6035282003
 20
216.7704341549
 30
0.0
 11
224.6548217224
 21
215.7486401115
 31
0.0
  0
LINE
  5
19D
  8
0
  6
CONTINUOUS
 62
     7
 10
485.739057927
 20
201.1045679823
 30
0.0
 11
484.4241049575
 21
201.1045679823
 31
0.0
  0
ARC
  5
19E
  8
0
  6
CONTINUOUS
 62
     7
 10
484.098994134
 20
201.3536057475
 30
0.0
 40
0.2524714070856928
 50
253.5596297431
 51
279.4602467151
  0
POLYLINE
  5
19F
  8
0
  6
CONTINUOUS
 62
     7
 66
     1
 10
0.0
 20
0.0
 30
0.0
  0
VERTEX
  5
897
  8
0
  6
CONTINUOUS
 62
     7
 10
223.4015483843
 20
250.7293879602
 30
0.0
  0
VERTEX
  5
898
  8
0
  6
CONTINUOUS
 62
     7
 10
223.4093044387
 20
251.148665658
 30
0.0
  0
VERTEX
  5
899
  8
0
  6
CONTINUOUS
 62
     7
 10
223.4032322155
 20
251.4305844519
 30
0.0
  0
SEQEND
  5
BC4
  8
0
  6
CONTINUOUS
 62
     7
  0
POLYLINE
  5
1A0
  8
0
  6
CONTINUOUS
 62
     7
 66
     1
 10
0.0
 20
0.0
 30
0.0
  0
VERTEX
  5
89A
  8
0
  6
CONTINUOUS
 62
     7
 10
222.420657097
 20
227.0349043969
 30
0.0
  0
VERTEX
  5
89B
  8
0
  6
CONTINUOUS
 62
     7
 10
222.712149887
 20
233.0733596895
 30
0.0
  0
VERTEX
  5
89C
  8
0
  6
CONTINUOUS
 62
     7
 10
222.9738627063
 20
239.0126570675
 30
0.0
  0
VERTEX
  5
89D
  8
0
  6
CONTINUOUS
 62
     7
 10
223.2078519152
 20
244.9833958957
 30
0.0
  0
VERTEX
  5
89E
  8
0
  6
CONTINUOUS
 62
     7
 10
223.4015483843
 20
250.7293879602
 30
0.0
  0
SEQEND
  5
BC3
  8
0
  6
CONTINUOUS
 62
     7
  0
POLYLINE
  5
1A1
  8
0
  6
CONTINUOUS
 62
     7
 66
     1
 10
0.0
 20
0.0
 30
0.0
  0
VERTEX
  5
89F
  8
0
  6
CONTINUOUS
 62
     7
 10
221.8734529303
 20
216.7289679486
 30
0.0
  0
VERTEX
  5
8A0
  8
0
  6
CONTINUOUS
 62
     7
 10
222.1541982578
 20
221.8822113786
 30
0.0
  0
VERTEX
  5
8A1
  8
0
  6
CONTINUOUS
 62
     7
 10
222.420657097
 20
227.0349043969
 30
0.0
  0
SEQEND
  5
BC2
  8
0
  6
CONTINUOUS
 62
     7
  0
LINE
  5
1A2
  8
0
  6
CONTINUOUS
 62
     7
 10
221.8734529303
 20
216.7289679486
 30
0.0
 11
219.7644692348
 21
216.7289679486
 31
0.0
  0
LINE
  5
1A3
  8
0
  6
CONTINUOUS
 62
     7
 10
222.0503371643
 20
257.5658991549
 30
0.0
 11
219.7644692348
 21
216.7289679486
 31
0.0
  0
ARC
  5
1A4
  8
0
  6
CONTINUOUS
 62
     7
 10
210.7579205488
 20
251.8589938024
 30
0.0
 40
12.6525666060463
 50
358.0596237058
 51
26.8108941917
  0
ARC
  5
1A5
  8
0
  6
CONTINUOUS
 62
     7
 10
223.2495083572
 20
224.3826906808
 30
0.0
 40
2.778710493630388
 50
82.6103228812
 51
107.3547031169
  0
POLYLINE
  5
1A6
  8
0
  6
CONTINUOUS
 62
     7
 66
     1
 10
0.0
 20
0.0
 30
0.0
  0
VERTEX
  5
8A2
  8
0
  6
CONTINUOUS
 62
     7
 10
224.8811554598
 20
251.3342037413
 30
0.0
  0
VERTEX
  5
8A3
  8
0
  6
CONTINUOUS
 62
     7
 10
224.6036213325
 20
251.3276360545
 30
0.0
  0
VERTEX
  5
8A4
  8
0
  6
CONTINUOUS
 62
     7
 10
224.3362609731
 20
251.2974500272
 30
0.0
  0
VERTEX
  5
8A5
  8
0
  6
CONTINUOUS
 62
     7
 10
224.0883354532
 20
251.244692466
 30
0.0
  0
VERTEX
  5
8A6
  8
0
  6
CONTINUOUS
 62
     7
 10
223.8684278415
 20
251.1711850379
 30
0.0
  0
VERTEX
  5
8A7
  8
0
  6
CONTINUOUS
 62
     7
 10
223.6841600822
 20
251.0794758413
 30
0.0
  0
VERTEX
  5
8A8
  8
0
  6
CONTINUOUS
 62
     7
 10
223.5419098722
 20
250.9727462742
 30
0.0
  0
VERTEX
  5
8A9
  8
0
  6
CONTINUOUS
 62
     7
 10
223.4466057705
 20
250.8546880994
 30
0.0
  0
VERTEX
  5
8AA
  8
0
  6
CONTINUOUS
 62
     7
 10
223.4015483843
 20
250.7293879602
 30
0.0
  0
SEQEND
  5
BC1
  8
0
  6
CONTINUOUS
 62
     7
  0
POLYLINE
  5
1A7
  8
0
  6
CONTINUOUS
 62
     7
 66
     1
 10
0.0
 20
0.0
 30
0.0
  0
VERTEX
  5
8AB
  8
0
  6
CONTINUOUS
 62
     7
 10
223.6068975614
 20
227.1383221809
 30
0.0
  0
VERTEX
  5
8AC
  8
0
  6
CONTINUOUS
 62
     7
 10
223.4433498667
 20
224.1569835309
 30
0.0
  0
VERTEX
  5
8AD
  8
0
  6
CONTINUOUS
 62
     7
 10
223.0369989263
 20
216.7289679486
 30
0.0
  0
SEQEND
  5
BC0
  8
0
  6
CONTINUOUS
 62
     7
  0
LINE
  5
1A8
  8
0
  6
CONTINUOUS
 62
     7
 10
223.0369989263
 20
216.7289679486
 30
0.0
 11
224.2935281681
 21
216.7289679486
 31
0.0
  0
LINE
  5
1A9
  8
0
  6
CONTINUOUS
 62
     7
 10
223.0369989263
 20
216.7289679486
 30
0.0
 11
221.8734529303
 21
216.7289679486
 31
0.0
  0
LINE
  5
1AA
  8
0
  6
CONTINUOUS
 62
     7
 10
224.6035282003
 20
216.7289679486
 30
0.0
 11
224.6035282003
 21
216.7704341549
 31
0.0
  0
LINE
  5
1AB
  8
0
  6
CONTINUOUS
 62
     7
 10
224.3722510027
 20
216.7289679486
 30
0.0
 11
224.6035282003
 21
216.7289679486
 31
0.0
  0
ARC
  5
1AC
  8
0
  6
CONTINUOUS
 62
     7
 10
224.9637597044
 20
201.604187697
 30
0.0
 40
0.4996198196485276
 50
182.9586162073
 51
269.9628718579
  0
POLYLINE
  5
1AD
  8
0
  6
CONTINUOUS
 62
     7
 66
     1
 10
0.0
 20
0.0
 30
0.0
  0
VERTEX
  5
8AE
  8
0
  6
CONTINUOUS
 62
     7
 10
224.4648058401
 20
201.5783999954
 30
0.0
  0
VERTEX
  5
8AF
  8
0
  6
CONTINUOUS
 62
     7
 10
224.6102262722
 20
201.8232407421
 30
0.0
  0
VERTEX
  5
8B0
  8
0
  6
CONTINUOUS
 62
     7
 10
224.6677894579
 20
202.2147697711
 30
0.0
  0
VERTEX
  5
8B1
  8
0
  6
CONTINUOUS
 62
     7
 10
224.7061934756
 20
202.8701200465
 30
0.0
  0
VERTEX
  5
8B2
  8
0
  6
CONTINUOUS
 62
     7
 10
224.7150298642
 20
204.187343464
 30
0.0
  0
VERTEX
  5
8B3
  8
0
  6
CONTINUOUS
 62
     7
 10
224.6763725268
 20
205.906559116
 30
0.0
  0
VERTEX
  5
8B4
  8
0
  6
CONTINUOUS
 62
     7
 10
224.587393968
 20
208.2626627374
 30
0.0
  0
VERTEX
  5
8B5
  8
0
  6
CONTINUOUS
 62
     7
 10
224.4754713463
 20
210.7030193869
 30
0.0
  0
VERTEX
  5
8B6
  8
0
  6
CONTINUOUS
 62
     7
 10
224.3719269024
 20
212.8227477509
 30
0.0
  0
VERTEX
  5
8B7
  8
0
  6
CONTINUOUS
 62
     7
 10
224.2265101956
 20
215.756639241
 30
0.0
  0
SEQEND
  5
BBF
  8
0
  6
CONTINUOUS
 62
     7
  0
ARC
  5
1AE
  8
0
  6
CONTINUOUS
 62
     7
 10
224.4756728976
 20
217.6270780293
 30
0.0
 40
1.886961396720202
 50
262.41225311
 51
275.4478881079
  0
POLYLINE
  5
1AF
  8
0
  6
CONTINUOUS
 62
     7
 66
     1
 10
0.0
 20
0.0
 30
0.0
  0
VERTEX
  5
8B8
  8
0
  6
CONTINUOUS
 62
     7
 10
224.2265101956
 20
215.756639241
 30
0.0
  0
VERTEX
  5
8B9
  8
0
  6
CONTINUOUS
 62
     7
 10
224.2020089613
 20
216.2551305804
 30
0.0
  0
VERTEX
  5
8BA
  8
0
  6
CONTINUOUS
 62
     7
 10
224.1787296222
 20
216.7288589839
 30
0.0
  0
SEQEND
  5
BBE
  8
0
  6
CONTINUOUS
 62
     7
  0
LINE
  5
1B0
  8
0
  6
CONTINUOUS
 62
     7
 10
222.7672655569
 20
201.5783999954
 30
0.0
 11
224.4648058401
 21
201.5783999954
 31
0.0
  0
LINE
  5
1B1
  8
0
  6
CONTINUOUS
 62
     7
 10
221.9721693979
 20
216.7289679486
 30
0.0
 11
222.7672655569
 21
201.5783999954
 31
0.0
  0
POLYLINE
  5
1B2
  8
0
  6
CONTINUOUS
 62
     7
 66
     1
 10
0.0
 20
0.0
 30
0.0
  0
VERTEX
  5
8BB
  8
0
  6
CONTINUOUS
 62
     7
 10
484.8935511397
 20
250.5522429559
 30
0.0
  0
VERTEX
  5
8BC
  8
0
  6
CONTINUOUS
 62
     7
 10
485.0967731761
 20
246.0327244911
 30
0.0
  0
VERTEX
  5
8BD
  8
0
  6
CONTINUOUS
 62
     7
 10
485.3179511117
 20
241.4600424085
 30
0.0
  0
VERTEX
  5
8BE
  8
0
  6
CONTINUOUS
 62
     7
 10
485.7918676423
 20
232.1801207576
 30
0.0
  0
VERTEX
  5
8BF
  8
0
  6
CONTINUOUS
 62
     7
 10
486.2808045434
 20
222.9860707734
 30
0.0
  0
VERTEX
  5
8C0
  8
0
  6
CONTINUOUS
 62
     7
 10
486.7819454955
 20
213.7774902943
 30
0.0
  0
VERTEX
  5
8C1
  8
0
  6
CONTINUOUS
 62
     7
 10
486.9289901541
 20
211.1045684282
 30
0.0
  0
SEQEND
  5
BBD
  8
0
  6
CONTINUOUS
 62
     7
  0
LINE
  5
1B3
  8
0
  6
CONTINUOUS
 62
     7
 10
486.9289901541
 20
211.1045684282
 30
0.0
 11
485.4301419543
 21
211.1045684282
 31
0.0
  0
ARC
  5
1B4
  8
0
  6
CONTINUOUS
 62
     7
 10
483.801871653
 20
248.8995306616
 30
0.0
 40
1.980712505563782
 50
56.5537170325
 51
101.6812749149
  0
LINE
  5
1B5
  8
0
  6
CONTINUOUS
 62
     7
 10
488.6682983922
 20
216.1045683164
 30
0.0
 11
488.9482316064
 21
211.1045684282
 31
0.0
  0
LINE
  5
1B6
  8
0
  6
CONTINUOUS
 62
     7
 10
488.9482316064
 20
211.1045684282
 30
0.0
 11
486.9724568413
 21
211.1045684282
 31
0.0
  0
ARC
  5
1B7
  8
0
  6
CONTINUOUS
 62
     7
 10
496.1334620075
 20
251.1750054388
 30
0.0
 40
11.25715014674077
 50
177.9576242839
 51
183.1713077457
  0
ARC
  5
1B8
  8
0
  6
CONTINUOUS
 62
     7
 10
497.7188416492
 20
251.613835497
 30
0.0
 40
12.8354337873302
 50
152.3709084044
 51
180.1680232997
  0
LINE
  5
1B9
  8
0
  6
CONTINUOUS
 62
     7
 10
486.347055106
 20
257.5662158046
 30
0.0
 11
488.1924298094
 21
224.604567847
 31
0.0
  0
LINE
  5
1BA
  8
0
  6
CONTINUOUS
 62
     7
 10
488.1924298094
 20
224.604567847
 30
0.0
 11
488.1152864979
 21
224.5783846442
 31
0.0
  0
LINE
  5
1BB
  8
0
  6
CONTINUOUS
 62
     7
 10
488.5882344531
 20
216.1307505879
 30
0.0
 11
488.1152864979
 21
224.5783846442
 31
0.0
  0
LINE
  5
1BC
  8
0
  6
CONTINUOUS
 62
     7
 10
488.5882344531
 20
216.1307505879
 30
0.0
 11
488.6682983922
 21
216.1045683164
 31
0.0
  0
LINE
  5
1BD
  8
0
  6
CONTINUOUS
 62
     7
 10
484.7895708369
 20
211.11652661
 30
0.0
 11
484.7890194939
 21
211.1045768101
 31
0.0
  0
LINE
  5
1BE
  8
0
  6
CONTINUOUS
 62
     7
 10
484.7887065696
 20
211.104585192
 30
0.0
 11
484.7890194939
 21
211.1045861233
 31
0.0
  0
LINE
  5
1BF
  8
0
  6
CONTINUOUS
 62
     7
 10
484.7708549784
 20
211.1045712221
 30
0.0
 11
484.7887065696
 21
211.104585192
 31
0.0
  0
LINE
  5
1C0
  8
0
  6
CONTINUOUS
 62
     7
 10
484.7895708369
 20
211.11652661
 30
0.0
 11
484.7895857381
 21
211.1167128745
 31
0.0
  0
ARC
  5
1C1
  8
0
  6
CONTINUOUS
 62
     7
 10
552.043323726
 20
204.3976698521
 30
0.0
 40
67.5878995353957
 50
174.3050238343
 51
182.3415458208
  0
ARC
  5
1C2
  8
0
  6
CONTINUOUS
 62
     7
 10
485.7393239165
 20
201.6050010882
 30
0.0
 40
0.500433176621048
 50
269.9695462319
 51
356.9570419733
  0
LINE
  5
1C3
  8
0
  6
CONTINUOUS
 62
     7
 10
486.2390514897
 20
201.5784357567
 30
0.0
 11
486.7382999943
 21
211.1045861233
 31
0.0
  0
ARC
  5
1C4
  8
0
  6
CONTINUOUS
 62
     7
 10
530.3951239158
 20
252.1613933621
 30
0.0
 40
47.01287752127323
 50
179.1154843695
 51
181.6115776669
  0
POLYLINE
  5
1C5
  8
0
  6
CONTINUOUS
 62
     7
 66
     1
 10
0.0
 20
0.0
 30
0.0
  0
VERTEX
  5
8C2
  8
0
  6
CONTINUOUS
 62
     7
 10
224.8991039084
 20
252.7365035925
 30
0.0
  0
VERTEX
  5
8C3
  8
0
  6
CONTINUOUS
 62
     7
 10
224.8965073811
 20
252.1727628622
 30
0.0
  0
VERTEX
  5
8C4
  8
0
  6
CONTINUOUS
 62
     7
 10
224.8811554598
 20
251.3342037413
 30
0.0
  0
SEQEND
  5
BBC
  8
0
  6
CONTINUOUS
 62
     7
  0
POLYLINE
  5
1C6
  8
0
  6
CONTINUOUS
 62
     7
 66
     1
 10
0.0
 20
0.0
 30
0.0
  0
VERTEX
  5
8C5
  8
0
  6
CONTINUOUS
 62
     7
 10
224.8991039084
 20
252.7365035925
 30
0.0
  0
VERTEX
  5
8C6
  8
0
  6
CONTINUOUS
 62
     7
 10
254.9187820839
 20
252.6269726071
 30
0.0
  0
VERTEX
  5
8C7
  8
0
  6
CONTINUOUS
 62
     7
 10
284.9405734302
 20
252.6538915548
 30
0.0
  0
VERTEX
  5
8C8
  8
0
  6
CONTINUOUS
 62
     7
 10
354.1337084459
 20
252.8398207936
 30
0.0
  0
VERTEX
  5
8C9
  8
0
  6
CONTINUOUS
 62
     7
 10
428.5999741839
 20
252.8540774796
 30
0.0
  0
VERTEX
  5
8CA
  8
0
  6
CONTINUOUS
 62
     7
 10
483.3878484057
 20
252.8871357057
 30
0.0
  0
SEQEND
  5
BBB
  8
0
  6
CONTINUOUS
 62
     7
  0
ARC
  5
1C7
  8
0
  6
CONTINUOUS
 62
     7
 10
224.8668644115
 20
251.2637460142
 30
0.0
 40
1.473110406430103
 50
88.7459632454
 51
173.496962043
  0
ARC
  5
1C8
  8
0
  6
CONTINUOUS
 62
     7
 10
483.4156990406
 20
251.4102874337
 30
0.0
 40
1.477110854519309
 50
6.4490063044
 51
91.0803646813
  0
ARC
  5
1C9
  8
0
  6
CONTINUOUS
 62
     7
 10
495.3208941192
 20
253.2422729688
 30
0.0
 40
11.93832913247225
 50
151.2718608969
 51
181.7046664016
  0
ARC
  5
1CA
  8
0
  6
CONTINUOUS
 62
     7
 10
210.7472003959
 20
252.9371198059
 30
0.0
 40
14.15332540047944
 50
359.1878341704
 51
25.2768371304
  0
LINE
  5
1CB
  8
0
  6
CONTINUOUS
 62
     7
 10
223.5454190956
 20
258.9804812882
 30
0.0
 11
484.8520514058
 21
258.9804812882
 31
0.0
  0
ARC
  5
1CC
  8
0
  6
CONTINUOUS
 62
     7
 10
223.5452698703
 20
257.4832665682
 30
0.0
 40
1.497214727410493
 50
89.9942894093
 51
176.836188388
  0
ARC
  5
1CD
  8
0
  6
CONTINUOUS
 62
     7
 10
484.8522030864
 20
257.4833333182
 30
0.0
 40
1.497147977736148
 50
3.1735311086
 51
90.005804809
  0
ARC
  5
1CE
  8
0
  6
CONTINUOUS
 62
     7
 10
223.2668833753
 20
201.6048872739
 30
0.0
 40
0.500319438363205
 50
183.0346993458
 51
270.0438828652
  0
ARC
  5
1CF
  8
0
  6
CONTINUOUS
 62
     8
 10
585.1723956919
 20
203.4563800904
 30
0.0
 40
101.1720338185667
 50
175.6644383926
 51
181.3280967228
  0
ARC
  5
1D0
  8
0
  6
CONTINUOUS
 62
     8
 10
485.6352760087
 20
209.3657654954
 30
0.0
 40
7.810700947428142
 50
261.7304300156
 51
274.4334474338
  0
DIMENSION
  5
1D1
  8
COTATION
  2
_D
 10
488.9482324455
 20
180.2623664682
 30
0.0
 11
354.3563508542
 21
180.2623664682
 31
0.0
 70
   160
  1
<>
  3
SLDDIMSTYLE0
 13
219.764469263
 23
216.7289679722
 33
0.0
 14
488.9482324455
 24
211.1045679722
 34
0.0
  0
DIMENSION
  5
1DC
  8
COTATION
  2
_D_1
 10
499.0641006505
 20
201.1045679722
 30
0.0
 11
499.0641006505
 21
230.0425253948
 31
0.0
 70
   160
  1
<>
  3
SLDDIMSTYLE1
 13
484.8520469775
 23
258.9804828174
 33
0.0
 14
485.7390565826
 24
201.1045679722
 34
0.0
 50
90.0
  0
LINE
  5
1E7
  8
0
  6
CONTINUOUS
 62
     7
 10
118.6309931528
 20
223.713271654
 30
0.0
 11
125.2309932335
 21
223.713271654
 31
0.0
  0
LINE
  5
1E8
  8
0
  6
CONTINUOUS
 62
     7
 10
125.2309932335
 20
227.9132719699
 30
0.0
 11
118.6309931528
 21
227.9132719699
 31
0.0
  0
ARC
  5
1E9
  8
0
  6
CONTINUOUS
 62
     7
 10
125.2309931053
 20
224.7204139107
 30
0.0
 40
3.192857142857157
 50
20.0159596029
 51
90.0
  0
ARC
  5
1EA
  8
0
  6
CONTINUOUS
 62
     7
 10
125.2309931053
 20
226.9061281964
 30
0.0
 40
3.19285714285715
 50
270.0
 51
339.9840403971
  0
ARC
  5
1EB
  8
0
  6
CONTINUOUS
 62
     7
 10
88.8750631379
 20
207.161814903
 30
0.0
 40
7.793344775267324
 50
182.4525222027
 51
185.7623760608
  0
POLYLINE
  5
1EC
  8
0
  6
CONTINUOUS
 62
     7
 66
     1
 10
0.0
 20
0.0
 30
0.0
  0
VERTEX
  5
8CB
  8
0
  6
CONTINUOUS
 62
     7
 10
73.1661441697
 20
220.2157344285
 30
0.0
  0
VERTEX
  5
8CC
  8
0
  6
CONTINUOUS
 62
     7
 10
73.2070180549
 20
219.2512102041
 30
0.0
  0
VERTEX
  5
8CD
  8
0
  6
CONTINUOUS
 62
     7
 10
73.4701725616
 20
215.302120297
 30
0.0
  0
VERTEX
  5
8CE
  8
0
  6
CONTINUOUS
 62
     7
 10
73.9382292105
 20
211.8887811515
 30
0.0
  0
VERTEX
  5
8CF
  8
0
  6
CONTINUOUS
 62
     7
 10
74.6272291018
 20
209.1105513822
 30
0.0
  0
VERTEX
  5
8D0
  8
0
  6
CONTINUOUS
 62
     7
 10
75.5112516655
 20
206.9070263382
 30
0.0
  0
VERTEX
  5
8D1
  8
0
  6
CONTINUOUS
 62
     7
 10
76.4959837271
 20
205.2709705744
 30
0.0
  0
VERTEX
  5
8D2
  8
0
  6
CONTINUOUS
 62
     7
 10
77.4406912698
 20
204.15294879
 30
0.0
  0
VERTEX
  5
8D3
  8
0
  6
CONTINUOUS
 62
     7
 10
78.2143893613
 20
203.4562002949
 30
0.0
  0
VERTEX
  5
8D4
  8
0
  6
CONTINUOUS
 62
     7
 10
78.7809389605
 20
203.0461823882
 30
0.0
  0
VERTEX
  5
8D5
  8
0
  6
CONTINUOUS
 62
     7
 10
79.1457827164
 20
202.8300091473
 30
0.0
  0
VERTEX
  5
8D6
  8
0
  6
CONTINUOUS
 62
     7
 10
79.3155441953
 20
202.7620662551
 30
0.0
  0
VERTEX
  5
8D7
  8
0
  6
CONTINUOUS
 62
     7
 10
79.3192396833
 20
202.7789560229
 30
0.0
  0
SEQEND
  5
BBA
  8
0
  6
CONTINUOUS
 62
     7
  0
POLYLINE
  5
1ED
  8
0
  6
CONTINUOUS
 62
     7
 66
     1
 10
0.0
 20
0.0
 30
0.0
  0
VERTEX
  5
8D8
  8
0
  6
CONTINUOUS
 62
     7
 10
81.7467692269
 20
251.6585498664
 30
0.0
  0
VERTEX
  5
8D9
  8
0
  6
CONTINUOUS
 62
     7
 10
78.7634561731
 20
247.51186218
 30
0.0
  0
VERTEX
  5
8DA
  8
0
  6
CONTINUOUS
 62
     7
 10
75.9987096264
 20
243.0146544788
 30
0.0
  0
VERTEX
  5
8DB
  8
0
  6
CONTINUOUS
 62
     7
 10
73.7204338385
 20
238.5130174074
 30
0.0
  0
VERTEX
  5
8DC
  8
0
  6
CONTINUOUS
 62
     7
 10
71.9664479567
 20
234.0552679811
 30
0.0
  0
VERTEX
  5
8DD
  8
0
  6
CONTINUOUS
 62
     7
 10
70.7592415585
 20
229.6944561962
 30
0.0
  0
VERTEX
  5
8DE
  8
0
  6
CONTINUOUS
 62
     7
 10
70.1010423674
 20
225.4545598838
 30
0.0
  0
SEQEND
  5
BB9
  8
0
  6
CONTINUOUS
 62
     7
  0
POLYLINE
  5
1EE
  8
0
  6
CONTINUOUS
 62
     7
 66
     1
 10
0.0
 20
0.0
 30
0.0
  0
VERTEX
  5
8DF
  8
0
  6
CONTINUOUS
 62
     7
 10
78.8335139824
 20
211.104550733
 30
0.0
  0
VERTEX
  5
8E0
  8
0
  6
CONTINUOUS
 62
     7
 10
78.8790668322
 20
211.1045423511
 30
0.0
  0
VERTEX
  5
8E1
  8
0
  6
CONTINUOUS
 62
     7
 10
78.981031753
 20
211.1045032356
 30
0.0
  0
SEQEND
  5
BB8
  8
0
  6
CONTINUOUS
 62
     7
  0
ARC
  5
1EF
  8
0
  6
CONTINUOUS
 62
     7
 10
84.1410701072
 20
249.8571063991
 30
0.0
 40
3.000042394129697
 50
112.1401793653
 51
143.4931889707
  0
LINE
  5
1F0
  8
0
  6
CONTINUOUS
 62
     7
 10
117.6309931053
 20
222.4001496646
 30
0.0
 11
117.3309930911
 21
222.4001496646
 31
0.0
  0
ARC
  5
1F1
  8
0
  6
CONTINUOUS
 62
     7
 10
191.4234679886
 20
218.7544908659
 30
0.0
 40
111.0465489994885
 50
184.0147300066
 51
186.3622697294
  0
LINE
  5
1F2
  8
0
  6
CONTINUOUS
 62
     7
 10
118.4309930851
 20
216.1045683164
 30
0.0
 11
118.4309930851
 21
211.1045684282
 31
0.0
  0
LINE
  5
1F3
  8
0
  6
CONTINUOUS
 62
     7
 10
118.4309930851
 20
211.1045684282
 30
0.0
 11
80.7309943213
 21
211.1045684282
 31
0.0
  0
LINE
  5
1F4
  8
0
  6
CONTINUOUS
 62
     7
 10
79.9014206006
 20
211.1045684282
 30
0.0
 11
80.7309943213
 21
211.1045684282
 31
0.0
  0
POLYLINE
  5
1F5
  8
0
  6
CONTINUOUS
 62
     7
 66
     1
 10
0.0
 20
0.0
 30
0.0
  0
VERTEX
  5
8E2
  8
0
  6
CONTINUOUS
 62
     7
 10
83.2037190868
 20
250.5522429559
 30
0.0
  0
VERTEX
  5
8E3
  8
0
  6
CONTINUOUS
 62
     7
 10
82.2532634212
 20
246.0327244911
 30
0.0
  0
VERTEX
  5
8E4
  8
0
  6
CONTINUOUS
 62
     7
 10
81.5887275113
 20
241.4600424085
 30
0.0
  0
VERTEX
  5
8E5
  8
0
  6
CONTINUOUS
 62
     7
 10
80.7182575537
 20
232.1801207576
 30
0.0
  0
VERTEX
  5
8E6
  8
0
  6
CONTINUOUS
 62
     7
 10
80.2258971109
 20
222.9860707734
 30
0.0
  0
VERTEX
  5
8E7
  8
0
  6
CONTINUOUS
 62
     7
 10
79.9512836112
 20
213.7774902943
 30
0.0
  0
VERTEX
  5
8E8
  8
0
  6
CONTINUOUS
 62
     7
 10
79.9014206006
 20
211.1045684282
 30
0.0
  0
SEQEND
  5
BB7
  8
0
  6
CONTINUOUS
 62
     7
  0
ARC
  5
1F6
  8
0
  6
CONTINUOUS
 62
     7
 10
84.6570634477
 20
250.1816399745
 30
0.0
 40
1.499852126426808
 50
111.5971295064
 51
165.6944418831
  0
POLYLINE
  5
1F7
  8
0
  6
CONTINUOUS
 62
     7
 66
     1
 10
0.0
 20
0.0
 30
0.0
  0
VERTEX
  5
8E9
  8
0
  6
CONTINUOUS
 62
     7
 10
118.4309930851
 20
257.5662158046
 30
0.0
  0
VERTEX
  5
8EA
  8
0
  6
CONTINUOUS
 62
     7
 10
112.6187253705
 20
257.1454740677
 30
0.0
  0
VERTEX
  5
8EB
  8
0
  6
CONTINUOUS
 62
     7
 10
102.9876778795
 20
256.0805923853
 30
0.0
  0
VERTEX
  5
8EC
  8
0
  6
CONTINUOUS
 62
     7
 10
93.4102619959
 20
254.3630882714
 30
0.0
  0
VERTEX
  5
8ED
  8
0
  6
CONTINUOUS
 62
     7
 10
88.7173051907
 20
253.1495377038
 30
0.0
  0
VERTEX
  5
8EE
  8
0
  6
CONTINUOUS
 62
     7
 10
84.1050009204
 20
251.5761948738
 30
0.0
  0
SEQEND
  5
BB6
  8
0
  6
CONTINUOUS
 62
     7
  0
LINE
  5
1F8
  8
0
  6
CONTINUOUS
 62
     7
 10
118.4309930851
 20
257.5662158046
 30
0.0
 11
118.4309930851
 21
224.604567847
 31
0.0
  0
LINE
  5
1F9
  8
0
  6
CONTINUOUS
 62
     7
 10
118.4309930851
 20
224.604567847
 30
0.0
 11
116.9309931303
 21
224.5783846442
 31
0.0
  0
LINE
  5
1FA
  8
0
  6
CONTINUOUS
 62
     7
 10
116.9309931303
 20
216.1307505879
 30
0.0
 11
116.9309931303
 21
224.5783846442
 31
0.0
  0
LINE
  5
1FB
  8
0
  6
CONTINUOUS
 62
     7
 10
116.9309931303
 20
216.1307505879
 30
0.0
 11
118.4309930851
 21
216.1045683164
 31
0.0
  0
LINE
  5
1FC
  8
0
  6
CONTINUOUS
 62
     7
 10
79.9014206006
 20
211.1045684282
 30
0.0
 11
78.4809860362
 21
211.1045684282
 31
0.0
  0
POLYLINE
  5
1FD
  8
0
  6
CONTINUOUS
 62
     7
 66
     1
 10
0.0
 20
0.0
 30
0.0
  0
VERTEX
  5
8EF
  8
0
  6
CONTINUOUS
 62
     7
 10
78.4809860362
 20
211.1045805354
 30
0.0
  0
VERTEX
  5
8F0
  8
0
  6
CONTINUOUS
 62
     7
 10
78.4809860362
 20
211.1046410713
 30
0.0
  0
VERTEX
  5
8F1
  8
0
  6
CONTINUOUS
 62
     7
 10
78.5299922301
 20
213.7251294766
 30
0.0
  0
VERTEX
  5
8F2
  8
0
  6
CONTINUOUS
 62
     7
 10
78.8056041075
 20
222.9651346419
 30
0.0
  0
VERTEX
  5
8F3
  8
0
  6
CONTINUOUS
 62
     7
 10
79.3003636374
 20
232.2012785438
 30
0.0
  0
VERTEX
  5
8F4
  8
0
  6
CONTINUOUS
 62
     7
 10
80.1767679824
 20
241.5463536594
 30
0.0
  0
VERTEX
  5
8F5
  8
0
  6
CONTINUOUS
 62
     7
 10
80.8564471974
 20
246.2200134609
 30
0.0
  0
VERTEX
  5
8F6
  8
0
  6
CONTINUOUS
 62
     7
 10
81.8286362065
 20
250.8392206941
 30
0.0
  0
SEQEND
  5
BB5
  8
0
  6
CONTINUOUS
 62
     7
  0
ARC
  5
1FE
  8
0
  6
CONTINUOUS
 62
     7
 10
80.8063766081
 20
242.5030470821
 30
0.0
 40
8.398619242245834
 50
73.414559696
 51
83.0087606972
  0
ARC
  5
1FF
  8
0
  6
CONTINUOUS
 62
     7
 10
95.2393839828
 20
256.3413826787
 30
0.0
 40
12.11121385302951
 50
196.5714395583
 51
203.1694975904
  0
POLYLINE
  5
200
  8
0
  6
CONTINUOUS
 62
     7
 66
     1
 10
0.0
 20
0.0
 30
0.0
  0
VERTEX
  5
8F7
  8
0
  6
CONTINUOUS
 62
     7
 10
83.6312110497
 20
252.8871357057
 30
0.0
  0
VERTEX
  5
8F8
  8
0
  6
CONTINUOUS
 62
     7
 10
88.324681945
 20
254.4907725964
 30
0.0
  0
VERTEX
  5
8F9
  8
0
  6
CONTINUOUS
 62
     7
 10
93.1567951067
 20
255.7421870146
 30
0.0
  0
VERTEX
  5
8FA
  8
0
  6
CONTINUOUS
 62
     7
 10
102.7908465786
 20
257.4729606125
 30
0.0
  0
VERTEX
  5
8FB
  8
0
  6
CONTINUOUS
 62
     7
 10
112.5699915884
 20
258.5563458119
 30
0.0
  0
VERTEX
  5
8FC
  8
0
  6
CONTINUOUS
 62
     7
 10
118.4309930851
 20
258.9804812882
 30
0.0
  0
SEQEND
  5
BB4
  8
0
  6
CONTINUOUS
 62
     7
  0
LINE
  5
201
  8
0
  6
CONTINUOUS
 62
     7
 10
118.4309930851
 20
258.9804812882
 30
0.0
 11
118.4309930851
 21
257.5662158046
 31
0.0
  0
ARC
  5
202
  8
0
  6
CONTINUOUS
 62
     7
 10
83.7540193574
 20
207.9742632969
 30
0.0
 40
6.675215369403318
 50
226.853602051
 51
269.2802729795
  0
POLYLINE
  5
203
  8
0
  6
CONTINUOUS
 62
     7
 66
     1
 10
0.0
 20
0.0
 30
0.0
  0
VERTEX
  5
8FD
  8
0
  6
CONTINUOUS
 62
     7
 10
71.7122490479
 20
222.7081268642
 30
0.0
  0
VERTEX
  5
8FE
  8
0
  6
CONTINUOUS
 62
     7
 10
72.0403018369
 20
221.8971777324
 30
0.0
  0
VERTEX
  5
8FF
  8
0
  6
CONTINUOUS
 62
     7
 10
72.9290368928
 20
219.7002213065
 30
0.0
  0
VERTEX
  5
900
  8
0
  6
CONTINUOUS
 62
     7
 10
73.2260207607
 20
218.9660727594
 30
0.0
  0
SEQEND
  5
BB3
  8
0
  6
CONTINUOUS
 62
     7
  0
POLYLINE
  5
204
  8
0
  6
CONTINUOUS
 62
     7
 66
     1
 10
0.0
 20
0.0
 30
0.0
  0
VERTEX
  5
901
  8
0
  6
CONTINUOUS
 62
     7
 10
118.4309930851
 20
201.1045679823
 30
0.0
  0
VERTEX
  5
902
  8
0
  6
CONTINUOUS
 62
     7
 10
115.637845449
 20
201.1045679823
 30
0.0
  0
VERTEX
  5
903
  8
0
  6
CONTINUOUS
 62
     7
 10
99.6597736104
 20
201.1045679823
 30
0.0
  0
VERTEX
  5
904
  8
0
  6
CONTINUOUS
 62
     7
 10
86.8786434604
 20
201.1045679823
 30
0.0
  0
VERTEX
  5
905
  8
0
  6
CONTINUOUS
 62
     7
 10
85.769706495
 20
201.1083375686
 30
0.0
  0
VERTEX
  5
906
  8
0
  6
CONTINUOUS
 62
     7
 10
84.1109092309
 20
201.3736883377
 30
0.0
  0
VERTEX
  5
907
  8
0
  6
CONTINUOUS
 62
     7
 10
83.0247933938
 20
201.923615255
 30
0.0
  0
VERTEX
  5
908
  8
0
  6
CONTINUOUS
 62
     7
 10
82.1796032561
 20
202.8239847708
 30
0.0
  0
VERTEX
  5
909
  8
0
  6
CONTINUOUS
 62
     7
 10
81.5110663845
 20
204.3321457308
 30
0.0
  0
VERTEX
  5
90A
  8
0
  6
CONTINUOUS
 62
     7
 10
81.0673768593
 20
206.8746400613
 30
0.0
  0
VERTEX
  5
90B
  8
0
  6
CONTINUOUS
 62
     7
 10
80.8776403739
 20
209.4906655688
 30
0.0
  0
VERTEX
  5
90C
  8
0
  6
CONTINUOUS
 62
     7
 10
80.7630876972
 20
211.1047463108
 30
0.0
  0
SEQEND
  5
BB2
  8
0
  6
CONTINUOUS
 62
     7
  0
POLYLINE
  5
205
  8
0
  6
CONTINUOUS
 62
     7
 66
     1
 10
0.0
 20
0.0
 30
0.0
  0
VERTEX
  5
90D
  8
0
  6
CONTINUOUS
 62
     7
 10
81.2363672032
 20
211.1045861233
 30
0.0
  0
VERTEX
  5
90E
  8
0
  6
CONTINUOUS
 62
     7
 10
81.3502642287
 20
209.4997878734
 30
0.0
  0
VERTEX
  5
90F
  8
0
  6
CONTINUOUS
 62
     7
 10
81.5238180532
 20
206.9494364399
 30
0.0
  0
VERTEX
  5
910
  8
0
  6
CONTINUOUS
 62
     7
 10
81.9648253693
 20
204.4463812921
 30
0.0
  0
VERTEX
  5
911
  8
0
  6
CONTINUOUS
 62
     7
 10
82.5703824832
 20
203.0738569878
 30
0.0
  0
VERTEX
  5
912
  8
0
  6
CONTINUOUS
 62
     7
 10
83.2964490129
 20
202.2991268745
 30
0.0
  0
VERTEX
  5
913
  8
0
  6
CONTINUOUS
 62
     7
 10
84.23967389
 20
201.822957882
 30
0.0
  0
VERTEX
  5
914
  8
0
  6
CONTINUOUS
 62
     7
 10
85.7584412171
 20
201.5819842849
 30
0.0
  0
VERTEX
  5
915
  8
0
  6
CONTINUOUS
 62
     7
 10
87.9668063445
 20
201.5784357567
 30
0.0
  0
VERTEX
  5
916
  8
0
  6
CONTINUOUS
 62
     7
 10
91.2558185829
 20
201.5784357567
 30
0.0
  0
VERTEX
  5
917
  8
0
  6
CONTINUOUS
 62
     7
 10
109.1290536298
 20
201.5784357567
 30
0.0
  0
VERTEX
  5
918
  8
0
  6
CONTINUOUS
 62
     7
 10
118.4309930851
 20
201.5784357567
 30
0.0
  0
SEQEND
  5
BB1
  8
0
  6
CONTINUOUS
 62
     7
  0
LINE
  5
206
  8
0
  6
CONTINUOUS
 62
     7
 10
118.4309930851
 20
201.5784357567
 30
0.0
 11
118.4309930851
 21
211.1045861233
 31
0.0
  0
LINE
  5
207
  8
0
  6
CONTINUOUS
 62
     7
 10
118.4309930851
 20
201.5784357567
 30
0.0
 11
118.4309930851
 21
201.1045679823
 31
0.0
  0
POLYLINE
  5
208
  8
0
  6
CONTINUOUS
 62
     7
 66
     1
 10
0.0
 20
0.0
 30
0.0
  0
VERTEX
  5
919
  8
0
  6
CONTINUOUS
 62
     7
 10
73.3246254696
 20
217.4863073591
 30
0.0
  0
VERTEX
  5
91A
  8
0
  6
CONTINUOUS
 62
     7
 10
72.6124803497
 20
219.2467342678
 30
0.0
  0
VERTEX
  5
91B
  8
0
  6
CONTINUOUS
 62
     7
 10
71.7802579476
 20
221.3039904449
 30
0.0
  0
VERTEX
  5
91C
  8
0
  6
CONTINUOUS
 62
     7
 10
71.1383308245
 20
222.8908467654
 30
0.0
  0
VERTEX
  5
91D
  8
0
  6
CONTINUOUS
 62
     7
 10
70.672051139
 20
224.0435093258
 30
0.0
  0
VERTEX
  5
91E
  8
0
  6
CONTINUOUS
 62
     7
 10
70.3523169233
 20
224.8337663326
 30
0.0
  0
VERTEX
  5
91F
  8
0
  6
CONTINUOUS
 62
     7
 10
70.1641748621
 20
225.2980287734
 30
0.0
  0
VERTEX
  5
920
  8
0
  6
CONTINUOUS
 62
     7
 10
70.1227272822
 20
225.4014391068
 30
0.0
  0
SEQEND
  5
BB0
  8
0
  6
CONTINUOUS
 62
     7
  0
POLYLINE
  5
209
  8
0
  6
CONTINUOUS
 62
     7
 66
     1
 10
0.0
 20
0.0
 30
0.0
  0
VERTEX
  5
921
  8
0
  6
CONTINUOUS
 62
     7
 10
70.0838315262
 20
225.4984847818
 30
0.0
  0
VERTEX
  5
922
  8
0
  6
CONTINUOUS
 62
     7
 10
70.0819651558
 20
225.5031413946
 30
0.0
  0
VERTEX
  5
923
  8
0
  6
CONTINUOUS
 62
     7
 10
70.2772001697
 20
225.1683756325
 30
0.0
  0
VERTEX
  5
924
  8
0
  6
CONTINUOUS
 62
     7
 10
70.7540336026
 20
224.3508383248
 30
0.0
  0
VERTEX
  5
925
  8
0
  6
CONTINUOUS
 62
     7
 10
71.405396886
 20
223.2341639314
 30
0.0
  0
VERTEX
  5
926
  8
0
  6
CONTINUOUS
 62
     7
 10
72.1496912612
 20
221.9582315151
 30
0.0
  0
VERTEX
  5
927
  8
0
  6
CONTINUOUS
 62
     7
 10
72.8609050585
 20
220.7390054677
 30
0.0
  0
VERTEX
  5
928
  8
0
  6
CONTINUOUS
 62
     7
 10
73.5870647205
 20
219.4941624615
 30
0.0
  0
VERTEX
  5
929
  8
0
  6
CONTINUOUS
 62
     7
 10
74.0773874296
 20
218.653606585
 30
0.0
  0
VERTEX
  5
92A
  8
0
  6
CONTINUOUS
 62
     7
 10
74.6443915142
 20
217.6816019777
 30
0.0
  0
VERTEX
  5
92B
  8
0
  6
CONTINUOUS
 62
     7
 10
75.2456831707
 20
216.6508122895
 30
0.0
  0
VERTEX
  5
92C
  8
0
  6
CONTINUOUS
 62
     7
 10
75.8401761724
 20
215.6316818286
 30
0.0
  0
VERTEX
  5
92D
  8
0
  6
CONTINUOUS
 62
     7
 10
76.3983103408
 20
214.6748829249
 30
0.0
  0
VERTEX
  5
92E
  8
0
  6
CONTINUOUS
 62
     7
 10
77.0660798027
 20
213.5301356751
 30
0.0
  0
VERTEX
  5
92F
  8
0
  6
CONTINUOUS
 62
     7
 10
77.6388394608
 20
212.5482590485
 30
0.0
  0
VERTEX
  5
930
  8
0
  6
CONTINUOUS
 62
     7
 10
78.0823315455
 20
211.7879869033
 30
0.0
  0
VERTEX
  5
931
  8
0
  6
CONTINUOUS
 62
     7
 10
78.3369104339
 20
211.3515672821
 30
0.0
  0
SEQEND
  5
BAF
  8
0
  6
CONTINUOUS
 62
     7
  0
POLYLINE
  5
20A
  8
0
  6
CONTINUOUS
 62
     7
 66
     1
 10
0.0
 20
0.0
 30
0.0
  0
VERTEX
  5
932
  8
0
  6
CONTINUOUS
 62
     7
 10
78.4798088445
 20
211.1065977801
 30
0.0
  0
VERTEX
  5
933
  8
0
  6
CONTINUOUS
 62
     7
 10
78.4799876584
 20
211.1062941689
 30
0.0
  0
VERTEX
  5
934
  8
0
  6
CONTINUOUS
 62
     7
 10
78.4809823109
 20
211.1045861233
 30
0.0
  0
SEQEND
  5
BAE
  8
0
  6
CONTINUOUS
 62
     7
  0
POLYLINE
  5
20B
  8
0
  6
CONTINUOUS
 62
     7
 66
     1
 10
0.0
 20
0.0
 30
0.0
  0
VERTEX
  5
935
  8
0
  6
CONTINUOUS
 62
     7
 10
83.2556533589
 20
252.7365035925
 30
0.0
  0
VERTEX
  5
936
  8
0
  6
CONTINUOUS
 62
     7
 10
82.9874436332
 20
252.6269726071
 30
0.0
  0
VERTEX
  5
937
  8
0
  6
CONTINUOUS
 62
     7
 10
83.0537947787
 20
252.6538915548
 30
0.0
  0
VERTEX
  5
938
  8
0
  6
CONTINUOUS
 62
     7
 10
83.51219175
 20
252.8398207936
 30
0.0
  0
VERTEX
  5
939
  8
0
  6
CONTINUOUS
 62
     7
 10
83.5479545368
 20
252.8540774796
 30
0.0
  0
VERTEX
  5
93A
  8
0
  6
CONTINUOUS
 62
     7
 10
83.6312110497
 20
252.8871357057
 30
0.0
  0
SEQEND
  5
BAD
  8
0
  6
CONTINUOUS
 62
     7
  0
POLYLINE
  5
20C
  8
0
  6
CONTINUOUS
 62
     7
 66
     1
 10
0.0
 20
0.0
 30
0.0
  0
VERTEX
  5
93B
  8
0
  6
CONTINUOUS
 62
     7
 10
118.4309930851
 20
258.9804812882
 30
0.0
  0
VERTEX
  5
93C
  8
0
  6
CONTINUOUS
 62
     7
 10
112.1877255811
 20
258.523496202
 30
0.0
  0
VERTEX
  5
93D
  8
0
  6
CONTINUOUS
 62
     7
 10
102.4521506353
 20
257.4250794563
 30
0.0
  0
VERTEX
  5
93E
  8
0
  6
CONTINUOUS
 62
     7
 10
92.7731311841
 20
255.6542738888
 30
0.0
  0
VERTEX
  5
93F
  8
0
  6
CONTINUOUS
 62
     7
 10
87.9709134771
 20
254.3852425728
 30
0.0
  0
VERTEX
  5
940
  8
0
  6
CONTINUOUS
 62
     7
 10
83.2556533589
 20
252.7365035925
 30
0.0
  0
SEQEND
  5
BAC
  8
0
  6
CONTINUOUS
 62
     7
  0
POLYLINE
  5
20D
  8
0
  6
CONTINUOUS
 62
     7
 66
     1
 10
0.0
 20
0.0
 30
0.0
  0
VERTEX
  5
941
  8
0
  6
CONTINUOUS
 62
     7
 10
118.4309930851
 20
258.9804812882
 30
0.0
  0
VERTEX
  5
942
  8
0
  6
CONTINUOUS
 62
     7
 10
118.4309930851
 20
258.9804812882
 30
0.0
  0
SEQEND
  5
BAB
  8
0
  6
CONTINUOUS
 62
     7
  0
POLYLINE
  5
20E
  8
0
  6
CONTINUOUS
 62
     7
 66
     1
 10
0.0
 20
0.0
 30
0.0
  0
VERTEX
  5
943
  8
0
  6
CONTINUOUS
 62
     7
 10
78.7384967281
 20
211.1045684282
 30
0.0
  0
VERTEX
  5
944
  8
0
  6
CONTINUOUS
 62
     7
 10
78.7303383423
 20
211.1045693595
 30
0.0
  0
VERTEX
  5
945
  8
0
  6
CONTINUOUS
 62
     7
 10
78.4809823109
 20
211.1045861233
 30
0.0
  0
SEQEND
  5
BAA
  8
0
  6
CONTINUOUS
 62
     7
  0
ARC
  5
20F
  8
0
  6
CONTINUOUS
 62
     7
 10
84.7354424717
 20
250.0979204649
 30
0.0
 40
2.999841444600085
 50
111.5982771826
 51
165.6932519942
  0
LINE
  5
210
  8
0
  6
CONTINUOUS
 62
     7
 10
82.0563035978
 20
251.7734452698
 30
0.0
 11
81.7197385205
 21
251.3342037413
 31
0.0
  0
LINE
  5
211
  8
0
  6
CONTINUOUS
 62
     7
 10
118.6309931528
 20
224.3269331369
 30
0.0
 11
117.6309931053
 21
224.3269331369
 31
0.0
  0
LINE
  5
212
  8
0
  6
CONTINUOUS
 62
     7
 10
118.6309931528
 20
216.4269335184
 30
0.0
 11
118.6309931528
 21
224.3269331369
 31
0.0
  0
LINE
  5
213
  8
0
  6
CONTINUOUS
 62
     7
 10
118.6309931528
 20
216.4269335184
 30
0.0
 11
117.6309931053
 21
216.4269335184
 31
0.0
  0
LINE
  5
214
  8
0
  6
CONTINUOUS
 62
     7
 10
117.6309931053
 20
216.4269335184
 30
0.0
 11
117.6309931053
 21
224.3269331369
 31
0.0
  0
LINE
  5
215
  8
0
  6
CONTINUOUS
 62
     7
 10
117.3309930911
 20
219.0093811218
 30
0.0
 11
117.6309931053
 21
219.0093811218
 31
0.0
  0
LINE
  5
216
  8
0
  6
CONTINUOUS
 62
     7
 10
117.3309930911
 20
219.2313357804
 30
0.0
 11
117.3309930911
 21
219.0093811218
 31
0.0
  0
LINE
  5
217
  8
0
  6
CONTINUOUS
 62
     7
 10
117.3309930911
 20
219.2313357804
 30
0.0
 11
117.6309931053
 21
219.2313357804
 31
0.0
  0
LINE
  5
218
  8
0
  6
CONTINUOUS
 62
     7
 10
117.3309930911
 20
219.5057741914
 30
0.0
 11
117.6309931053
 21
219.5057741914
 31
0.0
  0
LINE
  5
219
  8
0
  6
CONTINUOUS
 62
     7
 10
117.3309930911
 20
219.5057741914
 30
0.0
 11
117.3309930911
 21
219.2313357804
 31
0.0
  0
LINE
  5
21A
  8
0
  6
CONTINUOUS
 62
     7
 10
117.3309930911
 20
220.7121051464
 30
0.0
 11
117.6309931053
 21
220.7121051464
 31
0.0
  0
LINE
  5
21B
  8
0
  6
CONTINUOUS
 62
     7
 10
117.3309930911
 20
220.9256462369
 30
0.0
 11
117.6309931053
 21
220.9256462369
 31
0.0
  0
LINE
  5
21C
  8
0
  6
CONTINUOUS
 62
     7
 10
117.3309930911
 20
220.9256462369
 30
0.0
 11
117.3309930911
 21
220.7121051464
 31
0.0
  0
LINE
  5
21D
  8
0
  6
CONTINUOUS
 62
     7
 10
117.3309930911
 20
220.3631460283
 30
0.0
 11
117.6309931053
 21
220.3631460283
 31
0.0
  0
LINE
  5
21E
  8
0
  6
CONTINUOUS
 62
     7
 10
117.3309930911
 20
220.7121051464
 30
0.0
 11
117.3309930911
 21
220.3631460283
 31
0.0
  0
LINE
  5
21F
  8
0
  6
CONTINUOUS
 62
     7
 10
117.3309930911
 20
221.0538576905
 30
0.0
 11
117.6309931053
 21
221.0538576905
 31
0.0
  0
LINE
  5
220
  8
0
  6
CONTINUOUS
 62
     7
 10
117.3309930911
 20
221.7581852887
 30
0.0
 11
117.6309931053
 21
221.7581852887
 31
0.0
  0
LINE
  5
221
  8
0
  6
CONTINUOUS
 62
     7
 10
117.3309930911
 20
221.7581852887
 30
0.0
 11
117.3309930911
 21
221.0538576905
 31
0.0
  0
LINE
  5
222
  8
0
  6
CONTINUOUS
 62
     7
 10
117.3309930911
 20
222.2722082946
 30
0.0
 11
117.6309931053
 21
222.2722082946
 31
0.0
  0
LINE
  5
223
  8
0
  6
CONTINUOUS
 62
     7
 10
117.3309930911
 20
222.2722082946
 30
0.0
 11
117.3309930911
 21
221.7581852887
 31
0.0
  0
LINE
  5
224
  8
0
  6
CONTINUOUS
 62
     7
 10
118.4309930851
 20
214.9392416317
 30
0.0
 11
118.6309931528
 21
214.9418549228
 31
0.0
  0
LINE
  5
225
  8
0
  6
CONTINUOUS
 62
     7
 10
118.4309930851
 20
213.9446114737
 30
0.0
 11
118.6309931528
 21
213.9515963931
 31
0.0
  0
LINE
  5
226
  8
0
  6
CONTINUOUS
 62
     7
 10
118.6309931528
 20
214.9418549228
 30
0.0
 11
118.6309931528
 21
213.9515963931
 31
0.0
  0
LINE
  5
227
  8
0
  6
CONTINUOUS
 62
     7
 10
117.6309931053
 20
216.4269335184
 30
0.0
 11
116.9309931303
 21
216.4269335184
 31
0.0
  0
LINE
  5
228
  8
0
  6
CONTINUOUS
 62
     7
 10
118.6309931528
 20
216.4269335184
 30
0.0
 11
118.6309931528
 21
214.9418549228
 31
0.0
  0
LINE
  5
229
  8
0
  6
CONTINUOUS
 62
     7
 10
117.3309930911
 20
222.3933063064
 30
0.0
 11
117.3309930911
 21
222.2722082946
 31
0.0
  0
LINE
  5
22A
  8
0
  6
CONTINUOUS
 62
     7
 10
117.3309930911
 20
220.3631460283
 30
0.0
 11
117.3309930911
 21
219.5057741914
 31
0.0
  0
LINE
  5
22B
  8
0
  6
CONTINUOUS
 62
     7
 10
116.9309931303
 20
224.3269331369
 30
0.0
 11
117.6309931053
 21
224.3269331369
 31
0.0
  0
LINE
  5
22C
  8
0
  6
CONTINUOUS
 62
     7
 10
118.4309930851
 20
227.2966470186
 30
0.0
 11
118.6309931528
 21
227.2857915226
 31
0.0
  0
LINE
  5
22D
  8
0
  6
CONTINUOUS
 62
     7
 10
118.6309931528
 20
227.2857915226
 30
0.0
 11
118.6309931528
 21
224.3269331369
 31
0.0
  0
LINE
  5
22E
  8
0
  6
CONTINUOUS
 62
     7
 10
118.4309930851
 20
234.1817862902
 30
0.0
 11
118.6309931528
 21
234.1918594751
 31
0.0
  0
LINE
  5
22F
  8
0
  6
CONTINUOUS
 62
     7
 10
118.4309930851
 20
256.3667915378
 30
0.0
 11
118.6309931528
 21
256.3598066185
 31
0.0
  0
LINE
  5
230
  8
0
  6
CONTINUOUS
 62
     7
 10
118.6309931528
 20
256.3598066185
 30
0.0
 11
118.6309931528
 21
234.1918594751
 31
0.0
  0
LINE
  5
231
  8
0
  6
CONTINUOUS
 62
     7
 10
118.4309930851
 20
234.0464092407
 30
0.0
 11
118.6309931528
 21
234.0562887106
 31
0.0
  0
LINE
  5
232
  8
0
  6
CONTINUOUS
 62
     7
 10
118.6309931528
 20
234.1918594751
 30
0.0
 11
118.6309931528
 21
234.0562887106
 31
0.0
  0
LINE
  5
233
  8
0
  6
CONTINUOUS
 62
     7
 10
117.3309930911
 20
218.0491614703
 30
0.0
 11
117.6309931053
 21
218.0491614703
 31
0.0
  0
LINE
  5
234
  8
0
  6
CONTINUOUS
 62
     7
 10
117.3309930911
 20
218.1140653405
 30
0.0
 11
117.3309930911
 21
218.0491614703
 31
0.0
  0
LINE
  5
235
  8
0
  6
CONTINUOUS
 62
     7
 10
117.3309930911
 20
218.1140653405
 30
0.0
 11
117.6309931053
 21
218.1140653405
 31
0.0
  0
LINE
  5
236
  8
0
  6
CONTINUOUS
 62
     7
 10
117.3309930911
 20
218.2546894614
 30
0.0
 11
117.3309930911
 21
218.1140653405
 31
0.0
  0
LINE
  5
237
  8
0
  6
CONTINUOUS
 62
     7
 10
117.3309930911
 20
218.2546894614
 30
0.0
 11
117.6309931053
 21
218.2546894614
 31
0.0
  0
LINE
  5
238
  8
0
  6
CONTINUOUS
 62
     7
 10
117.3309930911
 20
218.5752022628
 30
0.0
 11
117.6309931053
 21
218.5752022628
 31
0.0
  0
LINE
  5
239
  8
0
  6
CONTINUOUS
 62
     7
 10
117.3309930911
 20
218.640106133
 30
0.0
 11
117.3309930911
 21
218.5752022628
 31
0.0
  0
LINE
  5
23A
  8
0
  6
CONTINUOUS
 62
     7
 10
117.3309930911
 20
218.640106133
 30
0.0
 11
117.6309931053
 21
218.640106133
 31
0.0
  0
LINE
  5
23B
  8
0
  6
CONTINUOUS
 62
     7
 10
117.3309930911
 20
218.7795307103
 30
0.0
 11
117.3309930911
 21
218.640106133
 31
0.0
  0
LINE
  5
23C
  8
0
  6
CONTINUOUS
 62
     7
 10
117.3309930911
 20
218.7795307103
 30
0.0
 11
117.6309931053
 21
218.7795307103
 31
0.0
  0
LINE
  5
23D
  8
0
  6
CONTINUOUS
 62
     7
 10
117.3309930911
 20
222.4781423423
 30
0.0
 11
117.6309931053
 21
222.4781423423
 31
0.0
  0
LINE
  5
23E
  8
0
  6
CONTINUOUS
 62
     7
 10
117.3309930911
 20
222.5430462126
 30
0.0
 11
117.3309930911
 21
222.4781423423
 31
0.0
  0
LINE
  5
23F
  8
0
  6
CONTINUOUS
 62
     7
 10
117.3309930911
 20
222.5430462126
 30
0.0
 11
117.6309931053
 21
222.5430462126
 31
0.0
  0
LINE
  5
240
  8
0
  6
CONTINUOUS
 62
     7
 10
117.3309930911
 20
222.6836703334
 30
0.0
 11
117.3309930911
 21
222.5430462126
 31
0.0
  0
LINE
  5
241
  8
0
  6
CONTINUOUS
 62
     7
 10
117.3309930911
 20
222.6836703334
 30
0.0
 11
117.6309931053
 21
222.6836703334
 31
0.0
  0
LINE
  5
242
  8
0
  6
CONTINUOUS
 62
     7
 10
117.3309930911
 20
223.0041831348
 30
0.0
 11
117.6309931053
 21
223.0041831348
 31
0.0
  0
LINE
  5
243
  8
0
  6
CONTINUOUS
 62
     7
 10
117.3309930911
 20
223.069087005
 30
0.0
 11
117.3309930911
 21
223.0041831348
 31
0.0
  0
LINE
  5
244
  8
0
  6
CONTINUOUS
 62
     7
 10
117.3309930911
 20
223.069087005
 30
0.0
 11
117.6309931053
 21
223.069087005
 31
0.0
  0
LINE
  5
245
  8
0
  6
CONTINUOUS
 62
     7
 10
117.3309930911
 20
223.2085115824
 30
0.0
 11
117.6309931053
 21
223.2085115824
 31
0.0
  0
LINE
  5
246
  8
0
  6
CONTINUOUS
 62
     7
 10
117.3309930911
 20
223.2085115824
 30
0.0
 11
117.3309930911
 21
223.069087005
 31
0.0
  0
LINE
  5
247
  8
0
  6
CONTINUOUS
 62
     7
 10
118.6309931528
 20
203.8316955872
 30
0.0
 11
118.4309930851
 21
203.8247113664
 31
0.0
  0
LINE
  5
248
  8
0
  6
CONTINUOUS
 62
     7
 10
118.6309931528
 20
213.9515963931
 30
0.0
 11
118.6309931528
 21
203.8316955872
 31
0.0
  0
LINE
  5
249
  8
0
  6
CONTINUOUS
 62
     7
 10
118.6309931528
 20
234.0562887106
 30
0.0
 11
118.6309931528
 21
227.2857915226
 31
0.0
  0
LINE
  5
24A
  8
0
  6
CONTINUOUS
 62
     7
 10
118.6309931528
 20
203.7618538447
 30
0.0
 11
118.4309930851
 21
203.7548698567
 31
0.0
  0
LINE
  5
24B
  8
0
  6
CONTINUOUS
 62
     7
 10
118.6309931528
 20
203.8316955872
 30
0.0
 11
118.6309931528
 21
203.7618538447
 31
0.0
  0
LINE
  5
24C
  8
0
  6
CONTINUOUS
 62
     7
 10
118.6309931528
 20
202.7745785739
 30
0.0
 11
118.4309930851
 21
202.7675944695
 31
0.0
  0
LINE
  5
24D
  8
0
  6
CONTINUOUS
 62
     7
 10
118.6309931528
 20
203.7618538447
 30
0.0
 11
118.6309931528
 21
202.7745785739
 31
0.0
  0
LINE
  5
24E
  8
0
  6
CONTINUOUS
 62
     8
 10
125.2309932335
 20
227.9132719699
 30
0.0
 11
125.2309932335
 21
223.713271654
 31
0.0
  0
ARC
  5
24F
  8
0
  6
CONTINUOUS
 62
     8
 10
83.4627041588
 20
251.4282451691
 30
0.0
 40
1.736988170599035
 50
172.2559390547
 51
199.822463969
  0
LINE
  5
250
  8
COTATION
 10
70.0818305987
 20
228.2838222889
 30
0.0
 11
70.0818305987
 21
216.2414805543
 31
0.0
  0
POINT
  5
251
  8
COTATION
 10
70.0818305987
 20
225.5031943005
 30
0.0
  0
DIMENSION
  5
252
  8
COTATION
  2
_D_2
 10
118.6309931053
 20
190.2623664682
 30
0.0
 11
94.356411852
 21
190.2623664682
 31
0.0
 70
   160
  1
<>
  3
SLDDIMSTYLE1
 13
70.0818305987
 23
216.2414805543
 33
0.0
 14
118.6309931053
 24
224.326933167
 34
0.0
  0
DIMENSION
  5
25C
  8
COTATION
  2
_D_3
 10
161.6204092768
 20
225.8132710535
 30
0.0
 11
161.6204092768
 21
242.3968769355
 31
0.0
 70
   160
  1
<>
  3
SLDDIMSTYLE0
 13
118.4309931053
 23
258.9804828174
 33
0.0
 14
127.2309931053
 24
225.8132710535
 34
0.0
 50
90.0
  0
DIMENSION
  5
266
  8
COTATION
  2
_D_4
 10
161.6204092768
 20
225.8132710535
 30
0.0
 11
161.6204092768
 21
213.4589195129
 31
0.0
 70
   160
  1
<>
  3
SLDDIMSTYLE0
 13
118.4309931053
 23
201.1045679722
 33
0.0
 14
127.2309931053
 24
225.8132710535
 34
0.0
 50
90.0
  0
LINE
  5
270
  8
COTATION
  6
CENTERX2
 10
113.6309931053
 20
225.8132710535
 30
0.0
 11
127.2309931053
 21
225.8132710535
 31
0.0
  0
ARC
  5
271
  8
0
  6
CONTINUOUS
 62
     7
 10
233.7657106213
 20
317.0145295302
 30
0.0
 40
3.192857142857137
 50
290.0159596029
 51
0.0
  0
ARC
  5
272
  8
0
  6
CONTINUOUS
 62
     7
 10
235.951424907
 20
317.0145295302
 30
0.0
 40
3.192857142857157
 50
180.0
 51
249.9840403971
  0
LINE
  5
273
  8
0
  6
CONTINUOUS
 62
     7
 10
232.7585686432
 20
323.6145294827
 30
0.0
 11
232.7585686432
 21
317.0145294021
 31
0.0
  0
LINE
  5
274
  8
0
  6
CONTINUOUS
 62
     7
 10
236.9585689591
 20
317.0145294021
 30
0.0
 11
236.9585689591
 21
323.6145294827
 31
0.0
  0
ARC
  5
275
  8
0
  6
CONTINUOUS
 62
     7
 10
475.8657106213
 20
317.0145295302
 30
0.0
 40
3.192857142857128
 50
290.0159596029
 51
0.0
  0
ARC
  5
276
  8
0
  6
CONTINUOUS
 62
     7
 10
478.051424907
 20
317.0145295302
 30
0.0
 40
3.192857142857235
 50
180.0
 51
249.9840403971
  0
LINE
  5
277
  8
0
  6
CONTINUOUS
 62
     7
 10
474.85857275
 20
323.6145294827
 30
0.0
 11
474.85857275
 21
317.0145294021
 31
0.0
  0
LINE
  5
278
  8
0
  6
CONTINUOUS
 62
     7
 10
479.0585693406
 20
317.0145294021
 30
0.0
 11
479.0585693406
 21
323.6145294827
 31
0.0
  0
POLYLINE
  5
279
  8
0
  6
CONTINUOUS
 62
     7
 66
     1
 10
0.0
 20
0.0
 30
0.0
  0
VERTEX
  5
946
  8
0
  6
CONTINUOUS
 62
     7
 10
435.3963640021
 20
363.7654753725
 30
0.0
  0
VERTEX
  5
947
  8
0
  6
CONTINUOUS
 62
     7
 10
434.6022513198
 20
363.7659633855
 30
0.0
  0
VERTEX
  5
948
  8
0
  6
CONTINUOUS
 62
     7
 10
433.2385715531
 20
363.7678744594
 30
0.0
  0
VERTEX
  5
949
  8
0
  6
CONTINUOUS
 62
     7
 10
430.5239972161
 20
363.7742707829
 30
0.0
  0
VERTEX
  5
94A
  8
0
  6
CONTINUOUS
 62
     7
 10
426.8762376593
 20
363.7866797249
 30
0.0
  0
VERTEX
  5
94B
  8
0
  6
CONTINUOUS
 62
     7
 10
422.3972913312
 20
363.8062933783
 30
0.0
  0
VERTEX
  5
94C
  8
0
  6
CONTINUOUS
 62
     7
 10
416.072448759
 20
363.8398917715
 30
0.0
  0
VERTEX
  5
94D
  8
0
  6
CONTINUOUS
 62
     7
 10
408.8583048867
 20
363.8838427464
 30
0.0
  0
VERTEX
  5
94E
  8
0
  6
CONTINUOUS
 62
     7
 10
400.8137938069
 20
363.9368946056
 30
0.0
  0
VERTEX
  5
94F
  8
0
  6
CONTINUOUS
 62
     7
 10
391.9855561541
 20
363.9969872634
 30
0.0
  0
VERTEX
  5
950
  8
0
  6
CONTINUOUS
 62
     7
 10
382.4653458284
 20
364.0610250036
 30
0.0
  0
VERTEX
  5
951
  8
0
  6
CONTINUOUS
 62
     7
 10
377.4224427031
 20
364.0935877661
 30
0.0
  0
VERTEX
  5
952
  8
0
  6
CONTINUOUS
 62
     7
 10
372.7046382116
 20
364.1400831143
 30
0.0
  0
VERTEX
  5
953
  8
0
  6
CONTINUOUS
 62
     7
 10
368.5380127715
 20
364.2427260379
 30
0.0
  0
VERTEX
  5
954
  8
0
  6
CONTINUOUS
 62
     7
 10
365.3590809988
 20
364.3562803368
 30
0.0
  0
VERTEX
  5
955
  8
0
  6
CONTINUOUS
 62
     7
 10
362.867360978
 20
364.4645931522
 30
0.0
  0
VERTEX
  5
956
  8
0
  6
CONTINUOUS
 62
     7
 10
360.4832347916
 20
364.5827891628
 30
0.0
  0
VERTEX
  5
957
  8
0
  6
CONTINUOUS
 62
     7
 10
356.6002753066
 20
364.8031885127
 30
0.0
  0
VERTEX
  5
958
  8
0
  6
CONTINUOUS
 62
     7
 10
352.4113726305
 20
365.0755482117
 30
0.0
  0
VERTEX
  5
959
  8
0
  6
CONTINUOUS
 62
     7
 10
347.7622252392
 20
365.4133538107
 30
0.0
  0
VERTEX
  5
95A
  8
0
  6
CONTINUOUS
 62
     7
 10
343.1151640104
 20
365.7815428774
 30
0.0
  0
VERTEX
  5
95B
  8
0
  6
CONTINUOUS
 62
     7
 10
337.8834929751
 20
366.2258098225
 30
0.0
  0
VERTEX
  5
95C
  8
0
  6
CONTINUOUS
 62
     7
 10
331.888681321
 20
366.7654330234
 30
0.0
  0
VERTEX
  5
95D
  8
0
  6
CONTINUOUS
 62
     7
 10
325.0977155255
 20
367.4038732747
 30
0.0
  0
VERTEX
  5
95E
  8
0
  6
CONTINUOUS
 62
     7
 10
317.8832848059
 20
368.101035277
 30
0.0
  0
VERTEX
  5
95F
  8
0
  6
CONTINUOUS
 62
     7
 10
311.1384455549
 20
368.7600056032
 30
0.0
  0
SEQEND
  5
BA9
  8
0
  6
CONTINUOUS
 62
     7
  0
LINE
  5
27A
  8
0
  6
CONTINUOUS
 62
     7
 10
438.9756825255
 20
323.6145294827
 30
0.0
 11
438.9826711701
 21
323.8145295504
 31
0.0
  0
LINE
  5
27B
  8
0
  6
CONTINUOUS
 62
     7
 10
222.7194849836
 20
323.8145295504
 30
0.0
 11
222.7264699029
 21
323.6145294827
 31
0.0
  0
LINE
  5
27C
  8
0
  6
CONTINUOUS
 62
     7
 10
458.5481938409
 20
353.7198538283
 30
0.0
 11
455.8318313645
 21
353.7198538283
 31
0.0
  0
LINE
  5
27D
  8
0
  6
CONTINUOUS
 62
     7
 10
455.8318462657
 20
353.7402665565
 30
0.0
 11
455.8318313645
 21
353.7198538283
 31
0.0
  0
POLYLINE
  5
27E
  8
0
  6
CONTINUOUS
 62
     7
 66
     1
 10
0.0
 20
0.0
 30
0.0
  0
VERTEX
  5
960
  8
0
  6
CONTINUOUS
 62
     7
 10
455.8318462657
 20
361.6698542933
 30
0.0
  0
VERTEX
  5
961
  8
0
  6
CONTINUOUS
 62
     7
 10
455.8317270564
 20
361.3913217882
 30
0.0
  0
VERTEX
  5
962
  8
0
  6
CONTINUOUS
 62
     7
 10
455.8317568587
 20
361.0797720353
 30
0.0
  0
VERTEX
  5
963
  8
0
  6
CONTINUOUS
 62
     7
 10
455.831786661
 20
360.8105155031
 30
0.0
  0
VERTEX
  5
964
  8
0
  6
CONTINUOUS
 62
     7
 10
455.8318462657
 20
360.3668855826
 30
0.0
  0
VERTEX
  5
965
  8
0
  6
CONTINUOUS
 62
     7
 10
455.831876068
 20
359.6286895076
 30
0.0
  0
VERTEX
  5
966
  8
0
  6
CONTINUOUS
 62
     7
 10
455.8318462657
 20
358.5702823798
 30
0.0
  0
VERTEX
  5
967
  8
0
  6
CONTINUOUS
 62
     7
 10
455.8319356726
 20
357.1091303925
 30
0.0
  0
VERTEX
  5
968
  8
0
  6
CONTINUOUS
 62
     7
 10
455.8319356726
 20
355.4268898765
 30
0.0
  0
VERTEX
  5
969
  8
0
  6
CONTINUOUS
 62
     7
 10
455.8318462657
 20
353.7402665565
 30
0.0
  0
SEQEND
  5
BA8
  8
0
  6
CONTINUOUS
 62
     7
  0
LINE
  5
27F
  8
0
  6
CONTINUOUS
 62
     7
 10
458.5481789397
 20
361.6698542933
 30
0.0
 11
455.8318462657
 21
361.6698542933
 31
0.0
  0
POLYLINE
  5
280
  8
0
  6
CONTINUOUS
 62
     7
 66
     1
 10
0.0
 20
0.0
 30
0.0
  0
VERTEX
  5
96A
  8
0
  6
CONTINUOUS
 62
     7
 10
458.5481789397
 20
353.7402665565
 30
0.0
  0
VERTEX
  5
96B
  8
0
  6
CONTINUOUS
 62
     7
 10
458.5483577536
 20
355.5880738745
 30
0.0
  0
VERTEX
  5
96C
  8
0
  6
CONTINUOUS
 62
     7
 10
458.5481640385
 20
357.5936341981
 30
0.0
  0
VERTEX
  5
96D
  8
0
  6
CONTINUOUS
 62
     7
 10
458.5481938409
 20
358.836651812
 30
0.0
  0
VERTEX
  5
96E
  8
0
  6
CONTINUOUS
 62
     7
 10
458.5481789397
 20
359.8567592303
 30
0.0
  0
VERTEX
  5
96F
  8
0
  6
CONTINUOUS
 62
     7
 10
458.5481789397
 20
360.6016533772
 30
0.0
  0
VERTEX
  5
970
  8
0
  6
CONTINUOUS
 62
     7
 10
458.5482534455
 20
361.0891448657
 30
0.0
  0
VERTEX
  5
971
  8
0
  6
CONTINUOUS
 62
     7
 10
458.5482683467
 20
361.318224142
 30
0.0
  0
VERTEX
  5
972
  8
0
  6
CONTINUOUS
 62
     7
 10
458.5481491374
 20
361.4744292895
 30
0.0
  0
VERTEX
  5
973
  8
0
  6
CONTINUOUS
 62
     7
 10
458.5481789397
 20
361.6698542933
 30
0.0
  0
SEQEND
  5
BA7
  8
0
  6
CONTINUOUS
 62
     7
  0
LINE
  5
281
  8
0
  6
CONTINUOUS
 62
     7
 10
458.5481938409
 20
353.7198538283
 30
0.0
 11
458.5481789397
 21
353.7402665565
 31
0.0
  0
LINE
  5
282
  8
0
  6
CONTINUOUS
 62
     7
 10
455.7700064467
 20
353.7402665565
 30
0.0
 11
455.8318462657
 21
353.7402665565
 31
0.0
  0
LINE
  5
283
  8
0
  6
CONTINUOUS
 62
     7
 10
455.831786661
 20
361.6698542933
 30
0.0
 11
455.7700064467
 21
359.9051693777
 31
0.0
  0
LINE
  5
284
  8
0
  6
CONTINUOUS
 62
     7
 10
458.5481789397
 20
361.6698542933
 30
0.0
 11
458.5482385443
 21
361.6698542933
 31
0.0
  0
LINE
  5
285
  8
0
  6
CONTINUOUS
 62
     7
 10
458.6100187587
 20
359.9051693777
 30
0.0
 11
458.5482385443
 21
361.6698542933
 31
0.0
  0
LINE
  5
286
  8
0
  6
CONTINUOUS
 62
     7
 10
458.5481789397
 20
353.7402665565
 30
0.0
 11
458.6100187587
 21
353.7402665565
 31
0.0
  0
LINE
  5
287
  8
0
  6
CONTINUOUS
 62
     7
 10
455.8318313645
 20
353.7198538283
 30
0.0
 11
455.8318313645
 21
346.4898532579
 31
0.0
  0
LINE
  5
288
  8
0
  6
CONTINUOUS
 62
     7
 10
455.7700064467
 20
346.4898532579
 30
0.0
 11
455.8318313645
 21
346.4898532579
 31
0.0
  0
LINE
  5
289
  8
0
  6
CONTINUOUS
 62
     7
 10
455.7700064467
 20
353.7402665565
 30
0.0
 11
455.7700064467
 21
346.4898532579
 31
0.0
  0
LINE
  5
28A
  8
0
  6
CONTINUOUS
 62
     7
 10
458.6100187587
 20
353.7402665565
 30
0.0
 11
458.6100187587
 21
346.4898532579
 31
0.0
  0
LINE
  5
28B
  8
0
  6
CONTINUOUS
 62
     7
 10
458.6100187587
 20
346.4898532579
 30
0.0
 11
458.5481938409
 21
346.4898532579
 31
0.0
  0
LINE
  5
28C
  8
0
  6
CONTINUOUS
 62
     7
 10
458.5481938409
 20
346.4898532579
 30
0.0
 11
458.5481938409
 21
353.7198538283
 31
0.0
  0
ARC
  5
28D
  8
0
  6
CONTINUOUS
 62
     7
 10
457.1900135599
 20
346.4898537536
 30
0.0
 40
1.358175543849029
 50
180.0
 51
0.0
  0
ARC
  5
28E
  8
0
  6
CONTINUOUS
 62
     7
 10
457.1900135599
 20
346.4898537536
 30
0.0
 40
1.420000000000016
 50
180.0
 51
0.0
  0
LINE
  5
28F
  8
0
  6
CONTINUOUS
 62
     7
 10
458.5700091408
 20
361.0806251268
 30
0.0
 11
458.5494902419
 21
361.6698542933
 31
0.0
  0
LINE
  5
290
  8
0
  6
CONTINUOUS
 62
     7
 10
458.5482385443
 20
361.6698542933
 30
0.0
 11
458.5494902419
 21
361.6698542933
 31
0.0
  0
LINE
  5
291
  8
0
  6
CONTINUOUS
 62
     7
 10
455.8305349635
 20
361.6698542933
 30
0.0
 11
455.7700064467
 21
359.9324049751
 31
0.0
  0
LINE
  5
292
  8
0
  6
CONTINUOUS
 62
     7
 10
455.8305349635
 20
361.6698542933
 30
0.0
 11
455.831786661
 21
361.6698542933
 31
0.0
  0
LINE
  5
293
  8
0
  6
CONTINUOUS
 62
     7
 10
484.7635236071
 20
361.5145283143
 30
0.0
 11
484.7635236071
 21
361.6849156419
 31
0.0
  0
POLYLINE
  5
294
  8
0
  6
CONTINUOUS
 62
     7
 66
     1
 10
0.0
 20
0.0
 30
0.0
  0
VERTEX
  5
974
  8
0
  6
CONTINUOUS
 62
     7
 10
485.739057927
 20
323.8145295504
 30
0.0
  0
VERTEX
  5
975
  8
0
  6
CONTINUOUS
 62
     7
 10
485.5926689194
 20
326.6076771865
 30
0.0
  0
VERTEX
  5
976
  8
0
  6
CONTINUOUS
 62
     7
 10
484.7552981662
 20
342.5857490251
 30
0.0
  0
VERTEX
  5
977
  8
0
  6
CONTINUOUS
 62
     7
 10
484.0854611682
 20
355.3668791751
 30
0.0
  0
VERTEX
  5
978
  8
0
  6
CONTINUOUS
 62
     7
 10
484.0283301162
 20
356.4758161406
 30
0.0
  0
VERTEX
  5
979
  8
0
  6
CONTINUOUS
 62
     7
 10
483.9621987628
 20
358.1346134047
 30
0.0
  0
VERTEX
  5
97A
  8
0
  6
CONTINUOUS
 62
     7
 10
483.9391764687
 20
359.2207292418
 30
0.0
  0
VERTEX
  5
97B
  8
0
  6
CONTINUOUS
 62
     7
 10
483.9421268986
 20
360.0659193794
 30
0.0
  0
VERTEX
  5
97C
  8
0
  6
CONTINUOUS
 62
     7
 10
483.9809593247
 20
360.7344562511
 30
0.0
  0
VERTEX
  5
97D
  8
0
  6
CONTINUOUS
 62
     7
 10
484.0855654763
 20
361.1877123217
 30
0.0
  0
VERTEX
  5
97E
  8
0
  6
CONTINUOUS
 62
     7
 10
484.2111226605
 20
361.3678822617
 30
0.0
  0
VERTEX
  5
97F
  8
0
  6
CONTINUOUS
 62
     7
 10
484.2898752974
 20
361.4824349384
 30
0.0
  0
SEQEND
  5
BA6
  8
0
  6
CONTINUOUS
 62
     7
  0
LINE
  5
295
  8
0
  6
CONTINUOUS
 62
     7
 10
484.2935260819
 20
361.4824163119
 30
0.0
 11
484.3421485709
 21
361.4797266523
 31
0.0
  0
ARC
  5
296
  8
0
  6
CONTINUOUS
 62
     7
 10
484.2899087479
 20
360.9827914579
 30
0.0
 40
0.4996734799521719
 50
15.7361071484
 51
83.9988790684
  0
LINE
  5
297
  8
0
  6
CONTINUOUS
 62
     7
 10
484.7708549784
 20
361.1183064381
 30
0.0
 11
484.7887065696
 21
361.0145235757
 31
0.0
  0
LINE
  5
298
  8
0
  6
CONTINUOUS
 62
     7
 10
484.7887065696
 20
361.0145235757
 30
0.0
 11
484.7890194939
 21
361.0091554324
 31
0.0
  0
POLYLINE
  5
299
  8
0
  6
CONTINUOUS
 62
     7
 66
     1
 10
0.0
 20
0.0
 30
0.0
  0
VERTEX
  5
980
  8
0
  6
CONTINUOUS
 62
     7
 10
484.7890194939
 20
361.0091554324
 30
0.0
  0
VERTEX
  5
981
  8
0
  6
CONTINUOUS
 62
     7
 10
484.7108778046
 20
360.8952584068
 30
0.0
  0
VERTEX
  5
982
  8
0
  6
CONTINUOUS
 62
     7
 10
484.5863189982
 20
360.7217045824
 30
0.0
  0
VERTEX
  5
983
  8
0
  6
CONTINUOUS
 62
     7
 10
484.4782557772
 20
360.2806972663
 30
0.0
  0
VERTEX
  5
984
  8
0
  6
CONTINUOUS
 62
     7
 10
484.4380524443
 20
359.6751401524
 30
0.0
  0
VERTEX
  5
985
  8
0
  6
CONTINUOUS
 62
     7
 10
484.4355043458
 20
358.9490736226
 30
0.0
  0
VERTEX
  5
986
  8
0
  6
CONTINUOUS
 62
     7
 10
484.4599869536
 20
358.0058487455
 30
0.0
  0
VERTEX
  5
987
  8
0
  6
CONTINUOUS
 62
     7
 10
484.526952772
 20
356.4870814184
 30
0.0
  0
VERTEX
  5
988
  8
0
  6
CONTINUOUS
 62
     7
 10
484.6424963759
 20
354.278716291
 30
0.0
  0
VERTEX
  5
989
  8
0
  6
CONTINUOUS
 62
     7
 10
484.8148730086
 20
350.9897040526
 30
0.0
  0
VERTEX
  5
98A
  8
0
  6
CONTINUOUS
 62
     7
 10
485.7515600013
 20
333.1164690057
 30
0.0
  0
VERTEX
  5
98B
  8
0
  6
CONTINUOUS
 62
     7
 10
486.2390514897
 20
323.8145295504
 30
0.0
  0
SEQEND
  5
BA5
  8
0
  6
CONTINUOUS
 62
     7
  0
LINE
  5
29A
  8
0
  6
CONTINUOUS
 62
     7
 10
486.2390514897
 20
323.8145295504
 30
0.0
 11
485.739057927
 21
323.8145295504
 31
0.0
  0
POLYLINE
  5
29B
  8
0
  6
CONTINUOUS
 62
     7
 66
     1
 10
0.0
 20
0.0
 30
0.0
  0
VERTEX
  5
98C
  8
0
  6
CONTINUOUS
 62
     7
 10
224.2265101956
 20
365.8562386731
 30
0.0
  0
VERTEX
  5
98D
  8
0
  6
CONTINUOUS
 62
     7
 10
224.2020089613
 20
365.887907366
 30
0.0
  0
VERTEX
  5
98E
  8
0
  6
CONTINUOUS
 62
     7
 10
224.1787296222
 20
365.9181008438
 30
0.0
  0
SEQEND
  5
BA4
  8
0
  6
CONTINUOUS
 62
     7
  0
POLYLINE
  5
29C
  8
0
  6
CONTINUOUS
 62
     7
 66
     1
 10
0.0
 20
0.0
 30
0.0
  0
VERTEX
  5
98F
  8
0
  6
CONTINUOUS
 62
     7
 10
224.4648058401
 20
356.20555378
 30
0.0
  0
VERTEX
  5
990
  8
0
  6
CONTINUOUS
 62
     7
 10
224.6102262722
 20
359.2254901628
 30
0.0
  0
VERTEX
  5
991
  8
0
  6
CONTINUOUS
 62
     7
 10
224.6677894579
 20
360.715911756
 30
0.0
  0
VERTEX
  5
992
  8
0
  6
CONTINUOUS
 62
     7
 10
224.7061934756
 20
362.1049495737
 30
0.0
  0
VERTEX
  5
993
  8
0
  6
CONTINUOUS
 62
     7
 10
224.7150298642
 20
363.5925809244
 30
0.0
  0
VERTEX
  5
994
  8
0
  6
CONTINUOUS
 62
     7
 10
224.6763725268
 20
364.576541851
 30
0.0
  0
VERTEX
  5
995
  8
0
  6
CONTINUOUS
 62
     7
 10
224.587393968
 20
365.2380602757
 30
0.0
  0
VERTEX
  5
996
  8
0
  6
CONTINUOUS
 62
     7
 10
224.4754713463
 20
365.5461715857
 30
0.0
  0
VERTEX
  5
997
  8
0
  6
CONTINUOUS
 62
     7
 10
224.3719269024
 20
365.6930374304
 30
0.0
  0
VERTEX
  5
998
  8
0
  6
CONTINUOUS
 62
     7
 10
224.2265101956
 20
365.8562386731
 30
0.0
  0
SEQEND
  5
BA3
  8
0
  6
CONTINUOUS
 62
     7
  0
POLYLINE
  5
29D
  8
0
  6
CONTINUOUS
 62
     7
 66
     1
 10
0.0
 20
0.0
 30
0.0
  0
VERTEX
  5
999
  8
0
  6
CONTINUOUS
 62
     7
 10
222.7672655569
 20
323.8145295504
 30
0.0
  0
VERTEX
  5
99A
  8
0
  6
CONTINUOUS
 62
     7
 10
222.9136471139
 20
326.6076771865
 30
0.0
  0
VERTEX
  5
99B
  8
0
  6
CONTINUOUS
 62
     7
 10
223.7510253178
 20
342.5857490251
 30
0.0
  0
VERTEX
  5
99C
  8
0
  6
CONTINUOUS
 62
     7
 10
224.4648058401
 20
356.20555378
 30
0.0
  0
SEQEND
  5
BA2
  8
0
  6
CONTINUOUS
 62
     7
  0
LINE
  5
29E
  8
0
  6
CONTINUOUS
 62
     7
 10
221.9721693979
 20
323.8145295504
 30
0.0
 11
222.7672655569
 21
323.8145295504
 31
0.0
  0
LINE
  5
29F
  8
0
  6
CONTINUOUS
 62
     7
 10
224.1786290394
 20
365.9163201551
 30
0.0
 11
221.9721693979
 21
323.8145295504
 31
0.0
  0
POLYLINE
  5
2A0
  8
0
  6
CONTINUOUS
 62
     7
 66
     1
 10
0.0
 20
0.0
 30
0.0
  0
VERTEX
  5
99D
  8
0
  6
CONTINUOUS
 62
     7
 10
224.6548217224
 20
366.323960046
 30
0.0
  0
VERTEX
  5
99E
  8
0
  6
CONTINUOUS
 62
     7
 10
224.9106262313
 20
366.0138259033
 30
0.0
  0
VERTEX
  5
99F
  8
0
  6
CONTINUOUS
 62
     7
 10
225.0385228978
 20
365.6952949564
 30
0.0
  0
VERTEX
  5
9A0
  8
0
  6
CONTINUOUS
 62
     7
 10
225.1482960271
 20
365.0127733449
 30
0.0
  0
VERTEX
  5
9A1
  8
0
  6
CONTINUOUS
 62
     7
 10
225.2066228973
 20
363.9575252632
 30
0.0
  0
VERTEX
  5
9A2
  8
0
  6
CONTINUOUS
 62
     7
 10
225.2089512037
 20
362.3419748942
 30
0.0
  0
VERTEX
  5
9A3
  8
0
  6
CONTINUOUS
 62
     7
 10
225.1716610478
 20
360.8699003557
 30
0.0
  0
VERTEX
  5
9A4
  8
0
  6
CONTINUOUS
 62
     7
 10
225.1115199612
 20
359.2903809945
 30
0.0
  0
VERTEX
  5
9A5
  8
0
  6
CONTINUOUS
 62
     7
 10
224.9634359466
 20
356.1794208686
 30
0.0
  0
SEQEND
  5
BA1
  8
0
  6
CONTINUOUS
 62
     7
  0
POLYLINE
  5
2A1
  8
0
  6
CONTINUOUS
 62
     7
 66
     1
 10
0.0
 20
0.0
 30
0.0
  0
VERTEX
  5
9A6
  8
0
  6
CONTINUOUS
 62
     7
 10
224.9634359466
 20
356.1794208686
 30
0.0
  0
VERTEX
  5
9A7
  8
0
  6
CONTINUOUS
 62
     7
 10
224.8692345308
 20
356.1843568782
 30
0.0
  0
VERTEX
  5
9A8
  8
0
  6
CONTINUOUS
 62
     7
 10
224.7784119533
 20
356.1891177992
 30
0.0
  0
VERTEX
  5
9A9
  8
0
  6
CONTINUOUS
 62
     7
 10
224.694239019
 20
356.1935285429
 30
0.0
  0
VERTEX
  5
9AA
  8
0
  6
CONTINUOUS
 62
     7
 10
224.6197332131
 20
356.1974326471
 30
0.0
  0
VERTEX
  5
9AB
  8
0
  6
CONTINUOUS
 62
     7
 10
224.5575730191
 20
356.2006922762
 30
0.0
  0
VERTEX
  5
9AC
  8
0
  6
CONTINUOUS
 62
     7
 10
224.5099898862
 20
356.2031844954
 30
0.0
  0
VERTEX
  5
9AD
  8
0
  6
CONTINUOUS
 62
     7
 10
224.4786937224
 20
356.2048273484
 30
0.0
  0
VERTEX
  5
9AE
  8
0
  6
CONTINUOUS
 62
     7
 10
224.4648058401
 20
356.20555378
 30
0.0
  0
SEQEND
  5
BA0
  8
0
  6
CONTINUOUS
 62
     7
  0
ARC
  5
2A2
  8
0
  6
CONTINUOUS
 62
     7
 10
224.7267876054
 20
365.8280861048
 30
0.0
 40
0.5010689113292434
 50
98.257647989
 51
176.7791392058
  0
LINE
  5
2A3
  8
0
  6
CONTINUOUS
 62
     7
 10
486.7382999943
 20
323.8145295504
 30
0.0
 11
484.7890194939
 21
361.0091554324
 31
0.0
  0
LINE
  5
2A4
  8
0
  6
CONTINUOUS
 62
     7
 10
486.2390514897
 20
323.8145295504
 30
0.0
 11
486.7382999943
 21
323.8145295504
 31
0.0
  0
LINE
  5
2A5
  8
0
  6
CONTINUOUS
 62
     7
 10
455.6423780011
 20
361.4968071083
 30
0.0
 11
455.6419458674
 21
361.5035796861
 31
0.0
  0
LINE
  5
2A6
  8
0
  6
CONTINUOUS
 62
     7
 10
455.653091936
 20
361.3135191003
 30
0.0
 11
455.6423780011
 21
361.4968071083
 31
0.0
  0
ARC
  5
2A7
  8
0
  6
CONTINUOUS
 62
     7
 10
460.9360272835
 20
361.5990245036
 30
0.0
 40
5.290644499645491
 50
183.0934236142
 51
185.1572912007
  0
LINE
  5
2A8
  8
0
  6
CONTINUOUS
 62
     7
 10
455.6795862006
 20
360.5666356484
 30
0.0
 11
455.6668010043
 21
361.1234473387
 31
0.0
  0
ARC
  5
2A9
  8
0
  6
CONTINUOUS
 62
     7
 10
248.8872960204
 20
358.7163532342
 30
0.0
 40
206.80056775308
 50
0.0670346902
 51
0.5126426338
  0
POLYLINE
  5
2AA
  8
0
  6
CONTINUOUS
 62
     7
 66
     1
 10
0.0
 20
0.0
 30
0.0
  0
VERTEX
  5
9AF
  8
0
  6
CONTINUOUS
 62
     7
 10
455.6900170134
 20
353.6145286957
 30
0.0
  0
VERTEX
  5
9B0
  8
0
  6
CONTINUOUS
 62
     7
 10
455.6900170134
 20
355.5741543273
 30
0.0
  0
VERTEX
  5
9B1
  8
0
  6
CONTINUOUS
 62
     7
 10
455.6895848798
 20
357.5337762336
 30
0.0
  0
VERTEX
  5
9B2
  8
0
  6
CONTINUOUS
 62
     7
 10
455.6877222346
 20
358.958304892
 30
0.0
  0
SEQEND
  5
B9F
  8
0
  6
CONTINUOUS
 62
     7
  0
LINE
  5
2AB
  8
0
  6
CONTINUOUS
 62
     7
 10
455.6900170134
 20
353.6145286957
 30
0.0
 11
455.6900170134
 21
346.0145304302
 31
0.0
  0
ARC
  5
2AC
  8
0
  6
CONTINUOUS
 62
     7
 10
457.1900135599
 20
346.0145295302
 30
0.0
 40
1.500000000000057
 50
180.0
 51
0.0
  0
LINE
  5
2AD
  8
0
  6
CONTINUOUS
 62
     7
 10
458.6900081919
 20
346.0145304302
 30
0.0
 11
458.6900081919
 21
353.6145286957
 31
0.0
  0
ARC
  5
2AE
  8
0
  6
CONTINUOUS
 62
     7
 10
813.2199627433
 20
356.0868368804
 30
0.0
 40
354.5385747445826
 50
179.1739865991
 51
180.399544599
  0
LINE
  5
2AF
  8
0
  6
CONTINUOUS
 62
     7
 10
458.7273206996
 20
361.3259168665
 30
0.0
 11
458.7182309912
 21
361.1979196171
 31
0.0
  0
ARC
  5
2B0
  8
0
  6
CONTINUOUS
 62
     7
 10
452.2001801428
 20
361.8017175778
 30
0.0
 40
6.544459501391146
 50
355.8307564046
 51
2.0286206757
  0
POLYLINE
  5
2B1
  8
0
  6
CONTINUOUS
 62
     7
 66
     1
 10
0.0
 20
0.0
 30
0.0
  0
VERTEX
  5
9B3
  8
0
  6
CONTINUOUS
 62
     7
 10
458.7405082272
 20
362.2426288525
 30
0.0
  0
VERTEX
  5
9B4
  8
0
  6
CONTINUOUS
 62
     7
 10
458.7405529307
 20
362.0511675576
 30
0.0
  0
VERTEX
  5
9B5
  8
0
  6
CONTINUOUS
 62
     7
 10
458.7405380295
 20
362.0334165494
 30
0.0
  0
SEQEND
  5
B9E
  8
0
  6
CONTINUOUS
 62
     7
  0
POLYLINE
  5
2B2
  8
0
  6
CONTINUOUS
 62
     7
 66
     1
 10
0.0
 20
0.0
 30
0.0
  0
VERTEX
  5
9B6
  8
0
  6
CONTINUOUS
 62
     7
 10
458.7405082272
 20
362.2426288525
 30
0.0
  0
VERTEX
  5
9B7
  8
0
  6
CONTINUOUS
 62
     7
 10
457.5461801575
 20
362.2385235826
 30
0.0
  0
VERTEX
  5
9B8
  8
0
  6
CONTINUOUS
 62
     7
 10
455.6395169781
 20
362.2321160833
 30
0.0
  0
SEQEND
  5
B9D
  8
0
  6
CONTINUOUS
 62
     7
  0
POLYLINE
  5
2B3
  8
0
  6
CONTINUOUS
 62
     7
 66
     1
 10
0.0
 20
0.0
 30
0.0
  0
VERTEX
  5
9B9
  8
0
  6
CONTINUOUS
 62
     7
 10
455.6394871758
 20
362.0357001523
 30
0.0
  0
VERTEX
  5
9BA
  8
0
  6
CONTINUOUS
 62
     7
 10
455.6394722747
 20
362.0807687143
 30
0.0
  0
VERTEX
  5
9BB
  8
0
  6
CONTINUOUS
 62
     7
 10
455.6395169781
 20
362.2321160833
 30
0.0
  0
SEQEND
  5
B9C
  8
0
  6
CONTINUOUS
 62
     7
  0
ARC
  5
2B4
  8
0
  6
CONTINUOUS
 62
     7
 10
490.5042101688
 20
361.9307285905
 30
0.0
 40
34.86488101809294
 50
179.8274929851
 51
180.7019797868
  0
LINE
  5
2B5
  8
0
  6
CONTINUOUS
 62
     7
 10
430.0106075095
 20
353.7145303885
 30
0.0
 11
332.0106100725
 21
353.7145303885
 31
0.0
  0
LINE
  5
2B6
  8
0
  6
CONTINUOUS
 62
     7
 10
332.0106100725
 20
353.7145303885
 30
0.0
 11
332.0106100725
 21
353.3609388719
 31
0.0
  0
ARC
  5
2B7
  8
0
  6
CONTINUOUS
 62
     7
 10
332.2106105299
 20
353.0145288386
 30
0.0
 40
0.4000001176325377
 50
120.0000659216
 51
179.999874471
  0
LINE
  5
2B8
  8
0
  6
CONTINUOUS
 62
     7
 10
331.8106104122
 20
323.8145295504
 30
0.0
 11
331.8106104122
 21
353.014529715
 31
0.0
  0
LINE
  5
2B9
  8
0
  6
CONTINUOUS
 62
     7
 10
331.8106104122
 20
323.8145295504
 30
0.0
 11
223.2672665702
 21
323.8145295504
 31
0.0
  0
POLYLINE
  5
2BA
  8
0
  6
CONTINUOUS
 62
     7
 66
     1
 10
0.0
 20
0.0
 30
0.0
  0
VERTEX
  5
9BC
  8
0
  6
CONTINUOUS
 62
     7
 10
224.9634359466
 20
356.1794208686
 30
0.0
  0
VERTEX
  5
9BD
  8
0
  6
CONTINUOUS
 62
     7
 10
224.9111030685
 20
355.1807916115
 30
0.0
  0
VERTEX
  5
9BE
  8
0
  6
CONTINUOUS
 62
     7
 10
224.7017566549
 20
351.1862727205
 30
0.0
  0
VERTEX
  5
9BF
  8
0
  6
CONTINUOUS
 62
     7
 10
223.8643821763
 20
335.2082008819
 30
0.0
  0
VERTEX
  5
9C0
  8
0
  6
CONTINUOUS
 62
     7
 10
223.2672665702
 20
323.8145295504
 30
0.0
  0
SEQEND
  5
B9B
  8
0
  6
CONTINUOUS
 62
     7
  0
LINE
  5
2BB
  8
0
  6
CONTINUOUS
 62
     7
 10
224.6035282003
 20
366.3888210754
 30
0.0
 11
224.6548217224
 21
366.323960046
 31
0.0
  0
LINE
  5
2BC
  8
0
  6
CONTINUOUS
 62
     7
 10
224.6035282003
 20
366.3888173501
 30
0.0
 11
224.6035282003
 21
366.4076486925
 31
0.0
  0
LINE
  5
2BD
  8
0
  6
CONTINUOUS
 62
     7
 10
224.6035282003
 20
366.4076486925
 30
0.0
 11
224.6035282003
 21
366.4658936063
 31
0.0
  0
LINE
  5
2BE
  8
0
  6
CONTINUOUS
 62
     7
 10
224.6035282003
 20
366.4658936063
 30
0.0
 11
224.6035282003
 21
366.4712133209
 31
0.0
  0
LINE
  5
2BF
  8
0
  6
CONTINUOUS
 62
     7
 10
224.6035282003
 20
366.4712133209
 30
0.0
 11
224.6035282003
 21
366.6451545755
 31
0.0
  0
LINE
  5
2C0
  8
0
  6
CONTINUOUS
 62
     7
 10
224.6035282003
 20
366.6451545755
 30
0.0
 11
224.6035282003
 21
366.7188557188
 31
0.0
  0
LINE
  5
2C1
  8
0
  6
CONTINUOUS
 62
     7
 10
224.6035282003
 20
366.7188557188
 30
0.0
 11
224.6035282003
 21
367.0650134186
 31
0.0
  0
LINE
  5
2C2
  8
0
  6
CONTINUOUS
 62
     7
 10
224.6035282003
 20
367.0650134186
 30
0.0
 11
224.6035282003
 21
367.2430673937
 31
0.0
  0
LINE
  5
2C3
  8
0
  6
CONTINUOUS
 62
     7
 10
224.6035282003
 20
367.2430673937
 30
0.0
 11
224.6035282003
 21
367.5708892147
 31
0.0
  0
LINE
  5
2C4
  8
0
  6
CONTINUOUS
 62
     7
 10
224.6035282003
 20
367.5708892147
 30
0.0
 11
224.6035282003
 21
367.6431225936
 31
0.0
  0
LINE
  5
2C5
  8
0
  6
CONTINUOUS
 62
     7
 10
224.6035282003
 20
367.6431225936
 30
0.0
 11
224.6035282003
 21
367.7344555358
 31
0.0
  0
LINE
  5
2C6
  8
0
  6
CONTINUOUS
 62
     7
 10
224.6035282003
 20
367.7344555358
 30
0.0
 11
224.6035282003
 21
367.8660253386
 31
0.0
  0
LINE
  5
2C7
  8
0
  6
CONTINUOUS
 62
     7
 10
224.6035282003
 20
367.8660253386
 30
0.0
 11
224.6035282003
 21
368.0676045219
 31
0.0
  0
LINE
  5
2C8
  8
0
  6
CONTINUOUS
 62
     7
 10
224.6035282003
 20
368.0676045219
 30
0.0
 11
224.6035282003
 21
368.1830847959
 31
0.0
  0
POLYLINE
  5
2C9
  8
0
  6
CONTINUOUS
 62
     7
 66
     1
 10
0.0
 20
0.0
 30
0.0
  0
VERTEX
  5
9C1
  8
0
  6
CONTINUOUS
 62
     7
 10
484.6807476567
 20
363.2644983331
 30
0.0
  0
VERTEX
  5
9C2
  8
0
  6
CONTINUOUS
 62
     7
 10
446.5597328233
 20
363.2649230162
 30
0.0
  0
VERTEX
  5
9C3
  8
0
  6
CONTINUOUS
 62
     7
 10
408.6715635346
 20
363.2657276789
 30
0.0
  0
VERTEX
  5
9C4
  8
0
  6
CONTINUOUS
 62
     7
 10
400.3905412244
 20
363.2658357124
 30
0.0
  0
VERTEX
  5
9C5
  8
0
  6
CONTINUOUS
 62
     7
 10
392.1345379637
 20
363.2658915917
 30
0.0
  0
VERTEX
  5
9C6
  8
0
  6
CONTINUOUS
 62
     7
 10
383.9052226828
 20
363.2660890321
 30
0.0
  0
VERTEX
  5
9C7
  8
0
  6
CONTINUOUS
 62
     7
 10
375.6466042684
 20
363.2831098835
 30
0.0
  0
VERTEX
  5
9C8
  8
0
  6
CONTINUOUS
 62
     7
 10
368.50154963
 20
363.4908916752
 30
0.0
  0
VERTEX
  5
9C9
  8
0
  6
CONTINUOUS
 62
     7
 10
360.7037570761
 20
363.9010386864
 30
0.0
  0
VERTEX
  5
9CA
  8
0
  6
CONTINUOUS
 62
     7
 10
352.3655813621
 20
364.4798221389
 30
0.0
  0
VERTEX
  5
9CB
  8
0
  6
CONTINUOUS
 62
     7
 10
343.6450716542
 20
365.1880408029
 30
0.0
  0
VERTEX
  5
9CC
  8
0
  6
CONTINUOUS
 62
     7
 10
337.1776398705
 20
365.7601112823
 30
0.0
  0
VERTEX
  5
9CD
  8
0
  6
CONTINUOUS
 62
     7
 10
330.5609878587
 20
366.3747730056
 30
0.0
  0
VERTEX
  5
9CE
  8
0
  6
CONTINUOUS
 62
     7
 10
323.9792529927
 20
367.0054199497
 30
0.0
  0
VERTEX
  5
9CF
  8
0
  6
CONTINUOUS
 62
     7
 10
317.8147916185
 20
367.606182615
 30
0.0
  0
VERTEX
  5
9D0
  8
0
  6
CONTINUOUS
 62
     7
 10
312.4954347001
 20
368.1273022989
 30
0.0
  0
VERTEX
  5
9D1
  8
0
  6
CONTINUOUS
 62
     7
 10
307.6455947446
 20
368.6003769139
 30
0.0
  0
VERTEX
  5
9D2
  8
0
  6
CONTINUOUS
 62
     7
 10
302.9027563022
 20
369.0575594405
 30
0.0
  0
VERTEX
  5
9D3
  8
0
  6
CONTINUOUS
 62
     7
 10
296.1239833819
 20
369.6936974625
 30
0.0
  0
VERTEX
  5
9D4
  8
0
  6
CONTINUOUS
 62
     7
 10
288.6608243422
 20
370.3542212347
 30
0.0
  0
VERTEX
  5
9D5
  8
0
  6
CONTINUOUS
 62
     7
 10
281.3287927272
 20
370.9365846912
 30
0.0
  0
VERTEX
  5
9D6
  8
0
  6
CONTINUOUS
 62
     7
 10
274.2799302066
 20
371.3874938289
 30
0.0
  0
VERTEX
  5
9D7
  8
0
  6
CONTINUOUS
 62
     7
 10
268.3106067559
 20
371.628337572
 30
0.0
  0
VERTEX
  5
9D8
  8
0
  6
CONTINUOUS
 62
     7
 10
262.6670571478
 20
371.6533789734
 30
0.0
  0
VERTEX
  5
9D9
  8
0
  6
CONTINUOUS
 62
     7
 10
256.5608062284
 20
371.5477148394
 30
0.0
  0
VERTEX
  5
9DA
  8
0
  6
CONTINUOUS
 62
     7
 10
249.9941010462
 20
371.2874958614
 30
0.0
  0
VERTEX
  5
9DB
  8
0
  6
CONTINUOUS
 62
     7
 10
243.4288096117
 20
370.8517672817
 30
0.0
  0
VERTEX
  5
9DC
  8
0
  6
CONTINUOUS
 62
     7
 10
236.9338032292
 20
370.2052207987
 30
0.0
  0
VERTEX
  5
9DD
  8
0
  6
CONTINUOUS
 62
     7
 10
230.5710595535
 20
369.3164857427
 30
0.0
  0
VERTEX
  5
9DE
  8
0
  6
CONTINUOUS
 62
     7
 10
224.6035282003
 20
368.1830922465
 30
0.0
  0
SEQEND
  5
B9A
  8
0
  6
CONTINUOUS
 62
     7
  0
LINE
  5
2CA
  8
0
  6
CONTINUOUS
 62
     7
 10
484.2935260819
 20
363.2644759814
 30
0.0
 11
484.2935260819
 21
362.955358843
 31
0.0
  0
LINE
  5
2CB
  8
0
  6
CONTINUOUS
 62
     7
 10
484.2935260819
 20
362.955358843
 30
0.0
 11
484.2935260819
 21
362.9386024872
 31
0.0
  0
LINE
  5
2CC
  8
0
  6
CONTINUOUS
 62
     7
 10
484.2935260819
 20
362.9386024872
 30
0.0
 11
484.2935260819
 21
362.8643462757
 31
0.0
  0
LINE
  5
2CD
  8
0
  6
CONTINUOUS
 62
     7
 10
484.2935260819
 20
362.8643462757
 30
0.0
 11
484.2935260819
 21
362.8496276538
 31
0.0
  0
LINE
  5
2CE
  8
0
  6
CONTINUOUS
 62
     7
 10
484.2935260819
 20
362.8496276538
 30
0.0
 11
484.2935260819
 21
362.747547249
 31
0.0
  0
LINE
  5
2CF
  8
0
  6
CONTINUOUS
 62
     7
 10
484.2935260819
 20
362.7384687165
 30
0.0
 11
484.2935260819
 21
362.7154426972
 31
0.0
  0
LINE
  5
2D0
  8
0
  6
CONTINUOUS
 62
     7
 10
484.2935260819
 20
362.7154426972
 30
0.0
 11
484.2935260819
 21
361.587324212
 31
0.0
  0
LINE
  5
2D1
  8
0
  6
CONTINUOUS
 62
     7
 10
484.2935260819
 20
361.587324212
 30
0.0
 11
484.2935260819
 21
361.5297386746
 31
0.0
  0
LINE
  5
2D2
  8
0
  6
CONTINUOUS
 62
     7
 10
484.2935260819
 20
361.5297386746
 30
0.0
 11
484.2935260819
 21
361.487743477
 31
0.0
  0
LINE
  5
2D3
  8
0
  6
CONTINUOUS
 62
     7
 10
484.2921551751
 20
361.4857467214
 30
0.0
 11
484.2935260819
 21
361.487743477
 31
0.0
  0
POLYLINE
  5
2D4
  8
0
  6
CONTINUOUS
 62
     7
 66
     1
 10
0.0
 20
0.0
 30
0.0
  0
VERTEX
  5
9DF
  8
0
  6
CONTINUOUS
 62
     7
 10
484.2898752974
 20
361.4824349384
 30
0.0
  0
VERTEX
  5
9E0
  8
0
  6
CONTINUOUS
 62
     7
 10
484.2910077857
 20
361.4840926925
 30
0.0
  0
VERTEX
  5
9E1
  8
0
  6
CONTINUOUS
 62
     7
 10
484.2921551751
 20
361.4857467214
 30
0.0
  0
SEQEND
  5
B99
  8
0
  6
CONTINUOUS
 62
     7
  0
LINE
  5
2D5
  8
0
  6
CONTINUOUS
 62
     7
 10
485.739057927
 20
323.8145295504
 30
0.0
 11
430.210610895
 21
323.8145295504
 31
0.0
  0
LINE
  5
2D6
  8
0
  6
CONTINUOUS
 62
     7
 10
430.210610895
 20
353.014529715
 30
0.0
 11
430.210610895
 21
323.8145295504
 31
0.0
  0
ARC
  5
2D7
  8
0
  6
CONTINUOUS
 62
     7
 10
429.810571727
 20
353.0145041416
 30
0.0
 40
0.4000391688200071
 50
0.0036627518
 51
59.9973210905
  0
LINE
  5
2D8
  8
0
  6
CONTINUOUS
 62
     7
 10
430.0106075095
 20
353.7145303885
 30
0.0
 11
430.0106075095
 21
353.3609388719
 31
0.0
  0
LINE
  5
2D9
  8
0
  6
CONTINUOUS
 62
     7
 10
223.2672665702
 20
323.8145295504
 30
0.0
 11
222.7672655569
 21
323.8145295504
 31
0.0
  0
LINE
  5
2DA
  8
0
  6
CONTINUOUS
 62
     7
 10
331.8106104122
 20
353.014529715
 30
0.0
 11
332.0106100725
 21
353.014529715
 31
0.0
  0
LINE
  5
2DB
  8
0
  6
CONTINUOUS
 62
     7
 10
332.0106100725
 20
353.014529715
 30
0.0
 11
332.0106100725
 21
323.8145295504
 31
0.0
  0
LINE
  5
2DC
  8
0
  6
CONTINUOUS
 62
     7
 10
332.0106100725
 20
323.8145295504
 30
0.0
 11
331.8106104122
 21
323.8145295504
 31
0.0
  0
LINE
  5
2DD
  8
0
  6
CONTINUOUS
 62
     7
 10
430.0106075095
 20
323.8145295504
 30
0.0
 11
430.0106075095
 21
353.014529715
 31
0.0
  0
LINE
  5
2DE
  8
0
  6
CONTINUOUS
 62
     7
 10
430.0106075095
 20
353.014529715
 30
0.0
 11
430.210610895
 21
353.014529715
 31
0.0
  0
LINE
  5
2DF
  8
0
  6
CONTINUOUS
 62
     7
 10
430.210610895
 20
323.8145295504
 30
0.0
 11
430.0106075095
 21
323.8145295504
 31
0.0
  0
POLYLINE
  5
2E0
  8
0
  6
CONTINUOUS
 62
     7
 66
     1
 10
0.0
 20
0.0
 30
0.0
  0
VERTEX
  5
9E2
  8
0
  6
CONTINUOUS
 62
     7
 10
332.0106100725
 20
353.3609388719
 30
0.0
  0
VERTEX
  5
9E3
  8
0
  6
CONTINUOUS
 62
     7
 10
332.0301194178
 20
353.3271486262
 30
0.0
  0
VERTEX
  5
9E4
  8
0
  6
CONTINUOUS
 62
     7
 10
332.0488762544
 20
353.2946566443
 30
0.0
  0
VERTEX
  5
9E5
  8
0
  6
CONTINUOUS
 62
     7
 10
332.0661653267
 20
353.2647127608
 30
0.0
  0
VERTEX
  5
9E6
  8
0
  6
CONTINUOUS
 62
     7
 10
332.0813198076
 20
353.2384643654
 30
0.0
  0
VERTEX
  5
9E7
  8
0
  6
CONTINUOUS
 62
     7
 10
332.0937548267
 20
353.2169247369
 30
0.0
  0
VERTEX
  5
9E8
  8
0
  6
CONTINUOUS
 62
     7
 10
332.1029972719
 20
353.2009190271
 30
0.0
  0
VERTEX
  5
9E9
  8
0
  6
CONTINUOUS
 62
     7
 10
332.1086895155
 20
353.191061909
 30
0.0
  0
VERTEX
  5
9EA
  8
0
  6
CONTINUOUS
 62
     7
 10
332.11060804
 20
353.1877352248
 30
0.0
  0
SEQEND
  5
B98
  8
0
  6
CONTINUOUS
 62
     7
  0
ARC
  5
2E1
  8
0
  6
CONTINUOUS
 62
     7
 10
332.2106344459
 20
353.0145172458
 30
0.0
 40
0.2000243738124403
 50
120.0047031575
 51
179.9964282802
  0
ARC
  5
2E2
  8
0
  6
CONTINUOUS
 62
     7
 10
332.2106095599
 20
353.0145295302
 30
0.0
 40
0.3999999999999965
 50
90.0
 51
120.0
  0
LINE
  5
2E3
  8
0
  6
CONTINUOUS
 62
     7
 10
332.2106097327
 20
353.4145290355
 30
0.0
 11
332.2106097327
 21
353.2145293752
 31
0.0
  0
ARC
  5
2E4
  8
0
  6
CONTINUOUS
 62
     7
 10
332.2106095599
 20
353.0145295302
 30
0.0
 40
0.1999999999999698
 50
90.0
 51
120.0
  0
LINE
  5
2E5
  8
0
  6
CONTINUOUS
 62
     7
 10
332.2106097327
 20
353.4145290355
 30
0.0
 11
429.8106041239
 21
353.4145290355
 31
0.0
  0
LINE
  5
2E6
  8
0
  6
CONTINUOUS
 62
     7
 10
429.8106041239
 20
353.4145290355
 30
0.0
 11
429.8106041239
 21
353.2145293752
 31
0.0
  0
LINE
  5
2E7
  8
0
  6
CONTINUOUS
 62
     7
 10
429.8106041239
 20
353.2145293752
 30
0.0
 11
332.2106097327
 21
353.2145293752
 31
0.0
  0
ARC
  5
2E8
  8
0
  6
CONTINUOUS
 62
     7
 10
429.8106095599
 20
353.0145295302
 30
0.0
 40
0.3999999999999773
 50
60.0
 51
90.0
  0
ARC
  5
2E9
  8
0
  6
CONTINUOUS
 62
     7
 10
429.810675074
 20
353.0145681757
 30
0.0
 40
0.1999324391777301
 50
359.988978106
 51
60.0117389297
  0
POLYLINE
  5
2EA
  8
0
  6
CONTINUOUS
 62
     7
 66
     1
 10
0.0
 20
0.0
 30
0.0
  0
VERTEX
  5
9EB
  8
0
  6
CONTINUOUS
 62
     7
 10
429.9106058167
 20
353.1877352248
 30
0.0
  0
VERTEX
  5
9EC
  8
0
  6
CONTINUOUS
 62
     7
 10
429.9125280665
 20
353.191061909
 30
0.0
  0
VERTEX
  5
9ED
  8
0
  6
CONTINUOUS
 62
     7
 10
429.9182203101
 20
353.2009190271
 30
0.0
  0
VERTEX
  5
9EE
  8
0
  6
CONTINUOUS
 62
     7
 10
429.92745903
 20
353.2169247369
 30
0.0
  0
VERTEX
  5
9EF
  8
0
  6
CONTINUOUS
 62
     7
 10
429.9399014996
 20
353.2384643654
 30
0.0
  0
VERTEX
  5
9F0
  8
0
  6
CONTINUOUS
 62
     7
 10
429.9550559806
 20
353.2647127608
 30
0.0
  0
VERTEX
  5
9F1
  8
0
  6
CONTINUOUS
 62
     7
 10
429.9723413275
 20
353.2946566443
 30
0.0
  0
VERTEX
  5
9F2
  8
0
  6
CONTINUOUS
 62
     7
 10
429.9911018895
 20
353.3271486262
 30
0.0
  0
VERTEX
  5
9F3
  8
0
  6
CONTINUOUS
 62
     7
 10
430.0106075095
 20
353.3609388719
 30
0.0
  0
SEQEND
  5
B97
  8
0
  6
CONTINUOUS
 62
     7
  0
ARC
  5
2EB
  8
0
  6
CONTINUOUS
 62
     7
 10
429.8106095599
 20
353.0145295302
 30
0.0
 40
0.1999999999999318
 50
60.0
 51
90.0
  0
LINE
  5
2EC
  8
0
  6
CONTINUOUS
 62
     7
 10
486.4887353467
 20
361.0145310263
 30
0.0
 11
486.888578205
 21
361.0145310263
 31
0.0
  0
LINE
  5
2ED
  8
0
  6
CONTINUOUS
 62
     7
 10
486.4663836049
 20
361.4410208861
 30
0.0
 11
486.4887353467
 21
361.0145310263
 31
0.0
  0
LINE
  5
2EE
  8
0
  6
CONTINUOUS
 62
     7
 10
486.4625242041
 20
361.5145283143
 30
0.0
 11
486.4663836049
 21
361.4410208861
 31
0.0
  0
LINE
  5
2EF
  8
0
  6
CONTINUOUS
 62
     7
 10
486.9724568413
 20
361.5145283143
 30
0.0
 11
486.4625242041
 21
361.5145283143
 31
0.0
  0
LINE
  5
2F0
  8
0
  6
CONTINUOUS
 62
     7
 10
488.9482316064
 20
323.8145295504
 30
0.0
 11
486.9724568413
 21
361.5145283143
 31
0.0
  0
LINE
  5
2F1
  8
0
  6
CONTINUOUS
 62
     7
 10
486.888578205
 20
361.0145310263
 30
0.0
 11
488.8381418275
 21
323.8145295504
 31
0.0
  0
LINE
  5
2F2
  8
0
  6
CONTINUOUS
 62
     7
 10
488.8381418275
 20
323.8145295504
 30
0.0
 11
488.9482316064
 21
323.8145295504
 31
0.0
  0
POLYLINE
  5
2F3
  8
0
  6
CONTINUOUS
 62
     7
 66
     1
 10
0.0
 20
0.0
 30
0.0
  0
VERTEX
  5
9F4
  8
0
  6
CONTINUOUS
 62
     7
 10
484.6807476567
 20
363.2645132343
 30
0.0
  0
VERTEX
  5
9F5
  8
0
  6
CONTINUOUS
 62
     7
 10
485.2581378506
 20
363.2643083433
 30
0.0
  0
VERTEX
  5
9F6
  8
0
  6
CONTINUOUS
 62
     7
 10
485.4080286311
 20
363.2640140454
 30
0.0
  0
VERTEX
  5
9F7
  8
0
  6
CONTINUOUS
 62
     7
 10
485.4482766675
 20
363.2638203303
 30
0.0
  0
VERTEX
  5
9F8
  8
0
  6
CONTINUOUS
 62
     7
 10
485.4632821368
 20
363.2636526922
 30
0.0
  0
VERTEX
  5
9F9
  8
0
  6
CONTINUOUS
 62
     7
 10
485.4653981017
 20
363.2635930876
 30
0.0
  0
VERTEX
  5
9FA
  8
0
  6
CONTINUOUS
 62
     7
 10
485.4654130028
 20
363.2635930876
 30
0.0
  0
VERTEX
  5
9FB
  8
0
  6
CONTINUOUS
 62
     7
 10
485.4654130028
 20
363.2635930876
 30
0.0
  0
VERTEX
  5
9FC
  8
0
  6
CONTINUOUS
 62
     7
 10
485.4654428052
 20
363.2635930876
 30
0.0
  0
VERTEX
  5
9FD
  8
0
  6
CONTINUOUS
 62
     7
 10
485.4654875087
 20
363.2635893623
 30
0.0
  0
VERTEX
  5
9FE
  8
0
  6
CONTINUOUS
 62
     7
 10
485.4655769156
 20
363.263585637
 30
0.0
  0
VERTEX
  5
9FF
  8
0
  6
CONTINUOUS
 62
     7
 10
485.4657706307
 20
363.2635781864
 30
0.0
  0
VERTEX
  5
A00
  8
0
  6
CONTINUOUS
 62
     7
 10
485.4661431597
 20
363.2635632853
 30
0.0
  0
VERTEX
  5
A01
  8
0
  6
CONTINUOUS
 62
     7
 10
485.4668882178
 20
363.2635297577
 30
0.0
  0
VERTEX
  5
A02
  8
0
  6
CONTINUOUS
 62
     7
 10
485.4683932351
 20
363.2634589771
 30
0.0
  0
VERTEX
  5
A03
  8
0
  6
CONTINUOUS
 62
     7
 10
485.4713883685
 20
363.2633174161
 30
0.0
  0
VERTEX
  5
A04
  8
0
  6
CONTINUOUS
 62
     7
 10
485.4773637341
 20
363.2630044917
 30
0.0
  0
VERTEX
  5
A05
  8
0
  6
CONTINUOUS
 62
     7
 10
485.4892995642
 20
363.2622780601
 30
0.0
  0
VERTEX
  5
A06
  8
0
  6
CONTINUOUS
 62
     7
 10
485.5130669163
 20
363.260415415
 30
0.0
  0
VERTEX
  5
A07
  8
0
  6
CONTINUOUS
 62
     7
 10
485.560184388
 20
363.2550621728
 30
0.0
  0
VERTEX
  5
A08
  8
0
  6
CONTINUOUS
 62
     7
 10
485.6526609944
 20
363.237817804
 30
0.0
  0
VERTEX
  5
A09
  8
0
  6
CONTINUOUS
 62
     7
 10
485.8307745742
 20
363.1772036056
 30
0.0
  0
VERTEX
  5
A0A
  8
0
  6
CONTINUOUS
 62
     7
 10
486.1308839606
 20
362.9694888691
 30
0.0
  0
VERTEX
  5
A0B
  8
0
  6
CONTINUOUS
 62
     7
 10
486.3372203397
 20
362.6674982111
 30
0.0
  0
VERTEX
  5
A0C
  8
0
  6
CONTINUOUS
 62
     7
 10
486.4214566039
 20
362.2983182172
 30
0.0
  0
VERTEX
  5
A0D
  8
0
  6
CONTINUOUS
 62
     7
 10
486.4625242041
 20
361.5145283143
 30
0.0
  0
SEQEND
  5
B96
  8
0
  6
CONTINUOUS
 62
     7
  0
LINE
  5
2F4
  8
0
  6
CONTINUOUS
 62
     7
 10
484.6681859778
 20
363.5042729179
 30
0.0
 11
484.6807476567
 21
363.2644759814
 31
0.0
  0
LINE
  5
2F5
  8
0
  6
CONTINUOUS
 62
     7
 10
484.7635236071
 20
363.5070259074
 30
0.0
 11
484.6681859778
 21
363.5042729179
 31
0.0
  0
LINE
  5
2F6
  8
0
  6
CONTINUOUS
 62
     7
 10
484.7635236071
 20
363.7645403246
 30
0.0
 11
484.7635236071
 21
363.5070259074
 31
0.0
  0
LINE
  5
2F7
  8
0
  6
CONTINUOUS
 62
     7
 10
485.4301419543
 20
363.764532874
 30
0.0
 11
484.7635236071
 21
363.7645365993
 31
0.0
  0
ARC
  5
2F8
  8
0
  6
CONTINUOUS
 62
     7
 10
485.4310976904
 20
362.2645325238
 30
0.0
 40
1.500004380009889
 50
3.0407497694
 51
90.0365063258
  0
LINE
  5
2F9
  8
0
  6
CONTINUOUS
 62
     7
 10
486.9289901541
 20
362.344102035
 30
0.0
 11
486.9724568413
 21
361.5145283143
 31
0.0
  0
POLYLINE
  5
2FA
  8
0
  6
CONTINUOUS
 62
     7
 66
     1
 10
0.0
 20
0.0
 30
0.0
  0
VERTEX
  5
A0E
  8
0
  6
CONTINUOUS
 62
     7
 10
224.2935281681
 20
368.6145292918
 30
0.0
  0
VERTEX
  5
A0F
  8
0
  6
CONTINUOUS
 62
     7
 10
229.4773888277
 20
369.6330422858
 30
0.0
  0
VERTEX
  5
A10
  8
0
  6
CONTINUOUS
 62
     7
 10
235.0010741936
 20
370.4652646879
 30
0.0
  0
VERTEX
  5
A11
  8
0
  6
CONTINUOUS
 62
     7
 10
240.6859007167
 20
371.107191811
 30
0.0
  0
VERTEX
  5
A12
  8
0
  6
CONTINUOUS
 62
     7
 10
246.3992909031
 20
371.5734714965
 30
0.0
  0
VERTEX
  5
A13
  8
0
  6
CONTINUOUS
 62
     7
 10
252.2117607729
 20
371.8932057122
 30
0.0
  0
VERTEX
  5
A14
  8
0
  6
CONTINUOUS
 62
     7
 10
257.8907804998
 20
372.0813477735
 30
0.0
  0
VERTEX
  5
A15
  8
0
  6
CONTINUOUS
 62
     7
 10
265.3528904045
 20
372.1635574798
 30
0.0
  0
VERTEX
  5
A16
  8
0
  6
CONTINUOUS
 62
     7
 10
272.6796428176
 20
371.9683224658
 30
0.0
  0
VERTEX
  5
A17
  8
0
  6
CONTINUOUS
 62
     7
 10
280.5665936755
 20
371.4914890329
 30
0.0
  0
VERTEX
  5
A18
  8
0
  6
CONTINUOUS
 62
     7
 10
288.8267189698
 20
370.8401257495
 30
0.0
  0
VERTEX
  5
A19
  8
0
  6
CONTINUOUS
 62
     7
 10
297.1865944998
 20
370.0958313743
 30
0.0
  0
VERTEX
  5
A1A
  8
0
  6
CONTINUOUS
 62
     7
 10
304.7066647993
 20
369.384617577
 30
0.0
  0
VERTEX
  5
A1B
  8
0
  6
CONTINUOUS
 62
     7
 10
312.1772278534
 20
368.658457915
 30
0.0
  0
VERTEX
  5
A1C
  8
0
  6
CONTINUOUS
 62
     7
 10
317.1824235903
 20
368.1681352059
 30
0.0
  0
VERTEX
  5
A1D
  8
0
  6
CONTINUOUS
 62
     7
 10
322.9920026349
 20
367.6011311213
 30
0.0
  0
VERTEX
  5
A1E
  8
0
  6
CONTINUOUS
 62
     7
 10
329.242235093
 20
366.9998394648
 30
0.0
  0
VERTEX
  5
A1F
  8
0
  6
CONTINUOUS
 62
     7
 10
335.5880510496
 20
366.4053464631
 30
0.0
  0
VERTEX
  5
A20
  8
0
  6
CONTINUOUS
 62
     7
 10
341.804010837
 20
365.8472122947
 30
0.0
  0
VERTEX
  5
A21
  8
0
  6
CONTINUOUS
 62
     7
 10
349.7924488472
 20
365.1794428329
 30
0.0
  0
VERTEX
  5
A22
  8
0
  6
CONTINUOUS
 62
     7
 10
357.5307932185
 20
364.6066831748
 30
0.0
  0
VERTEX
  5
A23
  8
0
  6
CONTINUOUS
 62
     7
 10
364.8493793296
 20
364.16319109
 30
0.0
  0
VERTEX
  5
A24
  8
0
  6
CONTINUOUS
 62
     7
 10
371.9611373233
 20
363.8646947543
 30
0.0
  0
VERTEX
  5
A25
  8
0
  6
CONTINUOUS
 62
     7
 10
378.4139138149
 20
363.7641528944
 30
0.0
  0
VERTEX
  5
A26
  8
0
  6
CONTINUOUS
 62
     7
 10
384.5261391686
 20
363.7654418449
 30
0.0
  0
VERTEX
  5
A27
  8
0
  6
CONTINUOUS
 62
     7
 10
390.6588983225
 20
363.7655424277
 30
0.0
  0
VERTEX
  5
A28
  8
0
  6
CONTINUOUS
 62
     7
 10
396.8067821549
 20
363.7656839887
 30
0.0
  0
VERTEX
  5
A29
  8
0
  6
CONTINUOUS
 62
     7
 10
402.9691722678
 20
363.7657622198
 30
0.0
  0
VERTEX
  5
A2A
  8
0
  6
CONTINUOUS
 62
     7
 10
432.1849849509
 20
363.7655349771
 30
0.0
  0
VERTEX
  5
A2B
  8
0
  6
CONTINUOUS
 62
     7
 10
484.7635236071
 20
363.7645403246
 30
0.0
  0
SEQEND
  5
B95
  8
0
  6
CONTINUOUS
 62
     7
  0
LINE
  5
2FB
  8
0
  6
CONTINUOUS
 62
     7
 10
224.2935281681
 20
368.6145292918
 30
0.0
 11
224.2935281681
 21
368.346997569
 31
0.0
  0
LINE
  5
2FC
  8
0
  6
CONTINUOUS
 62
     7
 10
224.6035282003
 20
368.1830922465
 30
0.0
 11
224.6035282003
 21
368.4785859982
 31
0.0
  0
LINE
  5
2FD
  8
0
  6
CONTINUOUS
 62
     7
 10
224.6035282003
 20
368.4785859982
 30
0.0
 11
224.2935281681
 21
368.346997569
 31
0.0
  0
LINE
  5
2FE
  8
0
  6
CONTINUOUS
 62
     7
 10
484.7635236071
 20
363.5070259074
 30
0.0
 11
484.7635236071
 21
363.7645403246
 31
0.0
  0
LINE
  5
2FF
  8
0
  6
CONTINUOUS
 62
     7
 10
484.7895708369
 20
361.0145310263
 30
0.0
 11
484.7890194939
 21
361.0091554324
 31
0.0
  0
LINE
  5
300
  8
0
  6
CONTINUOUS
 62
     7
 10
484.7895708369
 20
361.0145310263
 30
0.0
 11
484.7895857381
 21
361.0145310263
 31
0.0
  0
LINE
  5
301
  8
0
  6
CONTINUOUS
 62
     7
 10
486.4887353467
 20
361.0145310263
 30
0.0
 11
484.7895857381
 21
361.0145310263
 31
0.0
  0
LINE
  5
302
  8
0
  6
CONTINUOUS
 62
     7
 10
486.4887353467
 20
361.0145310263
 30
0.0
 11
488.4382989691
 21
323.8145295504
 31
0.0
  0
LINE
  5
303
  8
0
  6
CONTINUOUS
 62
     7
 10
488.4382989691
 20
323.8145295504
 30
0.0
 11
488.8381418275
 21
323.8145295504
 31
0.0
  0
LINE
  5
304
  8
0
  6
CONTINUOUS
 62
     7
 10
486.0199597167
 20
361.0145310263
 30
0.0
 11
487.9695382403
 21
323.8145295504
 31
0.0
  0
LINE
  5
305
  8
0
  6
CONTINUOUS
 62
     7
 10
487.9695382403
 20
323.8145295504
 30
0.0
 11
488.4382989691
 21
323.8145295504
 31
0.0
  0
LINE
  5
306
  8
0
  6
CONTINUOUS
 62
     7
 10
484.8615881489
 20
361.0145310263
 30
0.0
 11
486.8111517714
 21
323.8145295504
 31
0.0
  0
LINE
  5
307
  8
0
  6
CONTINUOUS
 62
     7
 10
486.7382999943
 20
323.8145295504
 30
0.0
 11
486.8111517714
 21
323.8145295504
 31
0.0
  0
LINE
  5
308
  8
0
  6
CONTINUOUS
 62
     7
 10
486.8111517714
 20
323.8145295504
 30
0.0
 11
487.9695382403
 21
323.8145295504
 31
0.0
  0
POLYLINE
  5
309
  8
0
  6
CONTINUOUS
 62
     7
 66
     1
 10
0.0
 20
0.0
 30
0.0
  0
VERTEX
  5
A2C
  8
0
  6
CONTINUOUS
 62
     7
 10
224.3722510027
 20
366.2874671022
 30
0.0
  0
VERTEX
  5
A2D
  8
0
  6
CONTINUOUS
 62
     7
 10
224.4812492715
 20
366.3513297538
 30
0.0
  0
VERTEX
  5
A2E
  8
0
  6
CONTINUOUS
 62
     7
 10
224.6035282003
 20
366.3858818213
 30
0.0
  0
SEQEND
  5
B94
  8
0
  6
CONTINUOUS
 62
     7
  0
LINE
  5
30A
  8
0
  6
CONTINUOUS
 62
     7
 10
224.6035282003
 20
366.3858818213
 30
0.0
 11
224.6035282003
 21
366.3888173501
 31
0.0
  0
ARC
  5
30B
  8
0
  6
CONTINUOUS
 62
     7
 10
224.6782069099
 20
365.891778805
 30
0.0
 40
0.5001782139759989
 50
127.7120760065
 51
176.9825431119
  0
ARC
  5
30C
  8
0
  6
CONTINUOUS
 62
     7
 10
223.3717188044
 20
366.8618767982
 30
0.0
 40
1.500090158023627
 50
102.8931263184
 51
177.1740192704
  0
LINE
  5
30D
  8
0
  6
CONTINUOUS
 62
     7
 10
224.2935281681
 20
368.178428183
 30
0.0
 11
224.2935281681
 21
368.346997569
 31
0.0
  0
POLYLINE
  5
30E
  8
0
  6
CONTINUOUS
 62
     7
 66
     1
 10
0.0
 20
0.0
 30
0.0
  0
VERTEX
  5
A2F
  8
0
  6
CONTINUOUS
 62
     7
 10
222.4785369323
 20
365.9145282904
 30
0.0
  0
VERTEX
  5
A30
  8
0
  6
CONTINUOUS
 62
     7
 10
222.528772472
 20
366.8730864624
 30
0.0
  0
VERTEX
  5
A31
  8
0
  6
CONTINUOUS
 62
     7
 10
222.8877749728
 20
367.6972585122
 30
0.0
  0
VERTEX
  5
A32
  8
0
  6
CONTINUOUS
 62
     7
 10
223.5661056327
 20
367.979303966
 30
0.0
  0
VERTEX
  5
A33
  8
0
  6
CONTINUOUS
 62
     7
 10
224.2935281681
 20
368.178428183
 30
0.0
  0
SEQEND
  5
B93
  8
0
  6
CONTINUOUS
 62
     7
  0
LINE
  5
30F
  8
0
  6
CONTINUOUS
 62
     7
 10
222.4785369323
 20
365.9145282904
 30
0.0
 11
220.2721666979
 21
323.8145295504
 31
0.0
  0
LINE
  5
310
  8
0
  6
CONTINUOUS
 62
     7
 10
221.8734529303
 20
366.9358352522
 30
0.0
 11
219.7644692348
 21
323.8145295504
 31
0.0
  0
LINE
  5
311
  8
0
  6
CONTINUOUS
 62
     7
 10
223.0369989263
 20
368.3241466383
 30
0.0
 11
224.2935281681
 21
368.6145292918
 31
0.0
  0
LINE
  5
312
  8
0
  6
CONTINUOUS
 62
     7
 10
219.7644692348
 20
323.8145295504
 30
0.0
 11
220.2721666979
 21
323.8145295504
 31
0.0
  0
LINE
  5
313
  8
0
  6
CONTINUOUS
 62
     7
 10
224.1056841301
 20
365.9145729939
 30
0.0
 11
221.8993138956
 21
323.8145295504
 31
0.0
  0
LINE
  5
314
  8
0
  6
CONTINUOUS
 62
     7
 10
224.1056804048
 20
365.9145282904
 30
0.0
 11
224.1785359071
 21
365.9145282904
 31
0.0
  0
LINE
  5
315
  8
0
  6
CONTINUOUS
 62
     7
 10
221.9721693979
 20
323.8145295504
 30
0.0
 11
221.8993138956
 21
323.8145295504
 31
0.0
  0
LINE
  5
316
  8
0
  6
CONTINUOUS
 62
     7
 10
222.4785369323
 20
365.9145282904
 30
0.0
 11
222.9473162876
 21
365.9145282904
 31
0.0
  0
LINE
  5
317
  8
0
  6
CONTINUOUS
 62
     7
 10
222.9473125623
 20
365.9145282904
 30
0.0
 11
220.7409460531
 21
323.8145295504
 31
0.0
  0
LINE
  5
318
  8
0
  6
CONTINUOUS
 62
     7
 10
220.7409460531
 20
323.8145295504
 30
0.0
 11
220.2721666979
 21
323.8145295504
 31
0.0
  0
LINE
  5
319
  8
0
  6
CONTINUOUS
 62
     7
 10
224.2935281681
 20
368.178428183
 30
0.0
 11
224.6035282003
 21
368.1830885212
 31
0.0
  0
LINE
  5
31A
  8
0
  6
CONTINUOUS
 62
     7
 10
222.9473125623
 20
365.9145282904
 30
0.0
 11
224.1056804048
 21
365.9145282904
 31
0.0
  0
LINE
  5
31B
  8
0
  6
CONTINUOUS
 62
     7
 10
224.6035282003
 20
368.3248954217
 30
0.0
 11
224.6035282003
 21
368.4785859982
 31
0.0
  0
LINE
  5
31C
  8
0
  6
CONTINUOUS
 62
     7
 10
221.8993138956
 20
323.8145295504
 30
0.0
 11
220.7409460531
 21
323.8145295504
 31
0.0
  0
LINE
  5
31D
  8
0
  6
CONTINUOUS
 62
     7
 10
381.3076299118
 20
323.8145295504
 30
0.0
 11
381.2516909527
 21
324.6145295302
 31
0.0
  0
LINE
  5
31E
  8
0
  6
CONTINUOUS
 62
     7
 10
375.6753709601
 20
324.6145295302
 30
0.0
 11
375.619432001
 21
323.8145295504
 31
0.0
  0
LINE
  5
31F
  8
0
  6
CONTINUOUS
 62
     7
 10
375.619432001
 20
323.8145295504
 30
0.0
 11
357.9826709317
 21
323.8145295504
 31
0.0
  0
LINE
  5
320
  8
0
  6
CONTINUOUS
 62
     7
 10
357.0385482596
 20
323.8145295504
 30
0.0
 11
332.0106100725
 21
323.8145295504
 31
0.0
  0
LINE
  5
321
  8
0
  6
CONTINUOUS
 62
     7
 10
430.0106075095
 20
323.8145295504
 30
0.0
 11
394.9826714085
 21
323.8145295504
 31
0.0
  0
LINE
  5
322
  8
0
  6
CONTINUOUS
 62
     7
 10
394.0385487365
 20
323.8145295504
 30
0.0
 11
381.3076299118
 21
323.8145295504
 31
0.0
  0
LINE
  5
323
  8
0
  6
CONTINUOUS
 62
     7
 10
375.619432001
 20
323.8145295504
 30
0.0
 11
381.3076299118
 21
323.8145295504
 31
0.0
  0
LINE
  5
324
  8
0
  6
CONTINUOUS
 62
     7
 10
333.6445745515
 20
330.4667235675
 30
0.0
 11
332.9960387634
 21
330.9001527118
 31
0.0
  0
LINE
  5
325
  8
0
  6
CONTINUOUS
 62
     7
 10
332.9960387634
 20
330.9001527118
 30
0.0
 11
332.5627427982
 21
331.5488826806
 31
0.0
  0
LINE
  5
326
  8
0
  6
CONTINUOUS
 62
     7
 10
332.5627427982
 20
331.5488826806
 30
0.0
 11
332.4105982171
 21
332.314224946
 31
0.0
  0
LINE
  5
327
  8
0
  6
CONTINUOUS
 62
     7
 10
332.4105982171
 20
332.314224946
 30
0.0
 11
332.4671145962
 21
332.3707604172
 31
0.0
  0
ARC
  5
328
  8
0
  6
CONTINUOUS
 62
     7
 10
334.4667082021
 20
332.37126785
 30
0.0
 40
1.999593670194988
 50
180.0145398308
 51
270.0030078804
  0
LINE
  5
329
  8
0
  6
CONTINUOUS
 62
     7
 10
334.4668131756
 20
330.3716741825
 30
0.0
 11
334.4096821235
 21
330.3145296263
 31
0.0
  0
LINE
  5
32A
  8
0
  6
CONTINUOUS
 62
     7
 10
334.4096821235
 20
330.3145296263
 30
0.0
 11
333.6445745515
 21
330.4667235675
 31
0.0
  0
LINE
  5
32B
  8
0
  6
CONTINUOUS
 62
     7
 10
427.5543895053
 20
330.3716741825
 30
0.0
 11
334.4668131756
 21
330.3716741825
 31
0.0
  0
LINE
  5
32C
  8
0
  6
CONTINUOUS
 62
     7
 10
427.6115056561
 20
330.3145296263
 30
0.0
 11
427.5543895053
 21
330.3716741825
 31
0.0
  0
LINE
  5
32D
  8
0
  6
CONTINUOUS
 62
     7
 10
384.9940132784
 20
330.3393824349
 30
0.0
 11
385.1185795354
 21
330.3145296263
 31
0.0
  0
LINE
  5
32E
  8
0
  6
CONTINUOUS
 62
     7
 10
382.9940166758
 20
330.3393824349
 30
0.0
 11
384.9940132784
 21
330.3393824349
 31
0.0
  0
LINE
  5
32F
  8
0
  6
CONTINUOUS
 62
     7
 10
381.9964137362
 20
330.3393824349
 30
0.0
 11
382.9940166758
 21
330.3393824349
 31
0.0
  0
LINE
  5
330
  8
0
  6
CONTINUOUS
 62
     7
 10
380.0247740434
 20
330.3393824349
 30
0.0
 11
381.9964137362
 21
330.3393824349
 31
0.0
  0
LINE
  5
331
  8
0
  6
CONTINUOUS
 62
     7
 10
379.0271785544
 20
330.3393824349
 30
0.0
 11
380.0247740434
 21
330.3393824349
 31
0.0
  0
LINE
  5
332
  8
0
  6
CONTINUOUS
 62
     7
 10
377.0272043036
 20
330.3393824349
 30
0.0
 11
379.0271785544
 21
330.3393824349
 31
0.0
  0
LINE
  5
333
  8
0
  6
CONTINUOUS
 62
     7
 10
376.9026380466
 20
330.3145296263
 30
0.0
 11
377.0272043036
 21
330.3393824349
 31
0.0
  0
LINE
  5
334
  8
0
  6
CONTINUOUS
 62
     7
 10
429.4584449815
 20
331.5488826806
 30
0.0
 11
429.0251490163
 21
330.9001527118
 31
0.0
  0
LINE
  5
335
  8
0
  6
CONTINUOUS
 62
     7
 10
429.0251490163
 20
330.9001527118
 30
0.0
 11
428.3766206788
 21
330.4667235675
 31
0.0
  0
LINE
  5
336
  8
0
  6
CONTINUOUS
 62
     7
 10
428.3766206788
 20
330.4667235675
 30
0.0
 11
427.6115056561
 21
330.3145296263
 31
0.0
  0
ARC
  5
337
  8
0
  6
CONTINUOUS
 62
     7
 10
427.554483432
 20
332.3712714476
 30
0.0
 40
1.999597267319204
 50
269.9973086559
 51
359.9853571088
  0
LINE
  5
338
  8
0
  6
CONTINUOUS
 62
     7
 10
429.554080634
 20
332.3707604172
 30
0.0
 11
429.6106007384
 21
332.314224946
 31
0.0
  0
LINE
  5
339
  8
0
  6
CONTINUOUS
 62
     7
 10
429.6106007384
 20
332.314224946
 30
0.0
 11
429.4584449815
 21
331.5488826806
 31
0.0
  0
LINE
  5
33A
  8
0
  6
CONTINUOUS
 62
     7
 10
332.4610833513
 20
352.1643625895
 30
0.0
 11
332.4105982171
 21
352.2148346851
 31
0.0
  0
LINE
  5
33B
  8
0
  6
CONTINUOUS
 62
     7
 10
332.4671145962
 20
332.3707604172
 30
0.0
 11
332.4610833513
 21
352.1643625895
 31
0.0
  0
LINE
  5
33C
  8
0
  6
CONTINUOUS
 62
     7
 10
332.4105982171
 20
332.314224946
 30
0.0
 11
332.4105982171
 21
352.2148346851
 31
0.0
  0
LINE
  5
33D
  8
0
  6
CONTINUOUS
 62
     7
 10
429.6106007384
 20
352.2148346851
 30
0.0
 11
429.5601156043
 21
352.1643625895
 31
0.0
  0
LINE
  5
33E
  8
0
  6
CONTINUOUS
 62
     7
 10
429.6106007384
 20
352.2148346851
 30
0.0
 11
429.6106007384
 21
332.314224946
 31
0.0
  0
LINE
  5
33F
  8
0
  6
CONTINUOUS
 62
     7
 10
429.5601156043
 20
352.1643625895
 30
0.0
 11
429.554080634
 21
332.3707604172
 31
0.0
  0
LINE
  5
340
  8
0
  6
CONTINUOUS
 62
     7
 10
332.5628620075
 20
352.9800838182
 30
0.0
 11
332.7195588933
 21
353.2145293752
 31
0.0
  0
ARC
  5
341
  8
0
  6
CONTINUOUS
 62
     7
 10
334.4609366275
 20
352.1650050178
 30
0.0
 40
1.999853379461503
 50
148.3451757854
 51
180.0184055637
  0
LINE
  5
342
  8
0
  6
CONTINUOUS
 62
     7
 10
332.4105982171
 20
352.2148346851
 30
0.0
 11
332.5628620075
 21
352.9800838182
 31
0.0
  0
LINE
  5
343
  8
0
  6
CONTINUOUS
 62
     7
 10
429.3016400622
 20
353.2145293752
 30
0.0
 11
429.4583257722
 21
352.9800838182
 31
0.0
  0
LINE
  5
344
  8
0
  6
CONTINUOUS
 62
     7
 10
429.4583257722
 20
352.9800838182
 30
0.0
 11
429.6106007384
 21
352.2148346851
 31
0.0
  0
ARC
  5
345
  8
0
  6
CONTINUOUS
 62
     7
 10
427.5604174702
 20
352.1650429337
 30
0.0
 40
1.999698249846351
 50
359.9805066337
 51
31.6562883074
  0
LINE
  5
346
  8
0
  6
CONTINUOUS
 62
     7
 10
429.2011466311
 20
324.6145295302
 30
0.0
 11
429.2015191601
 21
324.6145295302
 31
0.0
  0
LINE
  5
347
  8
0
  6
CONTINUOUS
 62
     7
 10
429.3034580039
 20
330.4768866251
 30
0.0
 11
429.2011466311
 21
324.6145295302
 31
0.0
  0
LINE
  5
348
  8
0
  6
CONTINUOUS
 62
     7
 10
429.3038752364
 20
330.477125975
 30
0.0
 11
429.3034580039
 21
330.4768866251
 31
0.0
  0
LINE
  5
349
  8
0
  6
CONTINUOUS
 62
     7
 10
429.3038752364
 20
330.477125975
 30
0.0
 11
429.2015191601
 21
324.6145295302
 31
0.0
  0
LINE
  5
34A
  8
0
  6
CONTINUOUS
 62
     7
 10
332.8196946965
 20
324.6145295302
 30
0.0
 11
332.8200709509
 21
324.6145295302
 31
0.0
  0
LINE
  5
34B
  8
0
  6
CONTINUOUS
 62
     7
 10
332.8196946965
 20
324.6145295302
 30
0.0
 11
332.7173460709
 21
330.477125975
 31
0.0
  0
LINE
  5
34C
  8
0
  6
CONTINUOUS
 62
     7
 10
332.7177595781
 20
330.4768866251
 30
0.0
 11
332.7173460709
 21
330.477125975
 31
0.0
  0
LINE
  5
34D
  8
0
  6
CONTINUOUS
 62
     7
 10
332.8200709509
 20
324.6145295302
 30
0.0
 11
332.7177595781
 21
330.4768866251
 31
0.0
  0
LINE
  5
34E
  8
0
  6
CONTINUOUS
 62
     7
 10
332.8200709509
 20
324.6145295302
 30
0.0
 11
429.2011466311
 21
324.6145295302
 31
0.0
  0
ARC
  5
34F
  8
0
  6
CONTINUOUS
 62
     7
 10
332.9177237033
 20
330.4803864285
 30
0.0
 40
0.1999947498736722
 50
59.8227555026
 51
181.0026973335
  0
ARC
  5
350
  8
0
  6
CONTINUOUS
 62
     7
 10
334.2748314969
 20
332.8145295302
 30
0.0
 40
2.500000000000053
 50
239.825777758
 51
270.0
  0
LINE
  5
351
  8
0
  6
CONTINUOUS
 62
     7
 10
334.2748340653
 20
330.3145296263
 30
0.0
 11
427.7463909672
 21
330.3145296263
 31
0.0
  0
ARC
  5
352
  8
0
  6
CONTINUOUS
 62
     7
 10
427.7463876229
 20
332.8145295302
 30
0.0
 40
2.500000000000024
 50
270.0
 51
300.174222242
  0
ARC
  5
353
  8
0
  6
CONTINUOUS
 62
     7
 10
429.1034810212
 20
330.4803645245
 30
0.0
 40
0.2000072233801254
 50
359.0036409778
 51
120.170906186
  0
ARC
  5
354
  8
0
  6
CONTINUOUS
 62
     7
 10
429.1039152993
 20
330.480633016
 30
0.0
 40
0.1999906892673405
 50
358.9952084869
 51
120.1891862941
  0
ARC
  5
355
  8
0
  6
CONTINUOUS
 62
     7
 10
332.9173109163
 20
330.4806225286
 30
0.0
 40
0.1999954131630704
 50
59.8144624492
 51
181.0017628465
  0
ARC
  5
356
  8
0
  6
CONTINUOUS
 62
     7
 10
334.2748615653
 20
332.8145522976
 30
0.0
 40
2.500036425743267
 50
201.781367954
 51
239.8152617039
  0
LINE
  5
357
  8
0
  6
CONTINUOUS
 62
     7
 10
332.0106100725
 20
324.6145295302
 30
0.0
 11
332.8196946965
 21
324.6145295302
 31
0.0
  0
LINE
  5
358
  8
0
  6
CONTINUOUS
 62
     7
 10
431.9756832408
 20
323.6145294827
 30
0.0
 11
431.0455229567
 21
323.6145294827
 31
0.0
  0
LINE
  5
359
  8
0
  6
CONTINUOUS
 62
     7
 10
431.9756832408
 20
323.6145294827
 30
0.0
 11
431.9826718854
 21
323.8145295504
 31
0.0
  0
LINE
  5
35A
  8
0
  6
CONTINUOUS
 62
     7
 10
431.0385492133
 20
323.8145295504
 30
0.0
 11
431.0455229567
 21
323.6145294827
 31
0.0
  0
ARC
  5
35B
  8
0
  6
CONTINUOUS
 62
     7
 10
427.7463525099
 20
332.814556279
 30
0.0
 40
2.500041630499252
 50
300.1847618875
 51
339.4274233271
  0
LINE
  5
35C
  8
0
  6
CONTINUOUS
 62
     7
 10
429.2015191601
 20
324.6145295302
 30
0.0
 11
430.0106075095
 21
324.6145295302
 31
0.0
  0
LINE
  5
35D
  8
0
  6
CONTINUOUS
 62
     7
 10
384.71184489
 20
330.3393824349
 30
0.0
 11
384.7121727155
 21
330.3145296263
 31
0.0
  0
LINE
  5
35E
  8
0
  6
CONTINUOUS
 62
     7
 10
383.0893692063
 20
330.3393824349
 30
0.0
 11
383.0890488313
 21
330.3145296263
 31
0.0
  0
LINE
  5
35F
  8
0
  6
CONTINUOUS
 62
     7
 10
377.309372692
 20
330.3393824349
 30
0.0
 11
377.3090448664
 21
330.3145296263
 31
0.0
  0
LINE
  5
360
  8
0
  6
CONTINUOUS
 62
     7
 10
378.9318483757
 20
330.3393824349
 30
0.0
 11
378.9321762012
 21
330.3145296263
 31
0.0
  0
LINE
  5
361
  8
0
  6
CONTINUOUS
 62
     7
 10
320.9756892608
 20
323.6145294827
 30
0.0
 11
320.9826741801
 21
323.8145295504
 31
0.0
  0
LINE
  5
362
  8
0
  6
CONTINUOUS
 62
     7
 10
320.9756892608
 20
323.6145294827
 30
0.0
 11
320.0455289768
 21
323.6145294827
 31
0.0
  0
LINE
  5
363
  8
0
  6
CONTINUOUS
 62
     7
 10
320.0455289768
 20
323.6145294827
 30
0.0
 11
320.0385477828
 21
323.8145295504
 31
0.0
  0
LINE
  5
364
  8
0
  6
CONTINUOUS
 62
     7
 10
467.8038116978
 20
323.6145294827
 30
0.0
 11
466.9434931563
 21
323.6145294827
 31
0.0
  0
LINE
  5
365
  8
0
  6
CONTINUOUS
 62
     7
 10
466.9434931563
 20
323.6145294827
 30
0.0
 11
466.9365045117
 21
323.8145295504
 31
0.0
  0
LINE
  5
366
  8
0
  6
CONTINUOUS
 62
     7
 10
467.8038116978
 20
323.6145294827
 30
0.0
 11
467.8107854413
 21
323.8145295504
 31
0.0
  0
LINE
  5
367
  8
0
  6
CONTINUOUS
 62
     7
 10
483.6792108105
 20
323.8145295504
 30
0.0
 11
483.6724754857
 21
323.6145294827
 31
0.0
  0
LINE
  5
368
  8
0
  6
CONTINUOUS
 62
     7
 10
483.6724754857
 20
323.6145294827
 30
0.0
 11
483.3190795468
 21
323.6145294827
 31
0.0
  0
LINE
  5
369
  8
0
  6
CONTINUOUS
 62
     7
 10
483.3190795468
 20
323.6145294827
 30
0.0
 11
483.3258148717
 21
323.8145295504
 31
0.0
  0
LINE
  5
36A
  8
0
  6
CONTINUOUS
 62
     7
 10
483.3190795468
 20
323.6145294827
 30
0.0
 11
470.7956221389
 21
323.6145294827
 31
0.0
  0
LINE
  5
36B
  8
0
  6
CONTINUOUS
 62
     7
 10
470.7886334943
 20
323.8145295504
 30
0.0
 11
470.7956221389
 21
323.6145294827
 31
0.0
  0
LINE
  5
36C
  8
0
  6
CONTINUOUS
 62
     7
 10
464.1736504124
 20
323.6145294827
 30
0.0
 11
464.1806241559
 21
323.8145295504
 31
0.0
  0
LINE
  5
36D
  8
0
  6
CONTINUOUS
 62
     7
 10
458.2434948968
 20
323.6145294827
 30
0.0
 11
464.1736504124
 21
323.6145294827
 31
0.0
  0
LINE
  5
36E
  8
0
  6
CONTINUOUS
 62
     7
 10
458.2434948968
 20
323.6145294827
 30
0.0
 11
458.2365062522
 21
323.8145295504
 31
0.0
  0
LINE
  5
36F
  8
0
  6
CONTINUOUS
 62
     7
 10
225.473268001
 20
323.8145295504
 30
0.0
 11
225.4800107764
 21
323.6145294827
 31
0.0
  0
LINE
  5
370
  8
0
  6
CONTINUOUS
 62
     7
 10
225.4800107764
 20
323.6145294827
 30
0.0
 11
224.9304000722
 21
323.6145294827
 31
0.0
  0
LINE
  5
371
  8
0
  6
CONTINUOUS
 62
     7
 10
224.9236572968
 20
323.8145295504
 30
0.0
 11
224.9304000722
 21
323.6145294827
 31
0.0
  0
LINE
  5
372
  8
0
  6
CONTINUOUS
 62
     7
 10
247.9658481168
 20
323.6145294827
 30
0.0
 11
247.9728311734
 21
323.8145295504
 31
0.0
  0
LINE
  5
373
  8
0
  6
CONTINUOUS
 62
     7
 10
247.9658481168
 20
323.6145294827
 30
0.0
 11
225.4800107764
 21
323.6145294827
 31
0.0
  0
LINE
  5
374
  8
0
  6
CONTINUOUS
 62
     7
 10
253.9256886082
 20
323.6145294827
 30
0.0
 11
252.9955301868
 21
323.6145294827
 31
0.0
  0
LINE
  5
375
  8
0
  6
CONTINUOUS
 62
     7
 10
252.9955301868
 20
323.6145294827
 30
0.0
 11
252.9885452675
 21
323.8145295504
 31
0.0
  0
LINE
  5
376
  8
0
  6
CONTINUOUS
 62
     7
 10
253.9256886082
 20
323.6145294827
 30
0.0
 11
253.9326735275
 21
323.8145295504
 31
0.0
  0
LINE
  5
377
  8
0
  6
CONTINUOUS
 62
     7
 10
283.975688784
 20
323.6145294827
 30
0.0
 11
283.0455303626
 21
323.6145294827
 31
0.0
  0
LINE
  5
378
  8
0
  6
CONTINUOUS
 62
     7
 10
283.0455303626
 20
323.6145294827
 30
0.0
 11
283.0385463746
 21
323.8145295504
 31
0.0
  0
LINE
  5
379
  8
0
  6
CONTINUOUS
 62
     7
 10
283.975688784
 20
323.6145294827
 30
0.0
 11
283.982672772
 21
323.8145295504
 31
0.0
  0
LINE
  5
37A
  8
0
  6
CONTINUOUS
 62
     7
 10
357.9756897377
 20
323.6145294827
 30
0.0
 11
357.0455294536
 21
323.6145294827
 31
0.0
  0
LINE
  5
37B
  8
0
  6
CONTINUOUS
 62
     7
 10
357.0455294536
 20
323.6145294827
 30
0.0
 11
357.0106085824
 21
324.6145295302
 31
0.0
  0
LINE
  5
37C
  8
0
  6
CONTINUOUS
 62
     7
 10
357.9756897377
 20
323.6145294827
 30
0.0
 11
358.0106106089
 21
324.6145295302
 31
0.0
  0
LINE
  5
37D
  8
0
  6
CONTINUOUS
 62
     7
 10
394.9756902145
 20
323.6145294827
 30
0.0
 11
395.0106110858
 21
324.6145295302
 31
0.0
  0
LINE
  5
37E
  8
0
  6
CONTINUOUS
 62
     7
 10
394.9756902145
 20
323.6145294827
 30
0.0
 11
394.0455299305
 21
323.6145294827
 31
0.0
  0
LINE
  5
37F
  8
0
  6
CONTINUOUS
 62
     7
 10
394.0455299305
 20
323.6145294827
 30
0.0
 11
394.0106090592
 21
324.6145295302
 31
0.0
  0
LINE
  5
380
  8
0
  6
CONTINUOUS
 62
     7
 10
438.9756825255
 20
323.6145294827
 30
0.0
 11
431.9756832408
 21
323.6145294827
 31
0.0
  0
LINE
  5
381
  8
0
  6
CONTINUOUS
 62
     7
 10
261.6756884815
 20
323.6145294827
 30
0.0
 11
261.6826734008
 21
323.8145295504
 31
0.0
  0
LINE
  5
382
  8
0
  6
CONTINUOUS
 62
     7
 10
261.6756884815
 20
323.6145294827
 30
0.0
 11
253.9256886082
 21
323.6145294827
 31
0.0
  0
LINE
  5
383
  8
0
  6
CONTINUOUS
 62
     7
 10
485.9784152793
 20
323.8145295504
 30
0.0
 11
485.9712627219
 21
323.6145294827
 31
0.0
  0
LINE
  5
384
  8
0
  6
CONTINUOUS
 62
     7
 10
485.0378390836
 20
323.8145295504
 30
0.0
 11
485.034829049
 21
323.6145294827
 31
0.0
  0
LINE
  5
385
  8
0
  6
CONTINUOUS
 62
     7
 10
485.9712627219
 20
323.6145294827
 30
0.0
 11
485.034829049
 21
323.6145294827
 31
0.0
  0
LINE
  5
386
  8
0
  6
CONTINUOUS
 62
     7
 10
485.034829049
 20
323.6145294827
 30
0.0
 11
483.6724754857
 21
323.6145294827
 31
0.0
  0
LINE
  5
387
  8
0
  6
CONTINUOUS
 62
     7
 10
487.926339774
 20
323.6145294827
 30
0.0
 11
487.926339774
 21
323.8145295504
 31
0.0
  0
LINE
  5
388
  8
0
  6
CONTINUOUS
 62
     7
 10
485.9712627219
 20
323.6145294827
 30
0.0
 11
487.926339774
 21
323.6145294827
 31
0.0
  0
LINE
  5
389
  8
0
  6
CONTINUOUS
 62
     7
 10
273.2136254633
 20
323.8145295504
 30
0.0
 11
273.2206094513
 21
323.6145294827
 31
0.0
  0
LINE
  5
38A
  8
0
  6
CONTINUOUS
 62
     7
 10
274.1577516278
 20
323.8145295504
 30
0.0
 11
274.1507676398
 21
323.6145294827
 31
0.0
  0
LINE
  5
38B
  8
0
  6
CONTINUOUS
 62
     7
 10
274.1507676398
 20
323.6145294827
 30
0.0
 11
273.2206094513
 21
323.6145294827
 31
0.0
  0
LINE
  5
38C
  8
0
  6
CONTINUOUS
 62
     7
 10
267.2834673865
 20
323.8145295504
 30
0.0
 11
267.2904516073
 21
323.6145294827
 31
0.0
  0
LINE
  5
38D
  8
0
  6
CONTINUOUS
 62
     7
 10
268.2275937838
 20
323.8145295504
 30
0.0
 11
268.220609563
 21
323.6145294827
 31
0.0
  0
LINE
  5
38E
  8
0
  6
CONTINUOUS
 62
     7
 10
268.220609563
 20
323.6145294827
 30
0.0
 11
267.2904516073
 21
323.6145294827
 31
0.0
  0
LINE
  5
38F
  8
0
  6
CONTINUOUS
 62
     7
 10
223.6217055904
 20
323.6145294827
 30
0.0
 11
222.7264699029
 21
323.6145294827
 31
0.0
  0
LINE
  5
390
  8
0
  6
CONTINUOUS
 62
     7
 10
224.9304000722
 20
323.6145294827
 30
0.0
 11
223.6217055904
 21
323.6145294827
 31
0.0
  0
LINE
  5
391
  8
0
  6
CONTINUOUS
 62
     7
 10
267.2904516073
 20
323.6145294827
 30
0.0
 11
261.6756884815
 21
323.6145294827
 31
0.0
  0
LINE
  5
392
  8
0
  6
CONTINUOUS
 62
     7
 10
283.0455303626
 20
323.6145294827
 30
0.0
 11
274.1507676398
 21
323.6145294827
 31
0.0
  0
LINE
  5
393
  8
0
  6
CONTINUOUS
 62
     7
 10
468.8736405658
 20
323.6145294827
 30
0.0
 11
468.8806292104
 21
323.8145295504
 31
0.0
  0
LINE
  5
394
  8
0
  6
CONTINUOUS
 62
     7
 10
468.8736405658
 20
323.6145294827
 30
0.0
 11
467.8038116978
 21
323.6145294827
 31
0.0
  0
LINE
  5
395
  8
0
  6
CONTINUOUS
 62
     7
 10
470.7956221389
 20
323.6145294827
 30
0.0
 11
468.8736405658
 21
323.6145294827
 31
0.0
  0
LINE
  5
396
  8
0
  6
CONTINUOUS
 62
     7
 10
252.9955301868
 20
323.6145294827
 30
0.0
 11
247.9658481168
 21
323.6145294827
 31
0.0
  0
LINE
  5
397
  8
0
  6
CONTINUOUS
 62
     8
 10
236.9585689591
 20
317.0145294021
 30
0.0
 11
232.7585686432
 21
317.0145294021
 31
0.0
  0
LINE
  5
398
  8
0
  6
CONTINUOUS
 62
     8
 10
479.0585693406
 20
317.0145294021
 30
0.0
 11
474.85857275
 21
317.0145294021
 31
0.0
  0
LINE
  5
399
  8
0
  6
CONTINUOUS
 62
     8
 10
223.6217055904
 20
323.8145295504
 30
0.0
 11
223.6217055904
 21
323.6145294827
 31
0.0
  0
LINE
  5
39A
  8
COTATION
 10
283.264356853
 20
372.163692277
 30
0.0
 11
225.3567049871
 21
372.163692277
 31
0.0
  0
DIMENSION
  5
39B
  8
COTATION
  2
_D_5
 10
207.8141780042
 20
323.6145295302
 30
0.0
 11
207.8141780042
 21
347.8891109036
 31
0.0
 70
   160
  1
<>
  3
SLDDIMSTYLE1
 13
225.3567049871
 23
372.163692277
 33
0.0
 14
252.9955303294
 24
323.6145295302
 34
0.0
 50
90.0
  0
DIMENSION
  5
3A5
  8
COTATION
  2
_D_6
 10
476.9585677641
 20
304.0145295302
 30
0.0
 11
359.9085677641
 21
304.0145295302
 31
0.0
 70
   160
  1
<> (RETROFIT A8)
  3
SLDDIMSTYLE2
 13
242.8585677641
 23
315.0145295302
 33
0.0
 14
476.9585677641
 24
315.0145295302
 34
0.0
  0
DIMENSION
  5
3B1
  8
COTATION
  2
_D_7
 10
476.9585677641
 20
289.0094065024
 30
0.0
 11
355.9085677641
 21
289.0094065024
 31
0.0
 70
   160
  1
<>
  3
SLDDIMSTYLE3
 13
234.8585677641
 23
315.0145295302
 33
0.0
 14
476.9585677641
 24
315.0145295302
 34
0.0
  0
DIMENSION
  5
3C1
  8
COTATION
  2
_D_8
 10
499.0641006505
 20
363.7645400568
 30
0.0
 11
499.0641006505
 21
343.6895347935
 31
0.0
 70
   160
  1
<>
  3
SLDDIMSTYLE1
 13
487.926337539
 23
323.6145295302
 33
0.0
 14
484.7635295599
 24
363.7645400568
 34
0.0
 50
90.0
  0
LINE
  5
3CB
  8
COTATION
  6
CENTERX2
 10
234.8585677641
 20
315.0145295302
 30
0.0
 11
234.8585677641
 21
328.6145295302
 31
0.0
  0
LINE
  5
3CC
  8
COTATION
  6
CENTERX2
 10
242.8585677641
 20
315.0145295302
 30
0.0
 11
242.8585677641
 21
328.6145295302
 31
0.0
  0
LINE
  5
3CD
  8
COTATION
  6
CENTERX2
 10
476.9585677641
 20
315.0145295302
 30
0.0
 11
476.9585677641
 21
328.6145295302
 31
0.0
  0
LINE
  5
3CE
  8
0
  6
CONTINUOUS
 62
     7
 10
293.0247770484
 20
56.3868869671
 30
0.0
 11
293.3558528885
 21
56.6818527591
 31
0.0
  0
ARC
  5
3CF
  8
0
  6
CONTINUOUS
 62
     7
 10
268.9843962657
 20
71.1100589468
 30
0.0
 40
0.2736663965893004
 50
6.7193237515
 51
54.9928281716
  0
POLYLINE
  5
3D0
  8
0
  6
CONTINUOUS
 62
     7
 66
     1
 10
0.0
 20
0.0
 30
0.0
  0
VERTEX
  5
A34
  8
0
  6
CONTINUOUS
 62
     7
 10
269.0358197528
 20
71.4030312133
 30
0.0
  0
VERTEX
  5
A35
  8
0
  6
CONTINUOUS
 62
     7
 10
269.0896324674
 20
71.3756834768
 30
0.0
  0
VERTEX
  5
A36
  8
0
  6
CONTINUOUS
 62
     7
 10
269.1423731325
 20
71.3356347491
 30
0.0
  0
SEQEND
  5
B92
  8
0
  6
CONTINUOUS
 62
     7
  0
LINE
  5
3D1
  8
0
  6
CONTINUOUS
 62
     7
 10
187.7031135931
 20
102.4137202079
 30
0.0
 11
269.0358197528
 21
71.4030312133
 31
0.0
  0
POLYLINE
  5
3D2
  8
0
  6
CONTINUOUS
 62
     7
 66
     1
 10
0.0
 20
0.0
 30
0.0
  0
VERTEX
  5
A37
  8
0
  6
CONTINUOUS
 62
     7
 10
269.2480993632
 20
71.1314317695
 30
0.0
  0
VERTEX
  5
A38
  8
0
  6
CONTINUOUS
 62
     7
 10
269.3477526895
 20
69.394543305
 30
0.0
  0
VERTEX
  5
A39
  8
0
  6
CONTINUOUS
 62
     7
 10
269.6546924513
 20
63.505981075
 30
0.0
  0
VERTEX
  5
A3A
  8
0
  6
CONTINUOUS
 62
     7
 10
270.4448640868
 20
48.3398146487
 30
0.0
  0
SEQEND
  5
B91
  8
0
  6
CONTINUOUS
 62
     7
  0
POLYLINE
  5
3D3
  8
0
  6
CONTINUOUS
 62
     7
 66
     1
 10
0.0
 20
0.0
 30
0.0
  0
VERTEX
  5
A3B
  8
0
  6
CONTINUOUS
 62
     7
 10
348.6251212661
 20
61.3309409758
 30
0.0
  0
VERTEX
  5
A3C
  8
0
  6
CONTINUOUS
 62
     7
 10
348.1639668919
 20
64.3768671832
 30
0.0
  0
VERTEX
  5
A3D
  8
0
  6
CONTINUOUS
 62
     7
 10
347.2125875926
 20
69.7798801287
 30
0.0
  0
VERTEX
  5
A3E
  8
0
  6
CONTINUOUS
 62
     7
 10
346.2638745909
 20
74.3385574574
 30
0.0
  0
VERTEX
  5
A3F
  8
0
  6
CONTINUOUS
 62
     7
 10
345.2815577844
 20
78.2751853858
 30
0.0
  0
VERTEX
  5
A40
  8
0
  6
CONTINUOUS
 62
     7
 10
344.2916328687
 20
81.5707682801
 30
0.0
  0
VERTEX
  5
A41
  8
0
  6
CONTINUOUS
 62
     7
 10
343.3278758101
 20
84.1877170617
 30
0.0
  0
VERTEX
  5
A42
  8
0
  6
CONTINUOUS
 62
     7
 10
342.5690461809
 20
85.8274143662
 30
0.0
  0
SEQEND
  5
B90
  8
0
  6
CONTINUOUS
 62
     7
  0
POLYLINE
  5
3D4
  8
0
  6
CONTINUOUS
 62
     7
 66
     1
 10
0.0
 20
0.0
 30
0.0
  0
VERTEX
  5
A43
  8
0
  6
CONTINUOUS
 62
     7
 10
341.5537533598
 20
86.810930172
 30
0.0
  0
VERTEX
  5
A44
  8
0
  6
CONTINUOUS
 62
     7
 10
320.8545404112
 20
94.72840564
 30
0.0
  0
VERTEX
  5
A45
  8
0
  6
CONTINUOUS
 62
     7
 10
246.4630984583
 20
123.1076820418
 30
0.0
  0
VERTEX
  5
A46
  8
0
  6
CONTINUOUS
 62
     7
 10
209.4928589799
 20
137.2934141661
 30
0.0
  0
VERTEX
  5
A47
  8
0
  6
CONTINUOUS
 62
     7
 10
171.3536480832
 20
151.9704561761
 30
0.0
  0
VERTEX
  5
A48
  8
0
  6
CONTINUOUS
 62
     7
 10
155.7301755903
 20
157.9145103388
 30
0.0
  0
SEQEND
  5
B8F
  8
0
  6
CONTINUOUS
 62
     7
  0
LINE
  5
3D5
  8
0
  6
CONTINUOUS
 62
     7
 10
146.1395657373
 20
161.5567007501
 30
0.0
 11
126.0653153726
 21
169.1149558599
 31
0.0
  0
ARC
  5
3D6
  8
0
  6
CONTINUOUS
 62
     7
 10
341.1359999435
 20
85.3299012021
 30
0.0
 40
1.511059135206348
 50
20.0340178333
 51
74.4274802473
  0
POLYLINE
  5
3D7
  8
0
  6
CONTINUOUS
 62
     7
 66
     1
 10
0.0
 20
0.0
 30
0.0
  0
VERTEX
  5
A49
  8
0
  6
CONTINUOUS
 62
     7
 10
187.6423123999
 20
102.4249459413
 30
0.0
  0
VERTEX
  5
A4A
  8
0
  6
CONTINUOUS
 62
     7
 10
187.6624224079
 20
102.4245748692
 30
0.0
  0
VERTEX
  5
A4B
  8
0
  6
CONTINUOUS
 62
     7
 10
187.7031135931
 20
102.4137202079
 30
0.0
  0
SEQEND
  5
B8E
  8
0
  6
CONTINUOUS
 62
     7
  0
LINE
  5
3D8
  8
0
  6
CONTINUOUS
 62
     7
 10
187.6443421318
 20
102.4260322466
 30
0.0
 11
187.6433771849
 21
102.4252989687
 31
0.0
  0
POLYLINE
  5
3D9
  8
0
  6
CONTINUOUS
 62
     7
 66
     1
 10
0.0
 20
0.0
 30
0.0
  0
VERTEX
  5
A4C
  8
0
  6
CONTINUOUS
 62
     7
 10
97.9516998621
 20
138.9991904632
 30
0.0
  0
VERTEX
  5
A4D
  8
0
  6
CONTINUOUS
 62
     7
 10
97.9317400197
 20
138.0896051743
 30
0.0
  0
VERTEX
  5
A4E
  8
0
  6
CONTINUOUS
 62
     7
 10
97.8998411284
 20
135.0955048164
 30
0.0
  0
VERTEX
  5
A4F
  8
0
  6
CONTINUOUS
 62
     7
 10
97.904217644
 20
129.2888844785
 30
0.0
  0
VERTEX
  5
A50
  8
0
  6
CONTINUOUS
 62
     7
 10
97.8826265251
 20
120.4263061655
 30
0.0
  0
VERTEX
  5
A51
  8
0
  6
CONTINUOUS
 62
     7
 10
97.8584528128
 20
114.2495175114
 30
0.0
  0
SEQEND
  5
B8D
  8
0
  6
CONTINUOUS
 62
     7
  0
ARC
  5
3DA
  8
0
  6
CONTINUOUS
 62
     7
 10
155.0096564652
 20
98.9817685033
 30
0.0
 40
77.29941007883208
 50
125.3658865587
 51
131.2774291316
  0
LINE
  5
3DB
  8
0
  6
CONTINUOUS
 62
     7
 10
105.7975868593
 20
155.1520955098
 30
0.0
 11
105.2985869256
 21
154.5609796662
 31
0.0
  0
ARC
  5
3DC
  8
0
  6
CONTINUOUS
 62
     7
 10
133.8341490369
 20
132.5110892089
 30
0.0
 40
37.68793473944519
 50
103.6211047248
 51
128.0907254129
  0
ARC
  5
3DD
  8
0
  6
CONTINUOUS
 62
     7
 10
125.4224470269
 20
168.0202387544
 30
0.0
 40
1.255567514245701
 50
60.7681626161
 51
109.1006920954
  0
LINE
  5
3DE
  8
0
  6
CONTINUOUS
 62
     7
 10
269.5710213721
 20
54.5341773738
 30
0.0
 11
270.0970366341
 21
55.0158207482
 31
0.0
  0
LINE
  5
3DF
  8
0
  6
CONTINUOUS
 62
     7
 10
189.5131375257
 20
84.959137393
 30
0.0
 11
189.2671365435
 21
84.7188807361
 31
0.0
  0
LINE
  5
3E0
  8
0
  6
CONTINUOUS
 62
     7
 10
292.9322670825
 20
62.5899283796
 30
0.0
 11
290.6686490107
 21
63.4530049861
 31
0.0
  0
LINE
  5
3E1
  8
0
  6
CONTINUOUS
 62
     7
 10
290.6677033639
 20
63.4688146017
 30
0.0
 11
290.668182442
 21
63.4609067072
 31
0.0
  0
POLYLINE
  5
3E2
  8
0
  6
CONTINUOUS
 62
     7
 66
     1
 10
0.0
 20
0.0
 30
0.0
  0
VERTEX
  5
A52
  8
0
  6
CONTINUOUS
 62
     7
 10
296.2890745563
 20
75.4602937059
 30
0.0
  0
VERTEX
  5
A53
  8
0
  6
CONTINUOUS
 62
     7
 10
294.4123899429
 20
73.4007132526
 30
0.0
  0
VERTEX
  5
A54
  8
0
  6
CONTINUOUS
 62
     7
 10
292.8450703928
 20
71.6157352374
 30
0.0
  0
VERTEX
  5
A55
  8
0
  6
CONTINUOUS
 62
     7
 10
291.5792598555
 20
69.7955794483
 30
0.0
  0
VERTEX
  5
A56
  8
0
  6
CONTINUOUS
 62
     7
 10
291.0361045354
 20
68.6598535296
 30
0.0
  0
VERTEX
  5
A57
  8
0
  6
CONTINUOUS
 62
     7
 10
290.6785531542
 20
67.4425561787
 30
0.0
  0
VERTEX
  5
A58
  8
0
  6
CONTINUOUS
 62
     7
 10
290.5343586888
 20
66.1028439496
 30
0.0
  0
VERTEX
  5
A59
  8
0
  6
CONTINUOUS
 62
     7
 10
290.6677033639
 20
63.4688146017
 30
0.0
  0
SEQEND
  5
B8C
  8
0
  6
CONTINUOUS
 62
     7
  0
LINE
  5
3E3
  8
0
  6
CONTINUOUS
 62
     7
 10
298.5526677931
 20
74.5972265686
 30
0.0
 11
296.2890745563
 21
75.4602937059
 31
0.0
  0
POLYLINE
  5
3E4
  8
0
  6
CONTINUOUS
 62
     7
 66
     1
 10
0.0
 20
0.0
 30
0.0
  0
VERTEX
  5
A5A
  8
0
  6
CONTINUOUS
 62
     7
 10
292.9312966006
 20
62.6057474644
 30
0.0
  0
VERTEX
  5
A5B
  8
0
  6
CONTINUOUS
 62
     7
 10
292.8447201171
 20
64.0372428499
 30
0.0
  0
VERTEX
  5
A5C
  8
0
  6
CONTINUOUS
 62
     7
 10
292.8168595307
 20
65.6558919396
 30
0.0
  0
VERTEX
  5
A5D
  8
0
  6
CONTINUOUS
 62
     7
 10
293.0045281518
 20
66.8589042133
 30
0.0
  0
VERTEX
  5
A5E
  8
0
  6
CONTINUOUS
 62
     7
 10
293.4295187015
 20
68.1106298601
 30
0.0
  0
VERTEX
  5
A5F
  8
0
  6
CONTINUOUS
 62
     7
 10
294.124260457
 20
69.3997282437
 30
0.0
  0
VERTEX
  5
A60
  8
0
  6
CONTINUOUS
 62
     7
 10
295.1386629954
 20
70.7894452264
 30
0.0
  0
VERTEX
  5
A61
  8
0
  6
CONTINUOUS
 62
     7
 10
296.1845022207
 20
71.9978698994
 30
0.0
  0
VERTEX
  5
A62
  8
0
  6
CONTINUOUS
 62
     7
 10
297.2359922421
 20
73.1521648486
 30
0.0
  0
VERTEX
  5
A63
  8
0
  6
CONTINUOUS
 62
     7
 10
298.5526677931
 20
74.5972265686
 30
0.0
  0
SEQEND
  5
B8B
  8
0
  6
CONTINUOUS
 62
     7
  0
LINE
  5
3E5
  8
0
  6
CONTINUOUS
 62
     7
 10
292.9317756787
 20
62.5978395699
 30
0.0
 11
292.9312966006
 21
62.6057474644
 31
0.0
  0
LINE
  5
3E6
  8
0
  6
CONTINUOUS
 62
     7
 10
298.5526677931
 20
74.5972265686
 30
0.0
 11
298.5639983449
 21
74.6082149326
 31
0.0
  0
LINE
  5
3E7
  8
0
  6
CONTINUOUS
 62
     7
 10
298.6106118369
 20
74.2838284848
 30
0.0
 11
298.5639983449
 21
74.6082149326
 31
0.0
  0
LINE
  5
3E8
  8
0
  6
CONTINUOUS
 62
     7
 10
292.9312966006
 20
62.6057474644
 30
0.0
 11
292.9313604253
 21
62.6058097411
 31
0.0
  0
LINE
  5
3E9
  8
0
  6
CONTINUOUS
 62
     7
 10
293.2263981621
 20
56.944520846
 30
0.0
 11
292.9322670825
 21
62.5899283796
 31
0.0
  0
LINE
  5
3EA
  8
0
  6
CONTINUOUS
 62
     7
 10
290.6686490107
 20
63.4530049861
 30
0.0
 11
290.9627800903
 21
57.8075974524
 31
0.0
  0
POLYLINE
  5
3EB
  8
0
  6
CONTINUOUS
 62
     7
 66
     1
 10
0.0
 20
0.0
 30
0.0
  0
VERTEX
  5
A64
  8
0
  6
CONTINUOUS
 62
     7
 10
290.9627800903
 20
57.8075974524
 30
0.0
  0
VERTEX
  5
A65
  8
0
  6
CONTINUOUS
 62
     7
 10
291.0700774875
 20
57.3689115785
 30
0.0
  0
VERTEX
  5
A66
  8
0
  6
CONTINUOUS
 62
     7
 10
291.3333486905
 20
56.9313131759
 30
0.0
  0
VERTEX
  5
A67
  8
0
  6
CONTINUOUS
 62
     7
 10
291.7125127376
 20
56.561423021
 30
0.0
  0
VERTEX
  5
A68
  8
0
  6
CONTINUOUS
 62
     7
 10
292.1498424649
 20
56.3155536937
 30
0.0
  0
VERTEX
  5
A69
  8
0
  6
CONTINUOUS
 62
     7
 10
292.5787602783
 20
56.2311385101
 30
0.0
  0
VERTEX
  5
A6A
  8
0
  6
CONTINUOUS
 62
     7
 10
292.9339695046
 20
56.3210254256
 30
0.0
  0
VERTEX
  5
A6B
  8
0
  6
CONTINUOUS
 62
     7
 10
293.1613897842
 20
56.571532046
 30
0.0
  0
VERTEX
  5
A6C
  8
0
  6
CONTINUOUS
 62
     7
 10
293.2263981621
 20
56.944520846
 30
0.0
  0
SEQEND
  5
B8A
  8
0
  6
CONTINUOUS
 62
     7
  0
LINE
  5
3EC
  8
0
  6
CONTINUOUS
 62
     7
 10
298.5639983449
 20
74.6082149326
 30
0.0
 11
298.8483742229
 21
74.8842787604
 31
0.0
  0
LINE
  5
3ED
  8
0
  6
CONTINUOUS
 62
     7
 10
298.8524057449
 20
74.8382760178
 30
0.0
 11
298.8483742229
 21
74.8842787604
 31
0.0
  0
LINE
  5
3EE
  8
0
  6
CONTINUOUS
 62
     7
 10
296.5825954993
 20
75.7481791843
 30
0.0
 11
296.3003057678
 21
75.4713199465
 31
0.0
  0
LINE
  5
3EF
  8
0
  6
CONTINUOUS
 62
     7
 10
297.7285668229
 20
75.3289936757
 30
0.0
 11
296.5825954993
 21
75.7481791843
 31
0.0
  0
LINE
  5
3F0
  8
0
  6
CONTINUOUS
 62
     7
 10
298.8483742229
 20
74.8842787604
 30
0.0
 11
297.7285668229
 21
75.3289936757
 31
0.0
  0
LINE
  5
3F1
  8
0
  6
CONTINUOUS
 62
     7
 10
296.3003057678
 20
75.4713199465
 30
0.0
 11
296.2890745563
 21
75.4602937059
 31
0.0
  0
LINE
  5
3F2
  8
0
  6
CONTINUOUS
 62
     7
 10
319.8800525889
 20
65.6343184068
 30
0.0
 11
319.9669233792
 21
65.858889722
 31
0.0
  0
LINE
  5
3F3
  8
0
  6
CONTINUOUS
 62
     7
 10
296.2124614804
 20
75.4578090313
 30
0.0
 11
296.267082249
 21
75.5171509156
 31
0.0
  0
LINE
  5
3F4
  8
0
  6
CONTINUOUS
 62
     7
 10
294.8762637845
 20
73.9915077789
 30
0.0
 11
296.2124614804
 21
75.4578090313
 31
0.0
  0
ARC
  5
3F5
  8
0
  6
CONTINUOUS
 62
     7
 10
206.0619524058
 20
154.8314956626
 30
0.0
 40
120.0961512569118
 50
316.4898814238
 51
317.6911139461
  0
LINE
  5
3F6
  8
0
  6
CONTINUOUS
 62
     7
 10
291.5804902968
 20
70.1328635126
 30
0.0
 11
293.1620217235
 21
72.1473770449
 31
0.0
  0
ARC
  5
3F7
  8
0
  6
CONTINUOUS
 62
     7
 10
297.2568677549
 20
66.3997830807
 30
0.0
 40
6.793905398072442
 50
146.6690042076
 51
167.4951175496
  0
ARC
  5
3F8
  8
0
  6
CONTINUOUS
 62
     7
 10
308.0861992517
 20
65.370578696
 30
0.0
 40
17.6401544469264
 50
171.8517030854
 51
186.3623784244
  0
LINE
  5
3F9
  8
0
  6
CONTINUOUS
 62
     7
 10
290.5546923207
 20
63.4157606381
 30
0.0
 11
290.8638756565
 21
57.4814474874
 31
0.0
  0
POLYLINE
  5
3FA
  8
0
  6
CONTINUOUS
 62
     7
 66
     1
 10
0.0
 20
0.0
 30
0.0
  0
VERTEX
  5
A6D
  8
0
  6
CONTINUOUS
 62
     7
 10
290.8638756565
 20
57.4814474874
 30
0.0
  0
VERTEX
  5
A6E
  8
0
  6
CONTINUOUS
 62
     7
 10
290.9823713943
 20
56.996953699
 30
0.0
  0
VERTEX
  5
A6F
  8
0
  6
CONTINUOUS
 62
     7
 10
291.273131804
 20
56.5136609959
 30
0.0
  0
VERTEX
  5
A70
  8
0
  6
CONTINUOUS
 62
     7
 10
291.6918919741
 20
56.1051439438
 30
0.0
  0
VERTEX
  5
A71
  8
0
  6
CONTINUOUS
 62
     7
 10
292.1748855024
 20
55.8336029546
 30
0.0
  0
VERTEX
  5
A72
  8
0
  6
CONTINUOUS
 62
     7
 10
292.648588871
 20
55.7403727302
 30
0.0
  0
VERTEX
  5
A73
  8
0
  6
CONTINUOUS
 62
     7
 10
293.040892697
 20
55.8396457582
 30
0.0
  0
VERTEX
  5
A74
  8
0
  6
CONTINUOUS
 62
     7
 10
293.2920585369
 20
56.1163117895
 30
0.0
  0
VERTEX
  5
A75
  8
0
  6
CONTINUOUS
 62
     7
 10
293.3638491711
 20
56.5282528279
 30
0.0
  0
SEQEND
  5
B89
  8
0
  6
CONTINUOUS
 62
     7
  0
LINE
  5
3FB
  8
0
  6
CONTINUOUS
 62
     7
 10
293.3638491711
 20
56.5282528279
 30
0.0
 11
293.0546658353
 21
62.4625659786
 31
0.0
  0
ARC
  5
3FC
  8
0
  6
CONTINUOUS
 62
     7
 10
302.6139096521
 20
64.3919688727
 30
0.0
 40
9.752011991289999
 50
130.0875031595
 51
191.4110651014
  0
LINE
  5
3FD
  8
0
  6
CONTINUOUS
 62
     7
 10
297.4855860417
 20
73.0712311052
 30
0.0
 11
296.3340354443
 21
71.852861434
 31
0.0
  0
POLYLINE
  5
3FE
  8
0
  6
CONTINUOUS
 62
     7
 66
     1
 10
0.0
 20
0.0
 30
0.0
  0
VERTEX
  5
A76
  8
0
  6
CONTINUOUS
 62
     7
 10
299.138126486
 20
75.2492425658
 30
0.0
  0
VERTEX
  5
A77
  8
0
  6
CONTINUOUS
 62
     7
 10
299.1115451205
 20
75.0634198122
 30
0.0
  0
VERTEX
  5
A78
  8
0
  6
CONTINUOUS
 62
     7
 10
299.0496815471
 20
74.8694710395
 30
0.0
  0
VERTEX
  5
A79
  8
0
  6
CONTINUOUS
 62
     7
 10
298.9598304262
 20
74.6890453896
 30
0.0
  0
VERTEX
  5
A7A
  8
0
  6
CONTINUOUS
 62
     7
 10
298.907605994
 20
74.6107280698
 30
0.0
  0
VERTEX
  5
A7B
  8
0
  6
CONTINUOUS
 62
     7
 10
298.8801365883
 20
74.5753437467
 30
0.0
  0
VERTEX
  5
A7C
  8
0
  6
CONTINUOUS
 62
     7
 10
298.8660593859
 20
74.5585943472
 30
0.0
  0
VERTEX
  5
A7D
  8
0
  6
CONTINUOUS
 62
     7
 10
298.8589495641
 20
74.550448143
 30
0.0
  0
VERTEX
  5
A7E
  8
0
  6
CONTINUOUS
 62
     7
 10
298.855367153
 20
74.5464391639
 30
0.0
  0
VERTEX
  5
A7F
  8
0
  6
CONTINUOUS
 62
     7
 10
298.8535708549
 20
74.544449574
 30
0.0
  0
VERTEX
  5
A80
  8
0
  6
CONTINUOUS
 62
     7
 10
298.8526649862
 20
74.5434602571
 30
0.0
  0
VERTEX
  5
A81
  8
0
  6
CONTINUOUS
 62
     7
 10
298.8522182607
 20
74.5429632314
 30
0.0
  0
VERTEX
  5
A82
  8
0
  6
CONTINUOUS
 62
     7
 10
298.8519943845
 20
74.5427142175
 30
0.0
  0
VERTEX
  5
A83
  8
0
  6
CONTINUOUS
 62
     7
 10
298.8518827031
 20
74.5425899611
 30
0.0
  0
VERTEX
  5
A84
  8
0
  6
CONTINUOUS
 62
     7
 10
298.8518265299
 20
74.5425290368
 30
0.0
  0
VERTEX
  5
A85
  8
0
  6
CONTINUOUS
 62
     7
 10
298.8517989567
 20
74.5424990756
 30
0.0
  0
VERTEX
  5
A86
  8
0
  6
CONTINUOUS
 62
     7
 10
298.8517847325
 20
74.5424821397
 30
0.0
  0
VERTEX
  5
A87
  8
0
  6
CONTINUOUS
 62
     7
 10
298.851778058
 20
74.5424756271
 30
0.0
  0
VERTEX
  5
A88
  8
0
  6
CONTINUOUS
 62
     7
 10
298.3961744023
 20
74.0538407362
 30
0.0
  0
VERTEX
  5
A89
  8
0
  6
CONTINUOUS
 62
     7
 10
297.940860987
 20
73.5627578476
 30
0.0
  0
VERTEX
  5
A8A
  8
0
  6
CONTINUOUS
 62
     7
 10
297.6454339334
 20
73.2437557123
 30
0.0
  0
VERTEX
  5
A8B
  8
0
  6
CONTINUOUS
 62
     7
 10
297.4855860417
 20
73.0712311052
 30
0.0
  0
SEQEND
  5
B88
  8
0
  6
CONTINUOUS
 62
     7
  0
POLYLINE
  5
3FF
  8
0
  6
CONTINUOUS
 62
     7
 66
     1
 10
0.0
 20
0.0
 30
0.0
  0
VERTEX
  5
A8C
  8
0
  6
CONTINUOUS
 62
     7
 10
296.267082249
 20
75.5171509156
 30
0.0
  0
VERTEX
  5
A8D
  8
0
  6
CONTINUOUS
 62
     7
 10
296.3759373928
 20
75.6658611531
 30
0.0
  0
VERTEX
  5
A8E
  8
0
  6
CONTINUOUS
 62
     7
 10
296.4663415462
 20
75.8497510517
 30
0.0
  0
SEQEND
  5
B87
  8
0
  6
CONTINUOUS
 62
     7
  0
LINE
  5
400
  8
0
  6
CONTINUOUS
 62
     7
 10
269.1512799142
 20
71.6530277038
 30
0.0
 11
187.4852404343
 21
102.7908106611
 31
0.0
  0
LINE
  5
401
  8
0
  6
CONTINUOUS
 62
     7
 10
187.4852404343
 20
102.7908106611
 30
0.0
 11
187.499625254
 21
102.5147154945
 31
0.0
  0
ARC
  5
402
  8
0
  6
CONTINUOUS
 62
     7
 10
187.5285144614
 20
102.3337017919
 30
0.0
 40
0.1833045194196249
 50
99.067750406
 51
188.1312682745
  0
LINE
  5
403
  8
0
  6
CONTINUOUS
 62
     7
 10
188.5349679725
 20
79.5075138043
 30
0.0
 11
187.3470527728
 21
102.3077749256
 31
0.0
  0
LINE
  5
404
  8
0
  6
CONTINUOUS
 62
     7
 10
188.5349679725
 20
79.5075138043
 30
0.0
 11
98.0828737346
 21
113.9952604411
 31
0.0
  0
POLYLINE
  5
405
  8
0
  6
CONTINUOUS
 62
     7
 66
     1
 10
0.0
 20
0.0
 30
0.0
  0
VERTEX
  5
A8F
  8
0
  6
CONTINUOUS
 62
     7
 10
98.179668009
 20
138.7278381156
 30
0.0
  0
VERTEX
  5
A90
  8
0
  6
CONTINUOUS
 62
     7
 10
98.1766838736
 20
137.9647054336
 30
0.0
  0
VERTEX
  5
A91
  8
0
  6
CONTINUOUS
 62
     7
 10
98.1647349902
 20
134.9121779857
 30
0.0
  0
VERTEX
  5
A92
  8
0
  6
CONTINUOUS
 62
     7
 10
98.116948618
 20
122.702067552
 30
0.0
  0
VERTEX
  5
A93
  8
0
  6
CONTINUOUS
 62
     7
 10
98.0828737346
 20
113.9952604411
 30
0.0
  0
SEQEND
  5
B86
  8
0
  6
CONTINUOUS
 62
     7
  0
POLYLINE
  5
406
  8
0
  6
CONTINUOUS
 62
     7
 66
     1
 10
0.0
 20
0.0
 30
0.0
  0
VERTEX
  5
A94
  8
0
  6
CONTINUOUS
 62
     7
 10
105.5827953094
 20
154.6242851428
 30
0.0
  0
VERTEX
  5
A95
  8
0
  6
CONTINUOUS
 62
     7
 10
103.015921001
 20
151.5759118998
 30
0.0
  0
VERTEX
  5
A96
  8
0
  6
CONTINUOUS
 62
     7
 10
101.7642235142
 20
149.9506080749
 30
0.0
  0
VERTEX
  5
A97
  8
0
  6
CONTINUOUS
 62
     7
 10
100.5321501183
 20
148.0622176144
 30
0.0
  0
VERTEX
  5
A98
  8
0
  6
CONTINUOUS
 62
     7
 10
99.6080920531
 20
146.2287517103
 30
0.0
  0
VERTEX
  5
A99
  8
0
  6
CONTINUOUS
 62
     7
 10
98.8869352001
 20
144.1968495619
 30
0.0
  0
VERTEX
  5
A9A
  8
0
  6
CONTINUOUS
 62
     7
 10
98.5361593931
 20
142.7102615482
 30
0.0
  0
VERTEX
  5
A9B
  8
0
  6
CONTINUOUS
 62
     7
 10
98.3160964997
 20
141.246121736
 30
0.0
  0
VERTEX
  5
A9C
  8
0
  6
CONTINUOUS
 62
     7
 10
98.179668009
 20
138.7278381156
 30
0.0
  0
SEQEND
  5
B85
  8
0
  6
CONTINUOUS
 62
     7
  0
LINE
  5
407
  8
0
  6
CONTINUOUS
 62
     7
 10
106.1007083854
 20
155.2408634569
 30
0.0
 11
105.5827953094
 21
154.6242851428
 31
0.0
  0
LINE
  5
408
  8
0
  6
CONTINUOUS
 62
     7
 10
106.100708537
 20
155.2408605481
 30
0.0
 11
106.2466786158
 21
155.3987422312
 31
0.0
  0
LINE
  5
409
  8
0
  6
CONTINUOUS
 62
     7
 10
106.2466786158
 20
155.3987422312
 30
0.0
 11
106.6990161124
 21
155.8879013052
 31
0.0
  0
POLYLINE
  5
40A
  8
0
  6
CONTINUOUS
 62
     7
 66
     1
 10
0.0
 20
0.0
 30
0.0
  0
VERTEX
  5
A9D
  8
0
  6
CONTINUOUS
 62
     7
 10
106.6990161124
 20
155.8879013052
 30
0.0
  0
VERTEX
  5
A9E
  8
0
  6
CONTINUOUS
 62
     7
 10
106.7077982708
 20
155.8972866208
 30
0.0
  0
VERTEX
  5
A9F
  8
0
  6
CONTINUOUS
 62
     7
 10
106.7413982188
 20
155.9336205435
 30
0.0
  0
SEQEND
  5
B84
  8
0
  6
CONTINUOUS
 62
     7
  0
ARC
  5
40B
  8
0
  6
CONTINUOUS
 62
     7
 10
105.936163283
 20
156.65307401
 30
0.0
 40
1.079822481836524
 50
318.22015969
 51
339.7340426367
  0
POLYLINE
  5
40C
  8
0
  6
CONTINUOUS
 62
     7
 66
     1
 10
0.0
 20
0.0
 30
0.0
  0
VERTEX
  5
AA0
  8
0
  6
CONTINUOUS
 62
     7
 10
106.9491392493
 20
156.2790468935
 30
0.0
  0
VERTEX
  5
AA1
  8
0
  6
CONTINUOUS
 62
     7
 10
106.9519572453
 20
156.2864702407
 30
0.0
  0
VERTEX
  5
AA2
  8
0
  6
CONTINUOUS
 62
     7
 10
106.9800564881
 20
156.3696880649
 30
0.0
  0
SEQEND
  5
B83
  8
0
  6
CONTINUOUS
 62
     7
  0
ARC
  5
40D
  8
0
  6
CONTINUOUS
 62
     7
 10
106.0449500891
 20
156.6639513484
 30
0.0
 40
0.9803136526707302
 50
342.5320307141
 51
1.9481720934
  0
POLYLINE
  5
40E
  8
0
  6
CONTINUOUS
 62
     7
 66
     1
 10
0.0
 20
0.0
 30
0.0
  0
VERTEX
  5
AA3
  8
0
  6
CONTINUOUS
 62
     7
 10
319.8336555978
 20
67.1185501831
 30
0.0
  0
VERTEX
  5
AA4
  8
0
  6
CONTINUOUS
 62
     7
 10
288.0667731603
 20
79.2315609195
 30
0.0
  0
VERTEX
  5
AA5
  8
0
  6
CONTINUOUS
 62
     7
 10
256.4942690743
 20
91.2712344364
 30
0.0
  0
VERTEX
  5
AA6
  8
0
  6
CONTINUOUS
 62
     7
 10
249.5935682552
 20
93.9025688035
 30
0.0
  0
VERTEX
  5
AA7
  8
0
  6
CONTINUOUS
 62
     7
 10
242.7136688044
 20
96.5258644882
 30
0.0
  0
VERTEX
  5
AA8
  8
0
  6
CONTINUOUS
 62
     7
 10
235.8561389506
 20
99.1409233259
 30
0.0
  0
VERTEX
  5
AA9
  8
0
  6
CONTINUOUS
 62
     7
 10
228.9893995629
 20
101.793937473
 30
0.0
  0
VERTEX
  5
AAA
  8
0
  6
CONTINUOUS
 62
     7
 10
223.2231433812
 20
104.4179971943
 30
0.0
  0
VERTEX
  5
AAB
  8
0
  6
CONTINUOUS
 62
     7
 10
217.0959602312
 20
107.5940776122
 30
0.0
  0
VERTEX
  5
AAC
  8
0
  6
CONTINUOUS
 62
     7
 10
210.6709681097
 20
111.2290342945
 30
0.0
  0
VERTEX
  5
AAD
  8
0
  6
CONTINUOUS
 62
     7
 10
204.0444251226
 20
115.2058954059
 30
0.0
  0
VERTEX
  5
AAE
  8
0
  6
CONTINUOUS
 62
     7
 10
196.3929376062
 20
119.9935783297
 30
0.0
  0
VERTEX
  5
AAF
  8
0
  6
CONTINUOUS
 62
     7
 10
188.7018819307
 20
124.9365360336
 30
0.0
  0
VERTEX
  5
AB0
  8
0
  6
CONTINUOUS
 62
     7
 10
181.9034575907
 20
129.3549076463
 30
0.0
  0
VERTEX
  5
AB1
  8
0
  6
CONTINUOUS
 62
     7
 10
176.2327799781
 20
133.0369554621
 30
0.0
  0
VERTEX
  5
AB2
  8
0
  6
CONTINUOUS
 62
     7
 10
170.6491933041
 20
136.6257584206
 30
0.0
  0
VERTEX
  5
AB3
  8
0
  6
CONTINUOUS
 62
     7
 10
164.4361323536
 20
140.5285052347
 30
0.0
  0
VERTEX
  5
AB4
  8
0
  6
CONTINUOUS
 62
     7
 10
158.0685186595
 20
144.3584473361
 30
0.0
  0
VERTEX
  5
AB5
  8
0
  6
CONTINUOUS
 62
     7
 10
151.8472811396
 20
147.8029952426
 30
0.0
  0
VERTEX
  5
AB6
  8
0
  6
CONTINUOUS
 62
     7
 10
146.4256205633
 20
150.3975197508
 30
0.0
  0
VERTEX
  5
AB7
  8
0
  6
CONTINUOUS
 62
     7
 10
140.9762870688
 20
152.4412054717
 30
0.0
  0
VERTEX
  5
AB8
  8
0
  6
CONTINUOUS
 62
     7
 10
134.7470758297
 20
154.3479908178
 30
0.0
  0
VERTEX
  5
AB9
  8
0
  6
CONTINUOUS
 62
     7
 10
127.9204328917
 20
155.9165153689
 30
0.0
  0
VERTEX
  5
ABA
  8
0
  6
CONTINUOUS
 62
     7
 10
120.8670740731
 20
156.9123223099
 30
0.0
  0
VERTEX
  5
ABB
  8
0
  6
CONTINUOUS
 62
     7
 10
113.5001579656
 20
157.2242165013
 30
0.0
  0
VERTEX
  5
ABC
  8
0
  6
CONTINUOUS
 62
     7
 10
106.0982896459
 20
156.7107500234
 30
0.0
  0
SEQEND
  5
B82
  8
0
  6
CONTINUOUS
 62
     7
  0
ARC
  5
40F
  8
0
  6
CONTINUOUS
 62
     7
 10
319.2792969084
 20
67.211591624
 30
0.0
 40
1.150862389521311
 50
326.3959574136
 51
344.6305806618
  0
ARC
  5
410
  8
0
  6
CONTINUOUS
 62
     7
 10
317.7784188948
 20
68.441720185
 30
0.0
 40
3.08782540959161
 50
314.7376548439
 51
322.795871859
  0
LINE
  5
411
  8
0
  6
CONTINUOUS
 62
     7
 10
319.951820903
 20
66.2483233967
 30
0.0
 11
319.6247372442
 21
65.8947138746
 31
0.0
  0
POLYLINE
  5
412
  8
0
  6
CONTINUOUS
 62
     7
 66
     1
 10
0.0
 20
0.0
 30
0.0
  0
VERTEX
  5
ABD
  8
0
  6
CONTINUOUS
 62
     7
 10
319.6081204394
 20
65.8784119533
 30
0.0
  0
VERTEX
  5
ABE
  8
0
  6
CONTINUOUS
 62
     7
 10
319.616433976
 20
65.8865679236
 30
0.0
  0
VERTEX
  5
ABF
  8
0
  6
CONTINUOUS
 62
     7
 10
319.6247372442
 20
65.8947138746
 30
0.0
  0
SEQEND
  5
B81
  8
0
  6
CONTINUOUS
 62
     7
  0
POLYLINE
  5
413
  8
0
  6
CONTINUOUS
 62
     7
 66
     1
 10
0.0
 20
0.0
 30
0.0
  0
VERTEX
  5
AC0
  8
0
  6
CONTINUOUS
 62
     7
 10
319.5805548643
 20
65.8513756818
 30
0.0
  0
VERTEX
  5
AC1
  8
0
  6
CONTINUOUS
 62
     7
 10
319.594343176
 20
65.8649091615
 30
0.0
  0
VERTEX
  5
AC2
  8
0
  6
CONTINUOUS
 62
     7
 10
319.6081204394
 20
65.8784119533
 30
0.0
  0
SEQEND
  5
B80
  8
0
  6
CONTINUOUS
 62
     7
  0
POLYLINE
  5
414
  8
0
  6
CONTINUOUS
 62
     7
 66
     1
 10
0.0
 20
0.0
 30
0.0
  0
VERTEX
  5
AC3
  8
0
  6
CONTINUOUS
 62
     7
 10
316.8076924683
 20
30.5994452836
 30
0.0
  0
VERTEX
  5
AC4
  8
0
  6
CONTINUOUS
 62
     7
 10
316.5720716543
 20
32.8269336865
 30
0.0
  0
VERTEX
  5
AC5
  8
0
  6
CONTINUOUS
 62
     7
 10
315.2242476816
 20
45.5691650886
 30
0.0
  0
VERTEX
  5
AC6
  8
0
  6
CONTINUOUS
 62
     7
 10
314.1460921717
 20
55.7618948588
 30
0.0
  0
VERTEX
  5
AC7
  8
0
  6
CONTINUOUS
 62
     7
 10
314.055447625
 20
56.6479671554
 30
0.0
  0
VERTEX
  5
AC8
  8
0
  6
CONTINUOUS
 62
     7
 10
314.0791382881
 20
58.1069546657
 30
0.0
  0
VERTEX
  5
AC9
  8
0
  6
CONTINUOUS
 62
     7
 10
314.3189322649
 20
59.2581546028
 30
0.0
  0
VERTEX
  5
ACA
  8
0
  6
CONTINUOUS
 62
     7
 10
314.7833638375
 20
60.4014871949
 30
0.0
  0
VERTEX
  5
ACB
  8
0
  6
CONTINUOUS
 62
     7
 10
315.6199475627
 20
61.722420857
 30
0.0
  0
VERTEX
  5
ACC
  8
0
  6
CONTINUOUS
 62
     7
 10
317.0973052206
 20
63.4175648949
 30
0.0
  0
VERTEX
  5
ACD
  8
0
  6
CONTINUOUS
 62
     7
 10
318.6297757478
 20
64.9187184067
 30
0.0
  0
VERTEX
  5
ACE
  8
0
  6
CONTINUOUS
 62
     7
 10
319.5805548643
 20
65.8513756818
 30
0.0
  0
SEQEND
  5
B7F
  8
0
  6
CONTINUOUS
 62
     7
  0
LINE
  5
415
  8
0
  6
CONTINUOUS
 62
     7
 10
316.8076924683
 20
30.5994452836
 30
0.0
 11
270.5343407727
 21
48.2426368842
 31
0.0
  0
LINE
  5
416
  8
0
  6
CONTINUOUS
 62
     7
 10
269.3464255729
 20
71.0428980055
 30
0.0
 11
270.5343407727
 21
48.2426368842
 31
0.0
  0
ARC
  5
417
  8
0
  6
CONTINUOUS
 62
     7
 10
268.8326267651
 20
70.9807848795
 30
0.0
 40
0.5175396171640615
 50
6.8930361678
 51
49.9465192399
  0
LINE
  5
418
  8
0
  6
CONTINUOUS
 62
     7
 10
269.1512799142
 20
71.6530277038
 30
0.0
 11
269.1656647339
 21
71.3769325372
 31
0.0
  0
LINE
  5
419
  8
0
  6
CONTINUOUS
 62
     7
 10
319.5834998558
 20
65.8501054796
 30
0.0
 11
319.6241277073
 21
65.8325563661
 31
0.0
  0
ARC
  5
41A
  8
0
  6
CONTINUOUS
 62
     7
 10
319.3079253938
 20
65.1769292246
 30
0.0
 40
0.7278948081228468
 50
19.0189210096
 51
64.2524586608
  0
LINE
  5
41B
  8
0
  6
CONTINUOUS
 62
     7
 10
319.9960851598
 20
65.4141358605
 30
0.0
 11
320.0151911705
 21
65.3274344833
 31
0.0
  0
LINE
  5
41C
  8
0
  6
CONTINUOUS
 62
     7
 10
320.0151911705
 20
65.3274344833
 30
0.0
 11
320.0156708391
 21
65.3231439461
 31
0.0
  0
POLYLINE
  5
41D
  8
0
  6
CONTINUOUS
 62
     7
 66
     1
 10
0.0
 20
0.0
 30
0.0
  0
VERTEX
  5
ACF
  8
0
  6
CONTINUOUS
 62
     7
 10
320.0156708391
 20
65.3231439461
 30
0.0
  0
VERTEX
  5
AD0
  8
0
  6
CONTINUOUS
 62
     7
 10
319.0704914336
 20
64.3957976689
 30
0.0
  0
VERTEX
  5
AD1
  8
0
  6
CONTINUOUS
 62
     7
 10
317.5677924901
 20
62.9279934138
 30
0.0
  0
VERTEX
  5
AD2
  8
0
  6
CONTINUOUS
 62
     7
 10
316.1157938744
 20
61.2715532726
 30
0.0
  0
VERTEX
  5
AD3
  8
0
  6
CONTINUOUS
 62
     7
 10
315.3502795539
 20
60.0731923051
 30
0.0
  0
VERTEX
  5
AD4
  8
0
  6
CONTINUOUS
 62
     7
 10
314.9505997281
 20
59.090330201
 30
0.0
  0
VERTEX
  5
AD5
  8
0
  6
CONTINUOUS
 62
     7
 10
314.7468709466
 20
58.0899152128
 30
0.0
  0
VERTEX
  5
AD6
  8
0
  6
CONTINUOUS
 62
     7
 10
314.731617645
 20
56.7531150329
 30
0.0
  0
VERTEX
  5
AD7
  8
0
  6
CONTINUOUS
 62
     7
 10
314.9157877772
 20
54.9901346479
 30
0.0
  0
VERTEX
  5
AD8
  8
0
  6
CONTINUOUS
 62
     7
 10
315.1932375569
 20
52.3672027504
 30
0.0
  0
VERTEX
  5
AD9
  8
0
  6
CONTINUOUS
 62
     7
 10
316.7009235101
 20
38.1136134426
 30
0.0
  0
VERTEX
  5
ADA
  8
0
  6
CONTINUOUS
 62
     7
 10
317.4855850615
 20
30.6954802127
 30
0.0
  0
SEQEND
  5
B7E
  8
0
  6
CONTINUOUS
 62
     7
  0
ARC
  5
41E
  8
0
  6
CONTINUOUS
 62
     7
 10
317.0593209687
 20
31.2638227313
 30
0.0
 40
0.7104324705629885
 50
249.2561539426
 51
306.8703624337
  0
LINE
  5
41F
  8
0
  6
CONTINUOUS
 62
     7
 10
323.1532116038
 20
35.6610826409
 30
0.0
 11
320.0156708391
 21
65.3231439461
 31
0.0
  0
LINE
  5
420
  8
0
  6
CONTINUOUS
 62
     7
 10
317.4855850615
 20
30.6954802127
 30
0.0
 11
323.1532116038
 21
35.6610826409
 31
0.0
  0
POLYLINE
  5
421
  8
0
  6
CONTINUOUS
 62
     7
 66
     1
 10
0.0
 20
0.0
 30
0.0
  0
VERTEX
  5
ADB
  8
0
  6
CONTINUOUS
 62
     7
 10
320.437837895
 20
67.2709221411
 30
0.0
  0
VERTEX
  5
ADC
  8
0
  6
CONTINUOUS
 62
     7
 10
320.4378588498
 20
67.2709594387
 30
0.0
  0
VERTEX
  5
ADD
  8
0
  6
CONTINUOUS
 62
     7
 10
321.7655686253
 20
68.6876242242
 30
0.0
  0
VERTEX
  5
ADE
  8
0
  6
CONTINUOUS
 62
     7
 10
331.1670184359
 20
78.335550733
 30
0.0
  0
VERTEX
  5
ADF
  8
0
  6
CONTINUOUS
 62
     7
 10
334.3722599165
 20
81.4109650262
 30
0.0
  0
VERTEX
  5
AE0
  8
0
  6
CONTINUOUS
 62
     7
 10
337.584245439
 20
84.2557553407
 30
0.0
  0
VERTEX
  5
AE1
  8
0
  6
CONTINUOUS
 62
     7
 10
340.7879241214
 20
86.6754848896
 30
0.0
  0
SEQEND
  5
B7D
  8
0
  6
CONTINUOUS
 62
     7
  0
LINE
  5
422
  8
0
  6
CONTINUOUS
 62
     7
 10
320.4378313721
 20
67.2709127197
 30
0.0
 11
319.882320183
 21
67.4827219342
 31
0.0
  0
POLYLINE
  5
423
  8
0
  6
CONTINUOUS
 62
     7
 66
     1
 10
0.0
 20
0.0
 30
0.0
  0
VERTEX
  5
AE2
  8
0
  6
CONTINUOUS
 62
     7
 10
105.728971133
 20
157.0549570229
 30
0.0
  0
VERTEX
  5
AE3
  8
0
  6
CONTINUOUS
 62
     7
 10
111.3953844669
 20
157.5574989855
 30
0.0
  0
VERTEX
  5
AE4
  8
0
  6
CONTINUOUS
 62
     7
 10
117.0986909016
 20
157.5588922586
 30
0.0
  0
VERTEX
  5
AE5
  8
0
  6
CONTINUOUS
 62
     7
 10
122.6846995225
 20
157.1074636323
 30
0.0
  0
VERTEX
  5
AE6
  8
0
  6
CONTINUOUS
 62
     7
 10
130.7050388097
 20
155.7298719048
 30
0.0
  0
VERTEX
  5
AE7
  8
0
  6
CONTINUOUS
 62
     7
 10
138.3093935842
 20
153.696417328
 30
0.0
  0
VERTEX
  5
AE8
  8
0
  6
CONTINUOUS
 62
     7
 10
145.6080457536
 20
151.1183262807
 30
0.0
  0
VERTEX
  5
AE9
  8
0
  6
CONTINUOUS
 62
     7
 10
152.5939861066
 20
147.790287459
 30
0.0
  0
VERTEX
  5
AEA
  8
0
  6
CONTINUOUS
 62
     7
 10
159.8380906361
 20
143.6963207057
 30
0.0
  0
VERTEX
  5
AEB
  8
0
  6
CONTINUOUS
 62
     7
 10
167.2646247188
 20
139.1449788642
 30
0.0
  0
VERTEX
  5
AEC
  8
0
  6
CONTINUOUS
 62
     7
 10
174.0117575011
 20
134.8480878993
 30
0.0
  0
VERTEX
  5
AED
  8
0
  6
CONTINUOUS
 62
     7
 10
180.4874401465
 20
130.6531824467
 30
0.0
  0
VERTEX
  5
AEE
  8
0
  6
CONTINUOUS
 62
     7
 10
184.6909028014
 20
127.918229886
 30
0.0
  0
VERTEX
  5
AEF
  8
0
  6
CONTINUOUS
 62
     7
 10
189.606368437
 20
124.7282571526
 30
0.0
  0
VERTEX
  5
AF0
  8
0
  6
CONTINUOUS
 62
     7
 10
194.8645415343
 20
121.3453755306
 30
0.0
  0
VERTEX
  5
AF1
  8
0
  6
CONTINUOUS
 62
     7
 10
200.1387805672
 20
118.005599049
 30
0.0
  0
VERTEX
  5
AF2
  8
0
  6
CONTINUOUS
 62
     7
 10
205.3223933217
 20
114.802196122
 30
0.0
  0
VERTEX
  5
AF3
  8
0
  6
CONTINUOUS
 62
     7
 10
210.4589564917
 20
111.7308302399
 30
0.0
  0
VERTEX
  5
AF4
  8
0
  6
CONTINUOUS
 62
     7
 10
215.4746783524
 20
108.8639527357
 30
0.0
  0
VERTEX
  5
AF5
  8
0
  6
CONTINUOUS
 62
     7
 10
220.3151692454
 20
106.2622419537
 30
0.0
  0
VERTEX
  5
AF6
  8
0
  6
CONTINUOUS
 62
     7
 10
227.0615048601
 20
103.0030771935
 30
0.0
  0
VERTEX
  5
AF7
  8
0
  6
CONTINUOUS
 62
     7
 10
233.2909883362
 20
100.5016175328
 30
0.0
  0
VERTEX
  5
AF8
  8
0
  6
CONTINUOUS
 62
     7
 10
239.4175449197
 20
98.1643998959
 30
0.0
  0
VERTEX
  5
AF9
  8
0
  6
CONTINUOUS
 62
     7
 10
245.5609802186
 20
95.8224147854
 30
0.0
  0
VERTEX
  5
AFA
  8
0
  6
CONTINUOUS
 62
     7
 10
251.7219980281
 20
93.473538849
 30
0.0
  0
VERTEX
  5
AFB
  8
0
  6
CONTINUOUS
 62
     7
 10
276.0681174051
 20
84.1903396695
 30
0.0
  0
VERTEX
  5
AFC
  8
0
  6
CONTINUOUS
 62
     7
 10
319.8823297864
 20
67.4827343614
 30
0.0
  0
SEQEND
  5
B7C
  8
0
  6
CONTINUOUS
 62
     7
  0
LINE
  5
424
  8
0
  6
CONTINUOUS
 62
     7
 10
105.728971133
 20
157.0549570229
 30
0.0
 11
110.9319986912
 21
162.1674178434
 31
0.0
  0
ARC
  5
425
  8
0
  6
CONTINUOUS
 62
     7
 10
134.8160193185
 20
130.9522737933
 30
0.0
 40
39.30434657123646
 50
103.5234727334
 51
127.4211239944
  0
POLYLINE
  5
426
  8
0
  6
CONTINUOUS
 62
     7
 66
     1
 10
0.0
 20
0.0
 30
0.0
  0
VERTEX
  5
AFD
  8
0
  6
CONTINUOUS
 62
     7
 10
340.7879241214
 20
86.6754848896
 30
0.0
  0
VERTEX
  5
AFE
  8
0
  6
CONTINUOUS
 62
     7
 10
295.1837478105
 20
104.1770689471
 30
0.0
  0
VERTEX
  5
AFF
  8
0
  6
CONTINUOUS
 62
     7
 10
233.1661726117
 20
127.8749819481
 30
0.0
  0
VERTEX
  5
B00
  8
0
  6
CONTINUOUS
 62
     7
 10
202.300480193
 20
139.8986038562
 30
0.0
  0
VERTEX
  5
B01
  8
0
  6
CONTINUOUS
 62
     7
 10
171.4442162668
 20
151.8982866188
 30
0.0
  0
VERTEX
  5
B02
  8
0
  6
CONTINUOUS
 62
     7
 10
148.6316578898
 20
160.6322244036
 30
0.0
  0
VERTEX
  5
B03
  8
0
  6
CONTINUOUS
 62
     7
 10
125.6249454374
 20
169.1668759803
 30
0.0
  0
SEQEND
  5
B7B
  8
0
  6
CONTINUOUS
 62
     7
  0
LINE
  5
427
  8
0
  6
CONTINUOUS
 62
     7
 10
105.728971133
 20
157.0549570229
 30
0.0
 11
105.7398548658
 21
156.8460599989
 31
0.0
  0
LINE
  5
428
  8
0
  6
CONTINUOUS
 62
     7
 10
319.8927962399
 20
67.2816496402
 30
0.0
 11
319.8134608208
 21
67.3097918832
 31
0.0
  0
LINE
  5
429
  8
0
  6
CONTINUOUS
 62
     7
 10
319.8134608208
 20
67.3097918832
 30
0.0
 11
319.8336842319
 21
67.1185597825
 31
0.0
  0
POLYLINE
  5
42A
  8
0
  6
CONTINUOUS
 62
     7
 66
     1
 10
0.0
 20
0.0
 30
0.0
  0
VERTEX
  5
B04
  8
0
  6
CONTINUOUS
 62
     7
 10
106.0982896459
 20
156.7107500234
 30
0.0
  0
VERTEX
  5
B05
  8
0
  6
CONTINUOUS
 62
     7
 10
106.0932018105
 20
156.8086312567
 30
0.0
  0
VERTEX
  5
B06
  8
0
  6
CONTINUOUS
 62
     7
 10
106.0862899248
 20
156.9415017032
 30
0.0
  0
SEQEND
  5
B7A
  8
0
  6
CONTINUOUS
 62
     7
  0
LINE
  5
42B
  8
0
  6
CONTINUOUS
 62
     7
 10
106.0862899248
 20
156.9415017032
 30
0.0
 11
105.7398548658
 21
156.8460599989
 31
0.0
  0
POLYLINE
  5
42C
  8
0
  6
CONTINUOUS
 62
     7
 66
     1
 10
0.0
 20
0.0
 30
0.0
  0
VERTEX
  5
B07
  8
0
  6
CONTINUOUS
 62
     7
 10
341.9295743779
 20
84.9731268805
 30
0.0
  0
VERTEX
  5
B08
  8
0
  6
CONTINUOUS
 62
     7
 10
339.568731946
 20
83.2195988632
 30
0.0
  0
VERTEX
  5
B09
  8
0
  6
CONTINUOUS
 62
     7
 10
337.2051763317
 20
81.2085133618
 30
0.0
  0
VERTEX
  5
B0A
  8
0
  6
CONTINUOUS
 62
     7
 10
332.4488432685
 20
76.7458439511
 30
0.0
  0
VERTEX
  5
B0B
  8
0
  6
CONTINUOUS
 62
     7
 10
323.0976722866
 20
67.1311465638
 30
0.0
  0
VERTEX
  5
B0C
  8
0
  6
CONTINUOUS
 62
     7
 10
321.7446479848
 20
65.685563725
 30
0.0
  0
SEQEND
  5
B79
  8
0
  6
CONTINUOUS
 62
     7
  0
ARC
  5
42D
  8
0
  6
CONTINUOUS
 62
     7
 10
319.6839502957
 20
65.3182011677
 30
0.0
 40
2.093186617177561
 50
10.1079872632
 51
68.8900117547
  0
ARC
  5
42E
  8
0
  6
CONTINUOUS
 62
     7
 10
340.141179709
 20
85.0077687224
 30
0.0
 40
1.788730149928052
 50
358.8902991153
 51
68.803585386
  0
LINE
  5
42F
  8
0
  6
CONTINUOUS
 62
     7
 10
327.5179283683
 20
37.737409504
 30
0.0
 11
324.9947974304
 21
34.9589060543
 31
0.0
  0
LINE
  5
430
  8
0
  6
CONTINUOUS
 62
     7
 10
324.9947974304
 20
34.9589060543
 30
0.0
 11
321.8146186876
 21
65.023996188
 31
0.0
  0
LINE
  5
431
  8
0
  6
CONTINUOUS
 62
     7
 10
321.7446479848
 20
65.685563725
 30
0.0
 11
321.8146186876
 21
65.023996188
 31
0.0
  0
POLYLINE
  5
432
  8
0
  6
CONTINUOUS
 62
     7
 66
     1
 10
0.0
 20
0.0
 30
0.0
  0
VERTEX
  5
B0D
  8
0
  6
CONTINUOUS
 62
     7
 10
342.5223193007
 20
84.8233794766
 30
0.0
  0
VERTEX
  5
B0E
  8
0
  6
CONTINUOUS
 62
     7
 10
342.3546457233
 20
85.0211315238
 30
0.0
  0
VERTEX
  5
B0F
  8
0
  6
CONTINUOUS
 62
     7
 10
342.1320510359
 20
85.0604173005
 30
0.0
  0
VERTEX
  5
B10
  8
0
  6
CONTINUOUS
 62
     7
 10
341.9295743779
 20
84.9731268805
 30
0.0
  0
SEQEND
  5
B78
  8
0
  6
CONTINUOUS
 62
     7
  0
POLYLINE
  5
433
  8
0
  6
CONTINUOUS
 62
     7
 66
     1
 10
0.0
 20
0.0
 30
0.0
  0
VERTEX
  5
B11
  8
0
  6
CONTINUOUS
 62
     7
 10
348.4406079511
 20
60.7776585906
 30
0.0
  0
VERTEX
  5
B12
  8
0
  6
CONTINUOUS
 62
     7
 10
347.7379988248
 20
65.1790335369
 30
0.0
  0
VERTEX
  5
B13
  8
0
  6
CONTINUOUS
 62
     7
 10
346.3882021138
 20
72.267871499
 30
0.0
  0
VERTEX
  5
B14
  8
0
  6
CONTINUOUS
 62
     7
 10
344.7136033729
 20
78.9512748238
 30
0.0
  0
VERTEX
  5
B15
  8
0
  6
CONTINUOUS
 62
     7
 10
343.7053366225
 20
82.0194563076
 30
0.0
  0
VERTEX
  5
B16
  8
0
  6
CONTINUOUS
 62
     7
 10
342.5223193007
 20
84.8233794766
 30
0.0
  0
SEQEND
  5
B77
  8
0
  6
CONTINUOUS
 62
     7
  0
LINE
  5
434
  8
0
  6
CONTINUOUS
 62
     7
 10
348.4406079511
 20
60.7776585906
 30
0.0
 11
331.8072657098
 21
42.4608595367
 31
0.0
  0
LINE
  5
435
  8
0
  6
CONTINUOUS
 62
     7
 10
331.8072657098
 20
42.4608595367
 30
0.0
 11
331.6675227578
 21
43.6425324645
 31
0.0
  0
LINE
  5
436
  8
0
  6
CONTINUOUS
 62
     7
 10
327.4046196896
 20
38.9481784233
 30
0.0
 11
331.6675227578
 21
43.6425324645
 31
0.0
  0
LINE
  5
437
  8
0
  6
CONTINUOUS
 62
     7
 10
327.4046196896
 20
38.9481784233
 30
0.0
 11
327.5179283683
 21
37.737409504
 31
0.0
  0
LINE
  5
438
  8
0
  6
CONTINUOUS
 62
     7
 10
321.8146186876
 20
65.023996188
 30
0.0
 11
321.3896780756
 21
65.1860183532
 31
0.0
  0
ARC
  5
439
  8
0
  6
CONTINUOUS
 62
     7
 10
319.5109331125
 20
65.2660447928
 30
0.0
 40
1.880448581439691
 50
357.5609211276
 51
80.1171417268
  0
LINE
  5
43A
  8
0
  6
CONTINUOUS
 62
     7
 10
319.8823200314
 20
67.482724843
 30
0.0
 11
319.8927962399
 21
67.2816496402
 31
0.0
  0
LINE
  5
43B
  8
0
  6
CONTINUOUS
 62
     7
 10
321.4318732391
 20
64.7872884337
 30
0.0
 11
321.7650638293
 21
64.6602363503
 31
0.0
  0
LINE
  5
43C
  8
0
  6
CONTINUOUS
 62
     7
 10
321.3958882434
 20
65.127398735
 30
0.0
 11
321.4318650244
 21
64.7872804182
 31
0.0
  0
LINE
  5
43D
  8
0
  6
CONTINUOUS
 62
     7
 10
321.3896816696
 20
65.18602186
 30
0.0
 11
321.3958882434
 21
65.127398735
 31
0.0
  0
LINE
  5
43E
  8
0
  6
CONTINUOUS
 62
     7
 10
324.9030592172
 20
34.9938876584
 30
0.0
 11
324.9947974304
 21
34.9589060543
 31
0.0
  0
LINE
  5
43F
  8
0
  6
CONTINUOUS
 62
     7
 10
321.7650638293
 20
64.6602363503
 30
0.0
 11
324.9030592172
 21
34.9938876584
 31
0.0
  0
LINE
  5
440
  8
0
  6
CONTINUOUS
 62
     7
 10
320.022494166
 20
65.3335891263
 30
0.0
 11
320.0156657049
 21
65.3231389364
 31
0.0
  0
POLYLINE
  5
441
  8
0
  6
CONTINUOUS
 62
     7
 66
     1
 10
0.0
 20
0.0
 30
0.0
  0
VERTEX
  5
B17
  8
0
  6
CONTINUOUS
 62
     7
 10
321.2690590592
 20
66.012595725
 30
0.0
  0
VERTEX
  5
B18
  8
0
  6
CONTINUOUS
 62
     7
 10
321.162007388
 20
66.0245973308
 30
0.0
  0
VERTEX
  5
B19
  8
0
  6
CONTINUOUS
 62
     7
 10
320.9607619341
 20
66.0042577075
 30
0.0
  0
VERTEX
  5
B1A
  8
0
  6
CONTINUOUS
 62
     7
 10
320.7788403699
 20
65.9441656402
 30
0.0
  0
VERTEX
  5
B1B
  8
0
  6
CONTINUOUS
 62
     7
 10
320.634440982
 20
65.8500970331
 30
0.0
  0
VERTEX
  5
B1C
  8
0
  6
CONTINUOUS
 62
     7
 10
320.3620424906
 20
65.6201129656
 30
0.0
  0
VERTEX
  5
B1D
  8
0
  6
CONTINUOUS
 62
     7
 10
320.188687847
 20
65.4737449695
 30
0.0
  0
VERTEX
  5
B1E
  8
0
  6
CONTINUOUS
 62
     7
 10
320.1019745561
 20
65.4005764276
 30
0.0
  0
VERTEX
  5
B1F
  8
0
  6
CONTINUOUS
 62
     7
 10
320.0586005679
 20
65.364000511
 30
0.0
  0
VERTEX
  5
B20
  8
0
  6
CONTINUOUS
 62
     7
 10
320.047747886
 20
65.354860208
 30
0.0
  0
VERTEX
  5
B21
  8
0
  6
CONTINUOUS
 62
     7
 10
320.0314693767
 20
65.3411502545
 30
0.0
  0
VERTEX
  5
B22
  8
0
  6
CONTINUOUS
 62
     7
 10
320.0226092677
 20
65.3336845857
 30
0.0
  0
SEQEND
  5
B76
  8
0
  6
CONTINUOUS
 62
     7
  0
LINE
  5
442
  8
0
  6
CONTINUOUS
 62
     7
 10
320.022494166
 20
65.3335891263
 30
0.0
 11
320.0226092677
 21
65.3336845857
 31
0.0
  0
LINE
  5
443
  8
0
  6
CONTINUOUS
 62
     7
 10
324.5698686271
 20
35.1209397419
 30
0.0
 11
324.9030592172
 21
34.9938876584
 31
0.0
  0
LINE
  5
444
  8
0
  6
CONTINUOUS
 62
     7
 10
321.4318732391
 20
64.7872884337
 30
0.0
 11
324.5698686271
 21
35.1209397419
 31
0.0
  0
LINE
  5
445
  8
0
  6
CONTINUOUS
 62
     7
 10
320.6502673292
 20
65.8646970173
 30
0.0
 11
323.7882627172
 21
36.1983483254
 31
0.0
  0
LINE
  5
446
  8
0
  6
CONTINUOUS
 62
     7
 10
323.1532116038
 20
35.6610826409
 30
0.0
 11
323.7882627172
 21
36.1983483254
 31
0.0
  0
ARC
  5
447
  8
0
  6
CONTINUOUS
 62
     7
 10
324.2860671603
 20
35.5241751948
 30
0.0
 40
0.8380445535220092
 50
79.4096851068
 51
126.4418852357
  0
LINE
  5
448
  8
0
  6
CONTINUOUS
 62
     7
 10
297.3209849874
 20
75.7028438105
 30
0.0
 11
297.2515900818
 21
75.5034660415
 31
0.0
  0
ARC
  5
449
  8
0
  6
CONTINUOUS
 62
     7
 10
187.5412170969
 20
102.1957567062
 30
0.0
 40
0.3216591208979047
 50
67.5386529133
 51
97.4293807356
  0
ARC
  5
44A
  8
0
  6
CONTINUOUS
 62
     7
 10
268.7943358901
 20
70.969981076
 30
0.0
 40
0.5509034416210205
 50
47.6206523616
 51
68.4358582606
  0
LINE
  5
44B
  8
0
  6
CONTINUOUS
 62
     7
 10
187.6641102054
 20
102.4930139583
 30
0.0
 11
268.9968163651
 21
71.4823249637
 31
0.0
  0
LINE
  5
44C
  8
0
  6
CONTINUOUS
 62
     7
 10
269.2568738342
 20
71.1420246547
 30
0.0
 11
269.2578214809
 21
71.1318276745
 31
0.0
  0
ARC
  5
44D
  8
0
  6
CONTINUOUS
 62
     7
 10
270.5632571783
 20
48.3590394335
 30
0.0
 40
0.1199404519131282
 50
189.2432336267
 51
256.0491367093
  0
ARC
  5
44E
  8
0
  6
CONTINUOUS
 62
     7
 10
348.0722342993
 20
61.2044800297
 30
0.0
 40
0.5638046543537931
 50
310.7962511623
 51
12.898038392
  0
LINE
  5
44F
  8
0
  6
CONTINUOUS
 62
     7
 10
331.053359647
 20
42.7483102751
 30
0.0
 11
331.8072657098
 21
42.4608595367
 31
0.0
  0
ARC
  5
450
  8
0
  6
CONTINUOUS
 62
     7
 10
187.4473124305
 20
102.5700210173
 30
0.0
 40
0.2807579234445916
 50
249.0775772736
 51
308.9934451176
  0
LINE
  5
451
  8
0
  6
CONTINUOUS
 62
     7
 10
187.6239741536
 20
102.3518109187
 30
0.0
 11
188.8118893533
 21
79.5515497973
 31
0.0
  0
ARC
  5
452
  8
0
  6
CONTINUOUS
 62
     7
 10
188.6352276302
 20
79.769759896
 30
0.0
 40
0.2807579234446469
 50
249.0775772736
 51
308.9934451176
  0
LINE
  5
453
  8
0
  6
CONTINUOUS
 62
     7
 10
188.2101276407
 20
102.2204044332
 30
0.0
 11
188.214216675
 21
102.1419215172
 31
0.0
  0
LINE
  5
454
  8
0
  6
CONTINUOUS
 62
     7
 10
189.0735933535
 20
85.6474674721
 30
0.0
 11
189.3631707179
 21
80.0894617104
 31
0.0
  0
LINE
  5
455
  8
0
  6
CONTINUOUS
 62
     7
 10
189.3631707179
 20
80.0894617104
 30
0.0
 11
188.8118893533
 21
79.5515497973
 31
0.0
  0
ARC
  5
456
  8
0
  6
CONTINUOUS
 62
     7
 10
98.1975181381
 20
138.9921344189
 30
0.0
 40
0.2422982302840323
 50
135.6354802578
 51
178.3808301139
  0
POLYLINE
  5
457
  8
0
  6
CONTINUOUS
 62
     7
 66
     1
 10
0.0
 20
0.0
 30
0.0
  0
VERTEX
  5
B23
  8
0
  6
CONTINUOUS
 62
     7
 10
98.0242977262
 20
139.1615543743
 30
0.0
  0
VERTEX
  5
B24
  8
0
  6
CONTINUOUS
 62
     7
 10
98.1575995025
 20
141.6051118471
 30
0.0
  0
VERTEX
  5
B25
  8
0
  6
CONTINUOUS
 62
     7
 10
98.3558691617
 20
142.9369296836
 30
0.0
  0
VERTEX
  5
B26
  8
0
  6
CONTINUOUS
 62
     7
 10
98.69755438
 20
144.3861195689
 30
0.0
  0
VERTEX
  5
B27
  8
0
  6
CONTINUOUS
 62
     7
 10
99.3705588632
 20
146.2534506084
 30
0.0
  0
VERTEX
  5
B28
  8
0
  6
CONTINUOUS
 62
     7
 10
100.2460867114
 20
147.9588269566
 30
0.0
  0
VERTEX
  5
B29
  8
0
  6
CONTINUOUS
 62
     7
 10
101.4311895391
 20
149.7492352974
 30
0.0
  0
VERTEX
  5
B2A
  8
0
  6
CONTINUOUS
 62
     7
 10
102.6834230692
 20
151.3598497896
 30
0.0
  0
VERTEX
  5
B2B
  8
0
  6
CONTINUOUS
 62
     7
 10
103.7597286675
 20
152.6476537749
 30
0.0
  0
VERTEX
  5
B2C
  8
0
  6
CONTINUOUS
 62
     7
 10
105.2493093936
 20
154.399465177
 30
0.0
  0
SEQEND
  5
B75
  8
0
  6
CONTINUOUS
 62
     7
  0
ARC
  5
458
  8
0
  6
CONTINUOUS
 62
     7
 10
105.4693110732
 20
154.4176063467
 30
0.0
 40
0.2207483659288911
 50
139.8939787924
 51
184.71390124
  0
ARC
  5
459
  8
0
  6
CONTINUOUS
 62
     7
 10
98.1497113861
 20
114.278297017
 30
0.0
 40
0.2908212078974859
 50
185.6460227856
 51
256.7132983417
  0
LINE
  5
45A
  8
0
  6
CONTINUOUS
 62
     7
 10
104.6936848007
 20
157.2274574487
 30
0.0
 11
105.728971133
 21
157.0549570229
 31
0.0
  0
POLYLINE
  5
45B
  8
0
  6
CONTINUOUS
 62
     7
 66
     1
 10
0.0
 20
0.0
 30
0.0
  0
VERTEX
  5
B2D
  8
0
  6
CONTINUOUS
 62
     7
 10
110.9319986912
 20
162.1674178434
 30
0.0
  0
VERTEX
  5
B2E
  8
0
  6
CONTINUOUS
 62
     7
 10
109.1401132791
 20
160.8467788838
 30
0.0
  0
VERTEX
  5
B2F
  8
0
  6
CONTINUOUS
 62
     7
 10
104.6936848007
 20
157.2274574487
 30
0.0
  0
SEQEND
  5
B74
  8
0
  6
CONTINUOUS
 62
     7
  0
ARC
  5
45C
  8
0
  6
CONTINUOUS
 62
     7
 10
104.4940842837
 20
156.5418087278
 30
0.0
 40
0.7141110101314491
 50
73.76909227
 51
182.3026280555
  0
LINE
  5
45D
  8
0
  6
CONTINUOUS
 62
     7
 10
105.7467126101
 20
156.7144358209
 30
0.0
 11
105.7398548658
 21
156.8460599989
 31
0.0
  0
POLYLINE
  5
45E
  8
0
  6
CONTINUOUS
 62
     7
 66
     1
 10
0.0
 20
0.0
 30
0.0
  0
VERTEX
  5
B30
  8
0
  6
CONTINUOUS
 62
     7
 10
104.3263315268
 20
155.5233946101
 30
0.0
  0
VERTEX
  5
B31
  8
0
  6
CONTINUOUS
 62
     7
 10
104.3291980665
 20
156.255904945
 30
0.0
  0
VERTEX
  5
B32
  8
0
  6
CONTINUOUS
 62
     7
 10
104.5948355377
 20
156.7853771545
 30
0.0
  0
VERTEX
  5
B33
  8
0
  6
CONTINUOUS
 62
     7
 10
105.1486325803
 20
156.7900792597
 30
0.0
  0
VERTEX
  5
B34
  8
0
  6
CONTINUOUS
 62
     7
 10
105.7467126101
 20
156.7144358209
 30
0.0
  0
SEQEND
  5
B73
  8
0
  6
CONTINUOUS
 62
     7
  0
LINE
  5
45F
  8
0
  6
CONTINUOUS
 62
     7
 10
104.3263315268
 20
155.5233946101
 30
0.0
 11
104.3176435599
 21
153.3037903465
 31
0.0
  0
LINE
  5
460
  8
0
  6
CONTINUOUS
 62
     7
 10
103.7805498801
 20
156.5131174443
 30
0.0
 11
103.780176209
 21
152.6717036473
 31
0.0
  0
LINE
  5
461
  8
0
  6
CONTINUOUS
 62
     7
 10
105.7467126101
 20
156.7144358209
 30
0.0
 11
106.0983113612
 21
156.7107681553
 31
0.0
  0
LINE
  5
462
  8
0
  6
CONTINUOUS
 62
     7
 10
106.0779684129
 20
155.2162632297
 30
0.0
 11
106.100708537
 21
155.2408605481
 31
0.0
  0
POLYLINE
  5
463
  8
0
  6
CONTINUOUS
 62
     7
 66
     1
 10
0.0
 20
0.0
 30
0.0
  0
VERTEX
  5
B35
  8
0
  6
CONTINUOUS
 62
     7
 10
105.8892426002
 20
155.2129022596
 30
0.0
  0
VERTEX
  5
B36
  8
0
  6
CONTINUOUS
 62
     7
 10
105.9774757336
 20
155.2281358974
 30
0.0
  0
VERTEX
  5
B37
  8
0
  6
CONTINUOUS
 62
     7
 10
106.0779684129
 20
155.2162632297
 30
0.0
  0
SEQEND
  5
B72
  8
0
  6
CONTINUOUS
 62
     7
  0
ARC
  5
464
  8
0
  6
CONTINUOUS
 62
     7
 10
105.9695319519
 20
155.0005703713
 30
0.0
 40
0.2270048695540271
 50
110.7131786774
 51
183.6836410421
  0
LINE
  5
465
  8
0
  6
CONTINUOUS
 62
     7
 10
106.256630182
 20
155.5668253552
 30
0.0
 11
105.955131783
 21
155.2242764683
 31
0.0
  0
POLYLINE
  5
466
  8
0
  6
CONTINUOUS
 62
     7
 66
     1
 10
0.0
 20
0.0
 30
0.0
  0
VERTEX
  5
B38
  8
0
  6
CONTINUOUS
 62
     7
 10
105.3872483073
 20
156.028467577
 30
0.0
  0
VERTEX
  5
B39
  8
0
  6
CONTINUOUS
 62
     7
 10
105.5688811291
 20
156.0889477308
 30
0.0
  0
VERTEX
  5
B3A
  8
0
  6
CONTINUOUS
 62
     7
 10
105.7692848636
 20
156.1093212348
 30
0.0
  0
VERTEX
  5
B3B
  8
0
  6
CONTINUOUS
 62
     7
 10
105.9657834081
 20
156.0872870927
 30
0.0
  0
VERTEX
  5
B3C
  8
0
  6
CONTINUOUS
 62
     7
 10
106.1361462825
 20
156.025335101
 30
0.0
  0
VERTEX
  5
B3D
  8
0
  6
CONTINUOUS
 62
     7
 10
106.2610961627
 20
155.9304753515
 30
0.0
  0
VERTEX
  5
B3E
  8
0
  6
CONTINUOUS
 62
     7
 10
106.3264972578
 20
155.813441466
 30
0.0
  0
VERTEX
  5
B3F
  8
0
  6
CONTINUOUS
 62
     7
 10
106.3257513178
 20
155.7524208198
 30
0.0
  0
SEQEND
  5
B71
  8
0
  6
CONTINUOUS
 62
     7
  0
LINE
  5
467
  8
0
  6
CONTINUOUS
 62
     7
 10
104.3263315268
 20
155.5233946101
 30
0.0
 11
105.3872544922
 21
156.0284693991
 31
0.0
  0
ARC
  5
468
  8
0
  6
CONTINUOUS
 62
     7
 10
125.2278062599
 20
168.1493906207
 30
0.0
 40
1.09224355491349
 50
68.6785829252
 51
105.3084166033
  0
ARC
  5
469
  8
0
  6
CONTINUOUS
 62
     7
 10
267.0771616517
 20
70.6591150587
 30
0.0
 40
1.987352589205686
 50
4.0914398864
 51
23.6270118616
  0
POLYLINE
  5
46A
  8
0
  6
CONTINUOUS
 62
     7
 66
     1
 10
0.0
 20
0.0
 30
0.0
  0
VERTEX
  5
B40
  8
0
  6
CONTINUOUS
 62
     7
 10
188.2142161801
 20
102.1419213664
 30
0.0
  0
VERTEX
  5
B41
  8
0
  6
CONTINUOUS
 62
     7
 10
188.1553132007
 20
101.9140247068
 30
0.0
  0
VERTEX
  5
B42
  8
0
  6
CONTINUOUS
 62
     7
 10
188.1442084744
 20
101.6524265816
 30
0.0
  0
SEQEND
  5
B70
  8
0
  6
CONTINUOUS
 62
     7
  0
LINE
  5
46B
  8
0
  6
CONTINUOUS
 62
     7
 10
269.0594493808
 20
70.8009095333
 30
0.0
 11
269.8596641385
 21
55.3473717136
 31
0.0
  0
POLYLINE
  5
46C
  8
0
  6
CONTINUOUS
 62
     7
 66
     1
 10
0.0
 20
0.0
 30
0.0
  0
VERTEX
  5
B43
  8
0
  6
CONTINUOUS
 62
     7
 10
268.2745944993
 20
54.4217903343
 30
0.0
  0
VERTEX
  5
B44
  8
0
  6
CONTINUOUS
 62
     7
 10
268.5980860151
 20
54.3278412876
 30
0.0
  0
VERTEX
  5
B45
  8
0
  6
CONTINUOUS
 62
     7
 10
268.906020624
 20
54.2974806945
 30
0.0
  0
VERTEX
  5
B46
  8
0
  6
CONTINUOUS
 62
     7
 10
269.1865682986
 20
54.3318755762
 30
0.0
  0
VERTEX
  5
B47
  8
0
  6
CONTINUOUS
 62
     7
 10
269.4289411306
 20
54.429711148
 30
0.0
  0
VERTEX
  5
B48
  8
0
  6
CONTINUOUS
 62
     7
 10
269.6238541719
 20
54.5872225219
 30
0.0
  0
VERTEX
  5
B49
  8
0
  6
CONTINUOUS
 62
     7
 10
269.7638085846
 20
54.7983665046
 30
0.0
  0
VERTEX
  5
B4A
  8
0
  6
CONTINUOUS
 62
     7
 10
269.8434335252
 20
55.0550340809
 30
0.0
  0
VERTEX
  5
B4B
  8
0
  6
CONTINUOUS
 62
     7
 10
269.8596641385
 20
55.3473717136
 30
0.0
  0
SEQEND
  5
B6F
  8
0
  6
CONTINUOUS
 62
     7
  0
LINE
  5
46D
  8
0
  6
CONTINUOUS
 62
     7
 10
268.2745944993
 20
54.4217903343
 30
0.0
 11
190.7022079436
 21
83.9987375138
 31
0.0
  0
ARC
  5
46E
  8
0
  6
CONTINUOUS
 62
     7
 10
191.6917098519
 20
86.5796787883
 30
0.0
 40
2.764122263822305
 50
187.998584746
 51
249.0237758456
  0
LINE
  5
46F
  8
0
  6
CONTINUOUS
 62
     7
 10
188.9544783346
 20
86.1950549333
 30
0.0
 11
188.1442084744
 21
101.6524265816
 31
0.0
  0
LINE
  5
470
  8
0
  6
CONTINUOUS
 62
     7
 10
331.0725389912
 20
42.3802335148
 30
0.0
 11
331.0426244969
 21
42.9543976317
 31
0.0
  0
LINE
  5
471
  8
0
  6
CONTINUOUS
 62
     7
 10
327.4560706281
 20
38.3984148994
 30
0.0
 11
331.0725389912
 21
42.3802335148
 31
0.0
  0
LINE
  5
472
  8
0
  6
CONTINUOUS
 62
     7
 10
269.4702721635
 20
54.1814160575
 30
0.0
 11
270.2095789072
 21
54.9025375649
 31
0.0
  0
ARC
  5
473
  8
0
  6
CONTINUOUS
 62
     7
 10
269.204129008
 20
56.1700621418
 30
0.0
 40
2.006376192979193
 50
247.5184571059
 51
277.622676395
  0
ARC
  5
474
  8
0
  6
CONTINUOUS
 62
     7
 10
269.4795373604
 20
53.9327875149
 30
0.0
 40
0.2488011174698177
 50
3.5533230304
 51
92.1341522067
  0
LINE
  5
475
  8
0
  6
CONTINUOUS
 62
     7
 10
189.5641455745
 20
80.0266048305
 30
0.0
 11
269.8810939161
 21
49.40320591
 31
0.0
  0
LINE
  5
476
  8
0
  6
CONTINUOUS
 62
     7
 10
189.5641455745
 20
80.0266048305
 30
0.0
 11
189.2403941792
 21
84.6366217856
 31
0.0
  0
POLYLINE
  5
477
  8
0
  6
CONTINUOUS
 62
     7
 66
     1
 10
0.0
 20
0.0
 30
0.0
  0
VERTEX
  5
B4C
  8
0
  6
CONTINUOUS
 62
     7
 10
189.4836303669
 20
84.6788750699
 30
0.0
  0
VERTEX
  5
B4D
  8
0
  6
CONTINUOUS
 62
     7
 10
189.4302587478
 20
84.7172314985
 30
0.0
  0
VERTEX
  5
B4E
  8
0
  6
CONTINUOUS
 62
     7
 10
189.3742490899
 20
84.7396447023
 30
0.0
  0
VERTEX
  5
B4F
  8
0
  6
CONTINUOUS
 62
     7
 10
189.3219251246
 20
84.7435848827
 30
0.0
  0
VERTEX
  5
B50
  8
0
  6
CONTINUOUS
 62
     7
 10
189.2791792586
 20
84.7286104345
 30
0.0
  0
VERTEX
  5
B51
  8
0
  6
CONTINUOUS
 62
     7
 10
189.2508314702
 20
84.6964088952
 30
0.0
  0
VERTEX
  5
B52
  8
0
  6
CONTINUOUS
 62
     7
 10
189.2400760637
 20
84.6506115925
 30
0.0
  0
VERTEX
  5
B53
  8
0
  6
CONTINUOUS
 62
     7
 10
189.2403941792
 20
84.6366217856
 30
0.0
  0
SEQEND
  5
B6E
  8
0
  6
CONTINUOUS
 62
     7
  0
ARC
  5
478
  8
0
  6
CONTINUOUS
 62
     7
 10
191.8116960741
 20
87.2201988604
 30
0.0
 40
3.44647886178042
 50
227.5077034789
 51
248.4284040876
  0
LINE
  5
479
  8
0
  6
CONTINUOUS
 62
     7
 10
190.5445513326
 20
84.0151152813
 30
0.0
 11
268.4369192494
 21
54.3161649995
 31
0.0
  0
LINE
  5
47A
  8
0
  6
CONTINUOUS
 62
     7
 10
269.7278601703
 20
53.9482075711
 30
0.0
 11
269.8810939161
 21
49.40320591
 31
0.0
  0
LINE
  5
47B
  8
0
  6
CONTINUOUS
 62
     7
 10
269.8810939161
 20
49.40320591
 30
0.0
 11
270.364883351
 21
49.8749593626
 31
0.0
  0
LINE
  5
47C
  8
0
  6
CONTINUOUS
 62
     7
 10
189.3133210089
 20
81.0462172549
 30
0.0
 11
189.4974700121
 21
80.9760045725
 31
0.0
  0
LINE
  5
47D
  8
0
  6
CONTINUOUS
 62
     8
 10
293.336937162
 20
57.0448635631
 30
0.0
 11
293.2263981621
 21
56.944520846
 31
0.0
  0
LINE
  5
47E
  8
0
  6
CONTINUOUS
 62
     8
 10
290.8638756565
 20
57.4814474874
 30
0.0
 11
290.991740659
 21
57.6073742773
 31
0.0
  0
ARC
  5
47F
  8
0
  6
CONTINUOUS
 62
     8
 10
269.2125653128
 20
71.3236891319
 30
0.0
 40
0.0709543833360926
 50
131.3758942454
 51
170.4394616832
  0
ARC
  5
480
  8
0
  6
CONTINUOUS
 62
     8
 10
269.379971415
 20
71.1649257222
 30
0.0
 40
0.126554680515464
 50
195.1609611517
 51
254.6288911033
  0
POLYLINE
  5
481
  8
0
  6
CONTINUOUS
 62
     8
 66
     1
 10
0.0
 20
0.0
 30
0.0
  0
VERTEX
  5
B54
  8
0
  6
CONTINUOUS
 62
     8
 10
268.9968163651
 20
71.4823249637
 30
0.0
  0
VERTEX
  5
B55
  8
0
  6
CONTINUOUS
 62
     8
 10
269.0005221834
 20
71.4539265774
 30
0.0
  0
VERTEX
  5
B56
  8
0
  6
CONTINUOUS
 62
     8
 10
269.0083227697
 20
71.4307524472
 30
0.0
  0
VERTEX
  5
B57
  8
0
  6
CONTINUOUS
 62
     8
 10
269.0199182502
 20
71.4136944425
 30
0.0
  0
VERTEX
  5
B58
  8
0
  6
CONTINUOUS
 62
     8
 10
269.0348629891
 20
71.4034089764
 30
0.0
  0
VERTEX
  5
B59
  8
0
  6
CONTINUOUS
 62
     8
 10
269.035683769
 20
71.4030834576
 30
0.0
  0
SEQEND
  5
B6D
  8
0
  6
CONTINUOUS
 62
     8
  0
POLYLINE
  5
482
  8
0
  6
CONTINUOUS
 62
     8
 66
     1
 10
0.0
 20
0.0
 30
0.0
  0
VERTEX
  5
B5A
  8
0
  6
CONTINUOUS
 62
     8
 10
187.6641102054
 20
102.4930139583
 30
0.0
  0
VERTEX
  5
B5B
  8
0
  6
CONTINUOUS
 62
     8
 10
187.6678160237
 20
102.4646155719
 30
0.0
  0
VERTEX
  5
B5C
  8
0
  6
CONTINUOUS
 62
     8
 10
187.67561661
 20
102.4414414418
 30
0.0
  0
VERTEX
  5
B5D
  8
0
  6
CONTINUOUS
 62
     8
 10
187.6872120905
 20
102.4243834371
 30
0.0
  0
VERTEX
  5
B5E
  8
0
  6
CONTINUOUS
 62
     8
 10
187.7021568294
 20
102.4140979709
 30
0.0
  0
VERTEX
  5
B5F
  8
0
  6
CONTINUOUS
 62
     8
 10
187.7031135931
 20
102.4137202079
 30
0.0
  0
SEQEND
  5
B6C
  8
0
  6
CONTINUOUS
 62
     8
  0
ARC
  5
483
  8
0
  6
CONTINUOUS
 62
     8
 10
341.5714696846
 20
85.393228064
 30
0.0
 40
1.10853164362745
 50
329.0655474268
 51
23.6770769983
  0
POLYLINE
  5
484
  8
0
  6
CONTINUOUS
 62
     8
 66
     1
 10
0.0
 20
0.0
 30
0.0
  0
VERTEX
  5
B60
  8
0
  6
CONTINUOUS
 62
     8
 10
340.7879241214
 20
86.6754848896
 30
0.0
  0
VERTEX
  5
B61
  8
0
  6
CONTINUOUS
 62
     8
 10
341.2032055364
 20
86.8461218536
 30
0.0
  0
VERTEX
  5
B62
  8
0
  6
CONTINUOUS
 62
     8
 10
341.5450586841
 20
86.7852739016
 30
0.0
  0
SEQEND
  5
B6B
  8
0
  6
CONTINUOUS
 62
     8
  0
LINE
  5
485
  8
0
  6
CONTINUOUS
 62
     8
 10
126.0662717705
 20
169.1179875263
 30
0.0
 11
125.6249454374
 21
169.1668759803
 31
0.0
  0
ARC
  5
486
  8
0
  6
CONTINUOUS
 62
     8
 10
187.6332533962
 20
102.5693388779
 30
0.0
 40
0.1443613327785862
 50
202.2333474183
 51
274.7767504564
  0
POLYLINE
  5
487
  8
0
  6
CONTINUOUS
 62
     8
 66
     1
 10
0.0
 20
0.0
 30
0.0
  0
VERTEX
  5
B63
  8
0
  6
CONTINUOUS
 62
     8
 10
187.6467037046
 20
102.422933686
 30
0.0
  0
VERTEX
  5
B64
  8
0
  6
CONTINUOUS
 62
     8
 10
187.6306748609
 20
102.3999204211
 30
0.0
  0
VERTEX
  5
B65
  8
0
  6
CONTINUOUS
 62
     8
 10
187.6239741536
 20
102.3518109187
 30
0.0
  0
SEQEND
  5
B6A
  8
0
  6
CONTINUOUS
 62
     8
  0
LINE
  5
488
  8
0
  6
CONTINUOUS
 62
     8
 10
187.690790896
 20
102.4170072486
 30
0.0
 11
187.6239741536
 21
102.3518109187
 31
0.0
  0
ARC
  5
489
  8
0
  6
CONTINUOUS
 62
     8
 10
98.268151155
 20
139.029440412
 30
0.0
 40
0.3143138754239342
 50
185.5611588061
 51
253.6495301949
  0
ARC
  5
48A
  8
0
  6
CONTINUOUS
 62
     8
 10
105.4958319355
 20
154.354710491
 30
0.0
 40
0.2832545168309719
 50
72.1205701834
 51
133.6064854487
  0
POLYLINE
  5
48B
  8
0
  6
CONTINUOUS
 62
     8
 66
     1
 10
0.0
 20
0.0
 30
0.0
  0
VERTEX
  5
B66
  8
0
  6
CONTINUOUS
 62
     8
 10
110.9319986912
 20
162.1674178434
 30
0.0
  0
VERTEX
  5
B67
  8
0
  6
CONTINUOUS
 62
     8
 10
110.5616626217
 20
162.1731574418
 30
0.0
  0
VERTEX
  5
B68
  8
0
  6
CONTINUOUS
 62
     8
 10
110.2566769508
 20
162.0383422061
 30
0.0
  0
SEQEND
  5
B69
  8
0
  6
CONTINUOUS
 62
     8
  0
LINE
  5
48C
  8
0
  6
CONTINUOUS
 62
     8
 10
105.3872483073
 20
156.028467577
 30
0.0
 11
105.3818909266
 21
154.6596630234
 31
0.0
  0
LINE
  5
48D
  8
0
  6
CONTINUOUS
 62
     8
 10
269.2561497418
 20
70.9909667249
 30
0.0
 11
269.0594493808
 21
70.8009095333
 31
0.0
  0
LINE
  5
48E
  8
0
  6
CONTINUOUS
 62
     8
 10
269.8596641385
 20
55.3473717136
 30
0.0
 11
270.0697428949
 21
55.5397313874
 31
0.0
  0
LINE
  5
48F
  8
0
  6
CONTINUOUS
 62
     8
 10
268.4369192494
 20
54.3161649995
 30
0.0
 11
268.4775948352
 21
54.3558541375
 31
0.0
  0
LINE
  5
490
  8
0
  6
CONTINUOUS
 62
     8
 10
270.1321260061
 20
54.3425243001
 30
0.0
 11
269.7278601703
 21
53.9482075711
 31
0.0
  0
LINE
  5
491
  8
0
  6
CONTINUOUS
 62
     8
 10
190.5445513326
 20
84.0151152813
 30
0.0
 11
190.5798133294
 21
84.0495221184
 31
0.0
  0
LINE
  5
492
  8
0
  6
CONTINUOUS
 62
     8
 10
189.5968973928
 20
84.7894908683
 30
0.0
 11
189.4836303669
 21
84.6788750699
 31
0.0
  0
ENDSEC
  0
EOF
